#TITLE:roppongi EVOLVED ver. C;
#SUBTITLE:;
#ARTIST:TAG underground;
#TITLETRANSLIT:;
#SUBTITLETRANSLIT:;
#ARTISTTRANSLIT:;
#GENRE:;
#CREDIT:;
#BANNER:roppongi EVOLVED ver. C.png;
#BACKGROUND:roppongi EVOLVED ver. C-bg.png;
#LYRICSPATH:;
#CDTITLE:;
#MUSIC:roppongi EVOLVED ver. C.ogg;
#OFFSET:0.000000;
#SAMPLESTART:24.000000;
#SAMPLELENGTH:20.000000;
#SELECTABLE:YES;
#DISPLAYBPM:43.000000:170.000000;
#BPMS:0.000000=170.615997
,4.000000=169.990005
,184.000000=84.905998
,184.500000=42.452999
,185.000000=84.972000
,197.000000=170.011993
,213.000000=170.000000
,247.000000=169.992996
;
#STOPS:184.750000=0.353000,
213.000000=2.113000,
247.000000=0.180000
;
#BGCHANGES:;
#KEYSOUNDS:;
#ATTACKS:;

//---------------dance-single - ----------------
#NOTES:
     dance-single:
     :
     Beginner:
     6:
     0.190029,0.277917,0.025913,0.095014,0.000000,154.000000,151.000000,3.000000,11.000000,0.000000,0.000000,0.190029,0.277917,0.025913,0.095014,0.000000,154.000000,151.000000,3.000000,11.000000,0.000000,0.000000:
0000
0000
0000
0000
,
0000
0000
0000
0000
,
0000
0000
0000
0000
,
0000
0000
0000
0000
,
0000
0000
0000
0000
,
0000
0000
0000
0000
,
0000
0000
0000
0000
,
0000
0000
0000
0000
,
0000
0000
0000
0000
,
0000
0001
0000
0001
,
0000
1000
0000
1000
,
0000
0001
0000
1000
,
0000
0001
0000
1000
,
1000
0000
0000
0000
,
0000
0000
0000
0000
,
0001
0000
1000
0000
,
0001
0001
1000
1000
,
0010
0010
0100
0100
,
0100
0000
0000
0000
,
0010
0010
0100
0100
,
0010
0000
0010
0000
,
1000
1000
0001
0001
,
0001
0000
0000
0000
,
0001
0001
1000
1000
,
0002
0000
0000
0003
,
1000
1000
0100
1000
,
0200
0000
0000
0300
,
0001
0001
0100
0001
,
0200
0000
0000
0300
,
1000
0000
1000
0000
,
0010
0000
0010
0000
,
0001
0000
0001
0000
,
0020
0000
0000
0030
,
0000
0000
0000
0001
,
0000
0000
0000
0100
,
0000
0000
0000
1000
,
0000
0000
0000
0010
,
0000
0001
0001
0001
,
0000
0100
0100
0100
,
0000
1000
0000
1000
,
0000
0010
0000
0010
,
0001
0001
0001
0001
,
0100
0100
0100
0100
,
1000
0000
0001
0000
,
1000
0001
2002
0000
,
0000
0000
0000
0000
,
3003
0000
0001
0000
,
0001
0000
1000
0000
,
1000
0000
0010
0000
,
0010
0000
0000
0100
,
0000
0020
0000
0000
,
0030
0001
0000
1000
,
0000
2002
0000
0000
,
0000
0000
3003
0001
,
0001
0100
0001
0100
,
0100
0001
0100
0001
,
0100
1000
0100
0001
,
0100
1000
0100
1000
,
1000
0100
1000
0100
,
0100
1000
0100
1000
,
0100
0001
0100
1000
,
0100
0000
0001
0000
0100
0000
0000
0001
,
0000
1000
0000
0001
0000
0010
0000
0010
,
0000
0100
0000
0100
0000
1000
0000
0000
,
0000
0001
0000
0000
0000
2002
0000
0000
,
0000
0000
0000
3003
0000
0010
0000
0000
,
0000
1000
0000
0000
0000
0100
0000
0000
,
0000
0001
0000
0000
0000
0001
0000
0010
,
0000
0100
0000
1000
0000
1000
0000
0100
,
0000
0010
0000
0001
0000
0001
0000
0000
,
0000
1000
0000
0000
0000
0001
0000
1000
,
0000
0001
0000
0000
0010
0000
0000
0000
,
;

//---------------dance-single - ----------------
#NOTES:
     dance-single:
     :
     Easy:
     8:
     0.314658,0.401436,0.120927,0.207304,0.004319,255.000000,241.000000,14.000000,24.000000,0.000000,0.000000,0.314658,0.401436,0.120927,0.207304,0.004319,255.000000,241.000000,14.000000,24.000000,0.000000,0.000000:
0000
0000
0000
0000
,
0000
0000
0000
0000
,
0000
0000
0000
0000
,
0000
0000
0000
0000
,
0000
0000
0000
0000
,
0000
0000
0000
0000
,
0000
0000
0000
0000
,
1000
0010
0001
0100
,
1000
0000
0000
0001
0000
0000
1001
0000
,
0010
0010
1000
0001
,
0010
0010
0001
1000
,
0010
0010
1000
0001
,
0010
0010
0001
1000
,
0200
0010
0000
0010
,
0000
0010
0000
0310
,
0001
0000
1000
0000
,
0001
0010
1000
1001
,
0001
0010
1000
0100
,
0102
0000
0100
0103
,
1000
0010
0001
0100
,
2100
0000
0100
3100
,
0010
1000
0100
0001
,
1002
0000
1000
1003
,
0001
0010
1000
0100
,
0010
0000
0000
0100
0000
0000
0010
0000
,
0001
0010
0001
0000
1000
0000
0100
0000
,
2000
0000
0001
3001
,
0010
0100
0010
0000
1000
0000
0010
0000
,
0002
0000
0100
0103
,
1000
0010
1000
0000
,
0001
0010
0001
0000
,
0010
0100
0010
0000
,
2000
0000
0000
0002
3003
0000
0110
0000
,
0010
0010
1000
1000
,
0100
0100
0001
0001
,
0010
0010
1000
1000
,
0100
0100
0001
0001
,
2000
0100
0001
0100
,
3002
0100
1000
0100
,
2003
0100
3002
0100
,
2003
0100
3002
0100
,
0013
0010
0100
0000
1000
0000
0100
0000
,
0010
0010
0100
0000
0001
0000
0100
0000
,
0010
0000
0100
0000
,
0001
1000
2002
0000
,
0000
0000
0000
0000
,
3003
0000
0001
0001
0100
0000
0000
1000
,
0100
0000
0010
0010
0100
0000
0000
1000
,
0010
1000
0001
0001
0010
0000
0000
0100
,
0010
1000
0010
0001
,
0100
0000
0010
0000
0000
0100
0000
0000
,
0110
0001
0000
1000
,
0000
0220
0000
0000
,
0330
2002
3003
1000
,
0001
0000
0001
0100
1000
0000
0001
0000
,
1000
0000
1000
0100
0001
0000
0100
0000
,
1000
0010
0001
0200
,
1000
0001
1300
0001
,
1000
0000
1000
0100
0001
0000
1000
0000
,
0001
0000
0001
0100
1000
0000
0100
0000
,
0001
0010
1000
0100
,
0000
0010
0000
0000
0110
0000
0000
0010
,
0000
0001
0000
1000
0000
0010
0000
0100
,
0000
0001
0100
0001
0000
2000
0000
0010
,
0000
3002
0000
0010
0000
2003
0000
0000
,
0000
3100
0000
0100
0000
0010
0010
0100
,
0000
1000
1000
0001
0000
0100
0100
0010
,
0000
0001
0001
1000
0000
0010
0000
0101
,
0000
0010
0000
1100
0000
0001
0000
0100
,
0000
1000
0000
0100
0000
0001
0000
0000
,
0000
1000
0000
0000
0000
0010
0000
0010
,
0000
0000
0001
0000
0000
1000
0000
0000
1001
0000
0000
0000
0000
0000
0000
0000
,
;

//---------------dance-single - ----------------
#NOTES:
     dance-single:
     :
     Medium:
     11:
     0.482475,0.679352,0.198666,0.138203,0.103652,391.000000,368.000000,23.000000,16.000000,0.000000,0.000000,0.482475,0.679352,0.198666,0.138203,0.103652,391.000000,368.000000,23.000000,16.000000,0.000000,0.000000:
0000
0000
0000
0000
,
0000
0000
0000
0000
,
0000
0000
0000
0000
,
0000
0000
0000
0000
,
0000
0000
0000
0000
,
0000
0000
0000
0000
,
0000
0000
0000
0000
,
0010
0001
0100
0010
1000
0100
0010
0000
,
1001
0000
0000
0110
0000
0000
1001
0000
,
0010
1000
0100
0000
0100
1000
0010
0000
,
0010
0001
1000
0000
1000
0001
0010
0000
,
0100
0010
1000
0000
1000
0010
0100
0000
,
0001
1000
0100
0000
0100
1000
0001
0000
,
0020
0100
0000
0100
,
0000
0000
0100
0000
0000
0000
0130
0001
,
1000
1100
0001
0101
,
1000
0100
0001
0100
1000
0010
0001
0000
,
1000
0100
1000
0000
0001
0010
0100
0010
,
0002
0000
1000
1003
,
0001
0100
0010
0000
0001
1000
0100
0010
,
2000
0100
0010
3010
,
0001
0100
0001
0000
1000
0010
0100
0010
,
2000
0000
0001
3001
,
1000
0100
0001
0000
0001
0100
1000
0010
,
0100
0000
0001
0010
0000
0001
0100
0000
,
0010
1000
0010
1000
0001
0100
1000
0100
,
0002
1000
0010
0103
,
1000
0100
1000
0100
0010
0100
1000
0010
,
0100
0001
1001
1001
,
0100
0100
0100
0100
,
0001
0001
0001
0001
,
0010
0010
0010
0010
,
2000
0000
0000
0002
3003
0000
0110
0000
,
1000
0000
1000
0000
0001
0100
1000
0000
,
0001
0000
0001
0000
1000
0100
0001
0000
,
1000
0000
1000
0000
0001
0100
1000
0000
,
0001
0000
0000
0000
0001
0000
0000
0000
1000
0000
0000
0001
0010
0000
0100
0000
,
1000
0010
1000
0000
1000
0100
1000
0000
,
0100
0001
0100
0000
0001
0010
0001
0000
,
0010
0000
0000
0010
0000
0000
1000
0000
0100
0000
0000
0100
0000
0000
0010
0000
,
0001
0000
0000
0001
0000
0000
0100
0000
0010
0000
0000
0010
0000
0000
1000
0000
,
0001
0010
0100
1000
0001
0010
0100
1000
,
0010
0100
0001
1000
0010
0100
0001
1000
,
0100
0000
0001
0000
0100
1000
0010
0100
,
1000
0000
0000
0000
0000
0000
0000
0000
0000
0000
0000
0000
0000
0000
0000
0000
0000
0000
0000
0000
0000
0000
0000
0000
0100
0000
0000
0000
0000
0000
0000
0000
0000
0000
0000
0000
0000
0000
0000
0000
0000
0000
0000
0000
0000
0000
0000
0000
0001
0000
0000
0000
0000
0000
0000
0000
0000
0000
0000
0000
0000
0000
0000
0000
0000
0000
0000
0000
0000
0000
0000
0000
0000
0000
0000
0000
0000
0000
0000
0000
0000
0000
0000
0000
0000
0000
0000
0000
0000
0000
0000
0000
0000
0000
0000
0000
0010
0000
0000
0000
0000
0000
0000
0000
0000
0000
0000
0000
0000
0000
0000
0000
0000
0000
0000
0000
0000
0000
0000
0000
0000
0000
0000
0000
0000
0000
0000
0000
0010
0000
0000
0000
0000
0000
0000
0000
0000
0000
0000
0000
0000
0000
0000
0000
0000
0000
0000
0000
0000
0000
0000
0000
0000
0000
0000
0000
0000
0000
0000
0000
0010
0000
0000
0000
0000
0000
0000
0000
0000
0000
0000
0000
0000
0000
0000
0000
0000
0000
0000
0000
0000
0000
0000
0000
0000
0000
0000
0000
0000
0000
0000
0000
,
0001
0000
0000
0000
0000
0000
0000
0000
0000
0000
0000
0000
0000
0000
0000
0000
0000
0000
0000
0000
0000
0000
0000
0000
0000
0000
0000
0000
0000
0000
0000
0000
0001
0000
0000
0000
0000
0000
0000
0000
0000
0000
0000
0000
0000
0000
0000
0000
0000
0000
0000
0000
0000
0000
0000
0000
0000
0000
0000
0000
0000
0000
0000
0000
0001
0000
0000
0000
0000
0000
0000
0000
0000
0000
0000
0000
0000
0000
0000
0000
0000
0000
0000
0000
0000
0000
0000
0000
0000
0000
0000
0000
0000
0000
0000
0000
1000
0000
0000
0000
0000
0000
0000
0000
0000
0000
0000
0000
0000
0000
0000
0000
0000
0000
0000
0000
0000
0000
0000
0000
0000
0000
0000
0000
0000
0000
0000
0000
0001
0000
0000
0000
0000
0000
0000
0000
0000
0000
0000
0000
0000
0000
0000
0000
0000
0000
0000
0000
0000
0000
0000
0000
0000
0000
0000
0000
0000
0000
0000
0000
1001
0000
0000
0000
0000
0000
0000
0000
0000
0000
0000
0000
0000
0000
0000
0000
0000
0000
0000
0000
0000
0000
0000
0000
0000
0000
0000
0000
0000
0000
0000
0000
,
0000
0000
0000
0000
0010
0000
0010
0000
1010
0000
0000
0001
0010
0100
1000
0000
,
0010
0000
0000
0000
0010
0000
0010
0000
0011
0000
0000
1000
0010
0100
0001
0000
,
0010
0000
0001
1000
0010
0000
0100
0000
0110
0000
0000
1000
0001
0010
0100
0000
,
1000
0000
0010
0000
1000
0000
0001
0100
,
0010
1000
0110
0000
0000
1001
0000
0000
,
0110
0000
0000
0000
0010
0000
0000
0001
0000
0000
1000
0000
0010
0000
0000
1000
,
0000
0001
0220
0000
0000
0000
0000
0000
,
0330
0000
2002
0000
3003
0000
0001
0100
,
1000
0001
1000
0100
0001
0000
1000
0100
,
0001
1000
0001
0100
1000
0000
0001
0010
,
0100
0010
0100
0010
0001
0001
1000
0010
,
0100
0010
0100
0000
1001
0000
0010
0001
,
0100
0010
1000
0100
0010
0000
0010
0100
,
1000
0010
0100
0001
0010
0000
0100
0000
,
1000
0000
0001
0001
0100
0100
0010
0000
,
0100
0001
0000
1000
1000
0100
0000
0010
,
0001
1000
0100
0010
0100
1000
0001
0100
,
1000
0100
0001
0010
0000
2100
0000
3010
,
0000
0102
0000
0013
0000
0200
0000
0000
,
0000
0010
0010
0310
0000
0001
0001
0010
,
1000
0001
0001
0100
1000
0001
0001
0010
,
1000
0001
0100
1000
0000
1020
0000
0130
,
0000
0021
0000
0130
0000
1000
0010
0100
,
0001
0000
0010
0000
0000
0100
1000
0000
0001
0000
0100
0000
0000
0001
0000
0000
,
0100
0000
0010
0000
0000
1000
0000
0000
0010
0000
0001
0000
0000
0000
1000
0000
,
0000
0000
0010
0000
0000
0100
0000
0000
1001
0000
0000
0000
0000
0000
0000
0000
,
;

//---------------dance-single - ----------------
#NOTES:
     dance-single:
     :
     Hard:
     15:
     0.644123,0.988149,0.276405,0.198666,0.531217,522.000000,490.000000,32.000000,23.000000,0.000000,0.000000,0.644123,0.988149,0.276405,0.198666,0.531217,522.000000,490.000000,32.000000,23.000000,0.000000,0.000000:
0000
0000
0000
0000
,
0000
0000
0000
0000
,
0000
0000
0000
0000
,
0000
0000
0000
0000
,
0000
0000
0000
0000
,
0000
0000
0000
0000
,
0000
0000
0000
0000
,
0001
0000
0010
0000
1000
0000
0001
0000
0100
1000
0100
1000
0001
0000
0000
0000
,
1001
0000
0000
0000
0010
0000
0100
0000
0000
0000
0010
0000
1000
0000
0010
0100
,
0010
1000
0100
0001
,
0020
1000
0001
1030
,
0010
0001
0100
1000
,
0020
0000
0001
0000
1000
0000
0031
1000
,
0020
0100
0000
0100
,
0000
0000
0100
0000
0000
0000
0130
1000
,
0001
0101
1000
1100
,
0001
0000
0100
0000
1000
0000
0100
0000
0001
0010
0000
0010
0001
0000
1000
0001
,
0010
0001
0010
0001
1000
0100
0001
0100
,
2000
0000
0010
3100
,
0001
0100
0001
0100
0010
0100
0001
0010
,
0100
1000
1001
1001
,
0010
1000
0010
1000
0001
0100
1000
0100
,
0002
0000
0010
0103
,
0001
0100
1000
0001
1000
0100
0001
0010
,
0100
0000
1000
0010
0000
1000
0100
0000
,
0010
0000
0001
0000
0010
0001
0010
0001
0010
0000
0100
0000
0010
0001
0010
0001
,
1000
0000
0010
0000
0100
0010
0100
0010
0100
0000
0001
0000
1000
0000
0100
0000
,
0010
0000
0100
0000
1000
0010
1000
0010
1000
0000
0001
0000
0010
0100
0010
0100
,
0010
0000
0001
0000
1000
0010
1000
0010
0100
0001
0100
0001
1000
0100
1000
0100
,
0010
0010
0001
0001
,
0100
0100
1000
1000
,
0010
1000
0010
0000
0001
1000
0001
0100
,
2000
0000
0000
0002
3003
0000
0110
0000
,
0002
0010
1000
0103
,
0020
1000
0100
0031
,
2000
0100
0001
3010
,
0200
0000
0000
0000
0001
0000
0000
0000
0310
0000
0000
1000
0100
0000
0010
0000
,
0001
0100
0001
1000
0001
0010
0001
0000
,
0100
1000
0100
0010
0100
0001
0100
0000
,
0010
0000
0000
1000
0000
0000
1010
0000
0100
0000
0000
1000
0000
0000
1100
0000
,
0001
0000
0000
0100
0000
0000
0101
0000
0001
0000
0000
0010
0000
0000
0011
0000
,
1000
0000
0100
0010
0100
0000
1000
0010
1000
0000
0001
0010
0001
0000
1000
0100
,
1000
0000
0001
0100
0001
0000
0010
0100
0010
0001
0010
0001
1000
0001
1000
0001
,
0010
0000
1000
0000
0010
0001
0100
0010
,
0001
0000
0000
0010
0000
0000
0001
0000
0000
0010
0000
0000
1000
0000
0000
0010
0000
0000
1000
0000
0000
0010
0000
0000
0100
0000
0000
0000
0000
0000
0000
0000
0001
0000
0000
0000
0000
0000
0000
0000
1000
0000
0000
0000
0000
0000
0000
0000
,
0010
0000
0001
0000
1000
0000
0100
0000
0001
0000
1001
0000
,
0000
0000
0000
0000
0021
0000
2030
0000
3001
0000
0000
0010
0100
1000
0010
0100
,
0001
0000
1000
0100
1020
0000
0032
0000
1003
0000
0000
0010
0100
0001
0010
0100
,
1000
0000
0001
0010
1200
0000
0302
0000
1003
0000
0000
0100
0010
0001
0100
0010
,
1000
0000
0001
0010
0201
0000
0000
0000
1300
0000
0000
0000
0001
0000
0010
0000
,
1000
0000
0110
0000
0000
1001
0000
0000
,
0110
0000
0000
0000
1000
0010
0000
1000
0010
0000
0100
0000
0001
0010
0000
0001
,
0010
0100
2002
0000
0000
0000
0000
0000
,
3003
0000
0000
0000
0220
0000
0000
0000
0330
0000
0000
0000
1000
0000
0100
1000
,
0001
0000
1000
0010
0000
0100
0001
0010
0100
0000
1000
0000
0001
0000
0100
0001
,
1000
0001
0100
0010
0000
0100
0001
0010
0100
0000
1000
0000
0010
0000
1000
0100
,
0010
0000
0001
0100
0000
0010
1000
0001
0010
0000
0100
0000
1000
0000
0010
0100
,
0010
1000
0100
0010
0100
1000
0000
1000
0010
0000
1000
0000
0001
0000
0100
0001
,
1000
0000
0001
0010
0000
0100
1000
0010
0100
0000
0001
0000
1000
0000
0100
1000
,
0001
1000
0100
0010
0000
0100
1000
0010
0100
0000
0001
0000
0010
0000
0001
0100
,
0010
0000
1000
0100
0000
0010
0001
1000
0010
0000
0100
0000
0010
0000
0000
0000
,
0100
0000
0001
0000
0000
0000
1000
0000
0100
0000
1000
0000
0000
0000
0001
0010
,
0001
0010
0100
1000
0100
1000
0010
1000
0010
1000
0001
0100
0001
0100
0010
0100
,
0010
0100
0001
0010
0100
1000
0010
0100
0001
0010
0100
0000
1000
0100
0001
0000
,
1000
0000
1000
0000
0001
0100
1000
0000
0010
0100
0020
0000
0000
0000
0000
0000
,
0000
0100
0100
0130
0000
0011
0011
0100
,
1000
1010
1010
0100
0001
0011
0011
0100
,
1000
0000
1010
0000
0001
0010
0001
0000
0100
0010
0100
0000
0010
0000
1001
0000
,
0000
0100
0010
1001
0000
1000
0010
0100
,
0001
0000
0010
0001
0000
1000
0010
0000
0100
0001
1000
0000
0000
0010
0000
0000
,
0101
0000
0000
0000
0000
0000
0001
0000
0000
0000
0000
0000
0000
0000
0000
0010
0000
0000
0000
0000
0000
0000
0000
0000
1100
0000
0000
0000
0000
0000
0010
0000
0000
0000
1000
0000
0000
0000
0100
0000
0000
0000
0010
0000
0000
0000
0001
0000
,
0000
0000
0100
0000
0000
0000
0010
0000
0000
0000
0000
0000
0000
0000
0000
0100
0000
0000
0000
0000
0000
0000
0000
0000
1001
0000
0000
0000
0000
0000
0000
0000
0000
0000
0000
0000
0000
0000
0000
0000
0000
0000
0000
0000
0000
0000
0000
0000
;

//---------------dance-double - ----------------
#NOTES:
     dance-double:
     :
     Easy:
     8:
     0.313424,0.432315,0.103652,0.215942,0.004319,254.000000,242.000000,12.000000,25.000000,0.000000,0.000000,0.313424,0.432315,0.103652,0.215942,0.004319,254.000000,242.000000,12.000000,25.000000,0.000000,0.000000:
00000000
00000000
00000000
00000000
,
00000000
00000000
00000000
00000000
,
00000000
00000000
00000000
00000000
,
00000000
00000000
00000000
00000000
,
00000000
00000000
00000000
00000000
,
00000000
00000000
00000000
00000000
,
00000000
00000000
00000000
00000000
,
00000010
00000001
00000100
00001000
,
00010000
00000000
00000000
00001000
00000000
00000000
00011000
00000000
,
01000000
01000000
10000000
10000000
,
00100000
00100000
00010000
00010000
,
00001000
00001000
00000010
00000010
,
00000001
00000001
00000100
00000100
,
00000020
00000100
00000000
00000100
,
00000000
00000100
00000000
00000130
,
00010000
00000000
00001000
00000000
,
00010000
00100000
10000000
10010000
,
00100000
00001000
00010000
01000000
,
20000000
00000000
00100000
30100000
,
00010000
00001000
00000010
00001000
,
00000002
00000000
00000010
00000013
,
00000100
00001000
00010000
00000010
,
00002000
00000000
00000001
00003001
,
00001000
00010000
00100000
10000000
,
01000000
00000000
00000000
00100000
00000000
00000000
01000000
00000000
,
00001000
00010000
00001000
00000000
00000001
00000000
00000010
00000000
,
00000002
00000000
00001000
00001003
,
00010000
00001000
00010000
00000000
10000000
00000000
00100000
00000000
,
20000000
00000000
00100000
30100000
,
01000000
00100000
01000000
00000000
00010000
00000000
00001000
00000000
,
00000200
00000000
00000001
00000301
,
00000010
00000100
00000010
00000000
00010000
00000000
00001000
00000000
,
00200000
00000000
00000000
00020000
00330000
00000000
11000000
00000000
,
00100000
00100000
10000000
10000000
,
01000000
01000000
00010000
00010000
,
00001000
00001000
00000100
00000100
,
00000001
00000001
00000010
00000010
,
00020000
00000010
00030200
00000010
,
00020300
00000010
00030200
00000010
,
00010300
00000010
00010000
00000010
,
00010000
00000010
00010000
00000010
,
00001000
00010000
00001000
00000000
00100000
00000000
00100000
00000000
,
01000000
10000000
01000000
00000000
00100000
00000000
00100000
00000000
,
00010000
00000000
01000000
00000000
,
00100000
00010000
00022000
00000000
,
00000000
00000000
00000000
00000000
,
00033000
00000000
00010000
00010000
00001000
00000000
00000000
01000000
,
00010000
00000000
00100000
00100000
00010000
00000000
00000000
00001000
,
00010000
00001000
00000010
00000010
00000100
00000000
00000000
00000010
,
00001000
00000001
00001000
00010000
,
10000000
00000000
01000000
00000000
00000000
00100000
00000000
00000000
,
01100000
10000000
00000000
00010000
,
00000000
00022000
00000000
00000000
,
00033000
00000220
00000330
00000010
,
00010000
00001000
01000000
00100000
,
01000000
00000000
00010000
00100000
01000000
00000000
00010000
00000000
,
00001000
00000100
00000001
00000020
,
00000001
00001000
00000031
00000100
,
00010000
00001000
00100000
01000000
,
00100000
00000000
00010000
01000000
00100000
00000000
00010000
00000000
,
00001000
00000010
00000001
00001000
,
00000000
00000001
00000000
00000000
00000110
00000000
00000000
00001000
,
00000000
00010000
00000000
00001000
00000000
00000100
00000000
00000001
,
00000000
00000010
00000000
00001000
00000000
00021000
00000000
01030000
,
00000000
00012000
00000000
00003100
00000000
00000020
00000000
00000000
,
00000000
00000100
00000000
00000130
00000000
00000001
00000001
00000100
,
00000000
00001000
00001000
00010000
00000000
00100000
00100000
10000000
,
00000000
00010000
00010000
00100000
00000000
20010000
00000000
31000000
,
00000000
10020000
00000000
01030000
00000000
00100000
00000000
00010000
,
00000000
00001000
00000000
00000010
00000000
00000001
00000000
00000000
,
00000000
00001000
00000000
00000000
00000000
00000001
00000000
00001000
,
00000000
00000000
00010000
00000000
00000000
00010000
00000000
00000000
10000000
00000000
00000000
00000000
00000000
00000000
00000000
00000000
,
;

//---------------dance-double - ----------------
#NOTES:
     dance-double:
     :
     Medium:
     12:
     0.456562,0.679352,0.190029,0.198666,0.077739,370.000000,348.000000,22.000000,23.000000,0.000000,0.000000,0.456562,0.679352,0.190029,0.198666,0.077739,370.000000,348.000000,22.000000,23.000000,0.000000,0.000000:
00000000
00000000
00000000
00000000
,
00000000
00000000
00000000
00000000
,
00000000
00000000
00000000
00000000
,
00000000
00000000
00000000
00000000
,
00000000
00000000
00000000
00000000
,
00000000
00000000
00000000
00000000
,
00000000
00000000
00000000
00000000
,
10000000
01000000
00100000
00010000
00001000
00000100
00000010
00000000
,
00000011
00000000
00000000
00001100
00000000
00000000
00000101
00000000
,
00000010
00010000
00000010
00000000
00000100
00001000
00000100
00000000
,
00100000
00010000
00100000
00000000
00001000
01000000
00001000
00000000
,
00100000
10000000
00100000
00000000
01000000
00010000
01000000
00000000
,
00001000
00010000
00001000
00000000
00000010
00000100
00000010
00000000
,
00000002
00000100
00000000
00000100
,
00000000
00000100
00000000
00000103
,
00001000
00000000
00010000
00000000
,
00010010
01001000
00010100
00101000
,
10000000
00100000
10000000
00000000
00010000
10000000
01000000
00010000
,
00002000
00000000
00000100
00003100
,
00000001
00000010
00000001
00000000
00001000
00000001
00000100
00001000
,
00020000
00001000
00100000
00130000
,
01000000
00001000
00010000
00000000
00000010
00001000
00010000
00100000
,
20000000
00000000
00010000
30010000
,
10000000
01000000
00010000
00000000
00001000
00000100
00000001
00000010
,
00000100
00000000
00000000
00000010
00000000
00000000
00000110
00000000
,
00010000
00001000
00200000
00000000
00310000
01000000
00001000
00100000
,
00020000
10000000
00100000
01030000
,
00001000
00010000
00000020
00000000
00001030
00000100
00010000
00000010
,
00002000
00000001
00000010
00003100
,
00000010
00001000
00020000
00000000
00031000
01000000
00010000
01000000
,
00200000
00010000
10000000
10300000
,
00010000
10000000
00010000
00001000
,
00000002
00000000
00000000
00002000
00003003
00000000
00000110
00000000
,
00000010
00000000
00000010
00000000
00000001
00000100
00001000
00000000
,
00010000
00000000
00010000
00000000
00100000
10000000
01000000
00000000
,
00010000
00000000
00010000
00000000
00001000
00000010
00000001
00000000
,
00000100
00000000
00000100
00000000
00001000
00010000
00001000
00000000
,
00100000
10000000
00100000
00000000
01000000
00001000
01000000
00000000
,
00010000
00000010
00010000
00000000
00000100
00001000
00000100
00000000
,
00000001
00000100
00010000
00000000
00001000
00100000
10000000
00000000
,
10000000
01000000
00001000
00000000
00010000
00000010
00000001
00000000
,
00000010
00000001
00000100
00000010
00001000
00000100
00010000
00001000
,
00100000
00010000
01000000
00100000
10000000
01000000
00010000
00000000
,
11000000
00000000
00100000
00000000
00010000
00001000
00010000
00100000
,
00010000
00000000
00000000
00000000
00000000
00000000
00000000
00000000
00000000
00000000
00000000
00000000
00000000
00000000
00000000
00000000
00000000
00000000
00000000
00000000
00000000
00000000
00000000
00000000
00001000
00000000
00000000
00000000
00000000
00000000
00000000
00000000
00000000
00000000
00000000
00000000
00000000
00000000
00000000
00000000
00000000
00000000
00000000
00000000
00000000
00000000
00000000
00000000
00000010
00000000
00000000
00000000
00000000
00000000
00000000
00000000
00000000
00000000
00000000
00000000
00000000
00000000
00000000
00000000
00000000
00000000
00000000
00000000
00000000
00000000
00000000
00000000
00000000
00000000
00000000
00000000
00000000
00000000
00000000
00000000
00000000
00000000
00000000
00000000
00000000
00000000
00000000
00000000
00000000
00000000
00000000
00000000
00000000
00000000
00000000
00000000
00000001
00000000
00000000
00000000
00000000
00000000
00000000
00000000
00000000
00000000
00000000
00000000
00000000
00000000
00000000
00000000
00000000
00000000
00000000
00000000
00000000
00000000
00000000
00000000
00000000
00000000
00000000
00000000
00000000
00000000
00000000
00000000
00001000
00000000
00000000
00000000
00000000
00000000
00000000
00000000
00000000
00000000
00000000
00000000
00000000
00000000
00000000
00000000
00000000
00000000
00000000
00000000
00000000
00000000
00000000
00000000
00000000
00000000
00000000
00000000
00000000
00000000
00000000
00000000
00000100
00000000
00000000
00000000
00000000
00000000
00000000
00000000
00000000
00000000
00000000
00000000
00000000
00000000
00000000
00000000
00000000
00000000
00000000
00000000
00000000
00000000
00000000
00000000
00000000
00000000
00000000
00000000
00000000
00000000
00000000
00000000
,
00010000
00000000
00000000
00000000
00000000
00000000
00000000
00000000
00000000
00000000
00000000
00000000
00000000
00000000
00000000
00000000
00000000
00000000
00000000
00000000
00000000
00000000
00000000
00000000
00000000
00000000
00000000
00000000
00000000
00000000
00000000
00000000
00001000
00000000
00000000
00000000
00000000
00000000
00000000
00000000
00000000
00000000
00000000
00000000
00000000
00000000
00000000
00000000
00000000
00000000
00000000
00000000
00000000
00000000
00000000
00000000
00000000
00000000
00000000
00000000
00000000
00000000
00000000
00000000
01000000
00000000
00000000
00000000
00000000
00000000
00000000
00000000
00000000
00000000
00000000
00000000
00000000
00000000
00000000
00000000
00000000
00000000
00000000
00000000
00000000
00000000
00000000
00000000
00000000
00000000
00000000
00000000
00000000
00000000
00000000
00000000
00100000
00000000
00000000
00000000
00000000
00000000
00000000
00000000
00000000
00000000
00000000
00000000
00000000
00000000
00000000
00000000
00000000
00000000
00000000
00000000
00000000
00000000
00000000
00000000
00000000
00000000
00000000
00000000
00000000
00000000
00000000
00000000
10000000
00000000
00000000
00000000
00000000
00000000
00000000
00000000
00000000
00000000
00000000
00000000
00000000
00000000
00000000
00000000
00000000
00000000
00000000
00000000
00000000
00000000
00000000
00000000
00000000
00000000
00000000
00000000
00000000
00000000
00000000
00000000
01000000
00000000
00000000
00000000
00000000
00000000
00000000
00000000
00000000
00000000
00000000
00000000
00000000
00000000
00000000
00000000
00000000
00000000
00000000
00000000
00000000
00000000
00000000
00000000
00000000
00000000
00000000
00000000
00000000
00000000
00000000
00000000
,
00000000
00000000
00000000
00000000
00100000
00000000
10000000
00000000
10100000
00000000
00000000
01000000
00010000
00001000
00000100
00000000
,
00000010
00000000
00000000
00000000
00000001
00000000
00000010
00000000
00000011
00000000
00000000
00000100
00001000
00010000
01000000
00000000
,
00100000
00000000
00010000
10000000
00100000
00000000
01000000
00000000
01100000
00000000
00000000
00100000
00010000
00001000
00000010
00000000
,
00000100
00000000
00000010
00000000
00000001
00000000
00000100
00001000
,
00010000
00100000
00010000
00000000
00000000
00001000
00000000
00000000
,
00011000
00000000
00000000
00000000
00100000
00000000
00000000
00010000
00000000
00000000
00001000
00000000
00000010
00000000
00000000
00001000
,
00000000
00010000
00002200
00000000
00000000
00000000
00000000
00000000
,
00003300
00000000
00000020
00000000
00000030
00000000
00000010
00010000
,
01000000
00000000
00200000
00000000
00310000
00000000
10000000
01000000
,
00010000
00001000
00010000
00000100
00000001
00000000
00000010
00000001
,
00001000
00000000
00000010
00000000
00000100
00000000
00000001
00001000
,
00010000
00001000
00010000
00000000
10010000
00000000
00100000
00001000
,
00010000
00000000
10000000
00000000
01000000
00000000
00100000
01000000
,
10000000
00100000
00010000
00000010
00001000
00000000
00000001
00000010
,
00001000
00000000
00000001
00000100
00001000
00000000
00000001
00000000
,
00000100
00001000
00000000
00010000
00010000
00010000
00000000
00001000
,
00010000
01000000
10000000
00100000
01000000
00100000
00010000
00001000
,
00100000
00010000
00001000
00000100
00000000
00000021
00000000
00000130
,
00000000
00001020
00000000
00000130
00000000
00002000
00000000
00000000
,
00000000
00010000
00010000
00013000
00000000
01000000
01000000
00010000
,
00001000
00000010
00000010
00001000
00010000
00100000
00100000
00010000
,
00001000
00000100
00000100
00000001
00000000
00002001
00000000
01003000
,
00000000
10020000
00000000
00030100
00000000
00002002
00000000
00003003
,
00000000
00000000
00000010
00000000
00000100
00000000
00000010
00000000
00000000
00000000
00000001
00000000
00000000
00000100
00000000
00000000
,
00001000
00000000
00010000
00000000
00000000
01000000
00000000
00000000
10000000
00000000
00010000
00000000
00000000
00000000
00001000
00000000
,
00000000
00000000
00000001
00000000
00000000
00001000
00000000
00000000
00001001
00000000
00000000
00000000
00000000
00000000
00000000
00000000
,
;

//---------------dance-double - ----------------
#NOTES:
     dance-double:
     :
     Hard:
     16:
     0.618210,0.802871,0.215942,0.112290,0.449159,501.000000,476.000000,25.000000,13.000000,0.000000,0.000000,0.618210,0.802871,0.215942,0.112290,0.449159,501.000000,476.000000,25.000000,13.000000,0.000000,0.000000:
00000000
00000000
00000000
00000000
,
00000000
00000000
00000000
00000000
,
00000000
00000000
00000000
00000000
,
00000000
00000000
00000000
00000000
,
00000000
00000000
00000000
00000000
,
00000000
00000000
00000000
00000000
,
00000000
00000000
00000000
00000000
,
00000001
00000100
00010000
00001000
00100000
10000000
00010000
00000000
,
10010000
00000000
00000000
00000000
00100000
00000000
01000000
00000000
00000000
00000000
00100000
00000000
00010000
00000000
00100000
01000000
,
00100000
01000000
10000000
00010000
,
00002000
00000001
00000100
00003001
,
00000010
00000100
00000001
00001000
,
00020000
10000000
01000000
10030000
,
02000000
00100000
00000000
00100000
,
00000000
00000000
00100000
00000000
00000000
00000000
03100000
00010000
,
00001000
00001100
00000010
00000101
,
00001000
00000000
00000100
00000000
00000001
00000000
00000100
00000000
00001000
00000010
00000000
00010000
00001000
00000000
00100000
00010000
,
10000000
00100000
01000000
00100000
00010000
00001000
00000010
00001000
,
00020000
00000010
01000000
00030010
,
00000001
00000010
00000100
00000010
00001000
00010000
00100000
00010000
,
00002000
00100000
00000100
00103000
,
00010000
00100000
10000000
00010000
01000000
10000000
00010000
00001000
,
00000200
00000000
00000010
00000310
,
00001000
00000010
00000001
00001000
00000100
00000001
00001000
00010000
,
00001000
00000000
00000001
00000010
00000000
00001000
00010000
00000000
,
00100000
00000000
10000000
00000000
00010000
10000000
00010000
10000000
00010000
00000000
01000000
00000000
00100000
10000000
00100000
10000000
,
01000000
00000000
00010000
00000000
00001000
00010000
00001000
00010000
00001000
00000000
00000010
00000000
00000001
00000000
00001000
00000000
,
00000010
00000000
00000100
00000000
00000001
00000010
00000001
00000010
00000001
00000000
00001000
00000000
00000010
00000100
00000010
00000100
,
00000010
00000000
00010000
00000000
00001000
00100000
00001000
00100000
00001000
00000000
00010000
00000000
01000000
00000000
10000000
00000000
,
00100000
00000000
01000000
00000000
00010000
10000000
00010000
10000000
01000000
00000000
00010000
00000000
00000010
00010000
00000010
00010000
,
00001000
00000000
00000100
00000000
00000010
00001000
00000010
00001000
00000001
00000000
00001000
00000000
00000001
00000000
00000010
00000000
,
00000100
00000000
00010000
00000000
00001000
00100000
00001000
00100000
01000000
00000000
10000000
00000000
00010000
01000000
00010000
01000000
,
00020000
00000000
00000000
20000000
30030000
00000000
01100000
00000000
,
00020000
00100000
10000000
01000000
,
00032000
00000010
00000001
00000100
,
00023000
00100000
10000000
01000000
,
00032000
00000000
00000000
00000000
00000010
00000000
00000000
00000000
00003001
00000000
00000000
00000100
00010000
00000000
00001000
00000000
,
00100000
01000000
10000000
10000000
00010000
01000000
00100000
00000000
,
00001000
00010000
00000010
00001000
00000001
00000010
00000100
00000000
,
00000010
00000000
00000000
00000010
00001000
00000000
00010000
00000000
00000100
00000000
00000000
00000100
00001000
00000000
00010000
00000000
,
00100000
00000000
00000000
00100000
00010000
00000000
10000000
00000000
00100000
00000000
00000000
00100000
01000000
00000000
00010000
00000000
,
10000000
00000000
01000000
00100000
01000000
00000000
10000000
00100000
10000000
00000000
00010000
00100000
00010000
00000000
01000000
00010000
,
01000000
00000000
00001000
00010000
00001000
00000000
00000010
00000100
00000010
00000000
00000001
00001000
00000001
00000000
00000100
00000010
,
00001000
00000000
00000001
00000000
00000100
00001000
00010000
00001000
,
00000010
00000000
00000000
00000000
00000000
00000000
00000000
00000000
00000000
00000000
00000000
00000000
00000000
00000000
00000000
00000000
00000000
00000000
00000000
00000000
00000000
00000000
00000000
00000000
00001000
00000000
00000000
00000000
00000000
00000000
00000000
00000000
00000000
00000000
00000000
00000000
00000000
00000000
00000000
00000000
00000000
00000000
00000000
00000000
00000000
00000000
00000000
00000000
00010000
00000000
00000000
00000000
00000000
00000000
00000000
00000000
00000000
00000000
00000000
00000000
00000000
00000000
00000000
00000000
00000000
00000000
00000000
00000000
00000000
00000000
00000000
00000000
00000000
00000000
00000000
00000000
00000000
00000000
00000000
00000000
00000000
00000000
00000000
00000000
00000000
00000000
00000000
00000000
00000000
00000000
00000000
00000000
00000000
00000000
00000000
00000000
01000000
00000000
00000000
00000000
00000000
00000000
00000000
00000000
00000000
00000000
00000000
00000000
00000000
00000000
00000000
00000000
00000000
00000000
00000000
00000000
00000000
00000000
00000000
00000000
00000000
00000000
00000000
00000000
00000000
00000000
00000000
00000000
10000000
00000000
00000000
00000000
00000000
00000000
00000000
00000000
00000000
00000000
00000000
00000000
00000000
00000000
00000000
00000000
00000000
00000000
00000000
00000000
00000000
00000000
00000000
00000000
00000000
00000000
00000000
00000000
00000000
00000000
00000000
00000000
00100000
00000000
00000000
00000000
00000000
00000000
00000000
00000000
00000000
00000000
00000000
00000000
00000000
00000000
00000000
00000000
00000000
00000000
00000000
00000000
00000000
00000000
00000000
00000000
00000000
00000000
00000000
00000000
00000000
00000000
00000000
00000000
,
00010000
00000000
00000000
00000000
00000000
00000000
00000000
00000000
00000000
00000000
00000000
00000000
00000000
00000000
00000000
00000000
00000000
00000000
00000000
00000000
00000000
00000000
00000000
00000000
00000000
00000000
00000000
00000000
00000000
00000000
00000000
00000000
00001000
00000000
00000000
00000000
00000000
00000000
00000000
00000000
00000000
00000000
00000000
00000000
00000000
00000000
00000000
00000000
00000000
00000000
00000000
00000000
00000000
00000000
00000000
00000000
00000000
00000000
00000000
00000000
00000000
00000000
00000000
00000000
00000010
00000000
00000000
00000000
00000000
00000000
00000000
00000000
00000000
00000000
00000000
00000000
00000000
00000000
00000000
00000000
00000000
00000000
00000000
00000000
00000000
00000000
00000000
00000000
00000000
00000000
00000000
00000000
00000000
00000000
00000000
00000000
00000001
00000000
00000000
00000000
00000000
00000000
00000000
00000000
00000000
00000000
00000000
00000000
00000000
00000000
00000000
00000000
00000000
00000000
00000000
00000000
00000000
00000000
00000000
00000000
00000000
00000000
00000000
00000000
00000000
00000000
00000000
00000000
00001000
00000000
00000000
00000000
00000000
00000000
00000000
00000000
00000000
00000000
00000000
00000000
00000000
00000000
00000000
00000000
00000000
00000000
00000000
00000000
00000000
00000000
00000000
00000000
00000000
00000000
00000000
00000000
00000000
00000000
00000000
00000000
00000010
00000000
00000000
00000000
00000000
00000000
00000000
00000000
00000000
00000000
00000000
00000000
00000000
00000000
00000000
00000000
00000000
00000000
00000000
00000000
00000000
00000000
00000000
00000000
00000000
00000000
00000000
00000000
00000000
00000000
00000000
00000000
,
00000000
00000000
00000000
00000000
00000010
00000000
00010000
00000000
00011000
00000000
00000000
00000010
00001000
00010000
00100000
10000000
,
01000000
00000000
00100000
10000000
00010000
00000000
10000000
00000000
11000000
00000000
00000000
01000000
00010000
00001000
00000100
00000001
,
00000010
00000000
00001000
00000100
00000010
00000000
00000100
00000000
00000110
00000000
00000000
00010000
00001000
00100000
00010000
10000000
,
01000000
00000000
01000000
10000000
01010000
00000000
00000000
00000000
10000000
00000000
00000000
00000000
00100000
00000000
00010000
00000000
,
00001000
00000000
00000110
00000000
00000000
00001001
00000000
00000000
,
00000110
00000000
00000000
00000000
00010000
00001000
00000000
00010000
00001000
00000000
00100000
00000000
00001000
00010000
00000000
00001000
,
00010000
00000010
00000110
00000000
00000000
00000000
00000000
00000000
,
00000000
00000000
00000000
00000000
00001001
00000000
00000000
00000000
00000000
00000000
00000000
00000000
00010000
00000000
00100000
00010000
,
00001000
00000000
00000100
00000010
00000000
00000010
00000000
00000010
00000001
00000000
00001000
00000000
00000010
00000000
00000100
00001000
,
00010000
00000000
00000010
00001000
00000000
00001000
00000000
00100000
00010000
00000000
10000000
00000000
01000000
00000000
00010000
00100000
,
01000000
00000000
00010000
00000100
00000000
00000010
00000000
00001000
00010000
00000000
00010000
00000000
00000100
00000000
00000001
00000100
,
00001000
00000000
00000001
00000100
00000000
00000100
00000000
00000100
00000010
00000000
00001000
00000000
00000100
00000000
00010000
00001000
,
00100000
00000000
00010000
00000010
00000000
00000100
00000000
00000001
00000010
00000000
00000100
00000000
00000010
00000000
00001000
00010000
,
00100000
00000000
01000000
00100000
00000000
00100000
00000000
00100000
01000000
00000000
00010000
00000000
00100000
00000000
00001000
00010000
,
00000010
00000000
00001000
00000001
00000000
00000010
00000000
00000001
00001000
00000000
00000010
00000000
00000100
00000000
00000000
00000000
,
00010000
01000000
00000000
00100000
00100000
00100000
00000000
01000000
,
00100000
01000000
00000100
00000010
00000100
01000000
00100000
01000000
,
00000100
00000000
00000010
00000000
00000100
00000000
00000100
00000000
00000010
00000000
00000100
00000000
00001000
00000010
00000100
00000000
,
00000001
00000000
00000001
00000000
00000010
00000100
00001000
00000000
00010000
00001000
00020000
00000000
00000000
00000000
00000000
00000000
,
00000000
10000000
10000000
10030000
00000000
01100000
01100000
00010000
,
00001000
00000110
00000110
00001000
00010000
01100000
01100000
00010000
,
00001000
00000000
00000110
00000000
00000001
00000010
00000001
00000000
00000100
00000010
00000100
00000000
00010000
00000000
00011000
00000000
,
00000000
01000000
00001000
00011000
00000000
00000010
00001000
00000100
,
00010000
00000000
00001000
00100000
00000000
00010000
10000000
00000000
00100000
01000000
00001000
00000000
00000000
00100000
00000000
00000000
,
11000000
00000000
00000000
00000000
00000000
00000000
00000000
00000000
00000000
00000000
00000000
00000000
00000000
00000000
00000000
00000000
00000000
00000000
00000000
00000000
00000000
00000000
00000000
00000000
00010000
00000000
00000000
00000000
00000000
00000000
00000000
00000000
00000000
00000000
00000000
00000000
00000000
00000000
00000000
00000000
00000000
00000000
00000000
00000000
00000000
00000000
00000000
00000000
00000000
00000000
00000000
00000000
00000000
00000000
00000000
00000000
00000000
00000000
00000000
00000000
00000010
00000000
00000000
00000000
00000000
00000000
00000000
00000000
00000000
00000000
00000000
00000000
00000000
00000000
00000000
00000000
00000000
00000000
00000000
00000000
00000000
00000000
00000000
00000000
00000000
00000000
00000000
00000000
00000000
00000000
00000000
00000000
00000000
00000000
00000000
00000000
00000101
00000000
00000000
00000000
00000000
00000000
00000000
00000000
00000000
00000000
00000000
00000000
00000000
00000000
00000000
00000000
00000000
00000000
00000000
00000000
00000000
00000000
00000000
00000000
00000001
00000000
00000000
00000000
00000000
00000000
00000000
00000000
00000000
00000000
00000000
00000000
00000000
00000000
00000000
00000000
00000100
00000000
00000000
00000000
00000000
00000000
00000000
00000000
00000000
00000000
00000000
00000000
00000000
00000000
00000000
00000000
00001000
00000000
00000000
00000000
00000000
00000000
00000000
00000000
00000000
00000000
00000000
00000000
00000000
00000000
00000000
00000000
00010000
00000000
00000000
00000000
00000000
00000000
00000000
00000000
00000000
00000000
00000000
00000000
00000000
00000000
00000000
00000000
01000000
00000000
00000000
00000000
00000000
00000000
00000000
00000000
,
00000000
00000000
00000000
00000000
00000000
00000000
00000000
00000000
10000000
00000000
00000000
00000000
00000000
00000000
00000000
00000000
00000000
00000000
00000000
00000000
00000000
00000000
00000000
00000000
00100000
00000000
00000000
00000000
00000000
00000000
00000000
00000000
00000000
00000000
00000000
00000000
00000000
00000000
00000000
00000000
00000000
00000000
00000000
00000000
00000000
00000000
00000000
00000000
00000000
00000000
00000000
00000000
00000000
00000000
00000000
00000000
00000000
00000000
00000000
00000000
01000000
00000000
00000000
00000000
00000000
00000000
00000000
00000000
00000000
00000000
00000000
00000000
00000000
00000000
00000000
00000000
00000000
00000000
00000000
00000000
00000000
00000000
00000000
00000000
00000000
00000000
00000000
00000000
00000000
00000000
00000000
00000000
00000000
00000000
00000000
00000000
10010000
00000000
00000000
00000000
00000000
00000000
00000000
00000000
00000000
00000000
00000000
00000000
00000000
00000000
00000000
00000000
00000000
00000000
00000000
00000000
00000000
00000000
00000000
00000000
00000000
00000000
00000000
00000000
00000000
00000000
00000000
00000000
00000000
00000000
00000000
00000000
00000000
00000000
00000000
00000000
00000000
00000000
00000000
00000000
00000000
00000000
00000000
00000000
00000000
00000000
00000000
00000000
00000000
00000000
00000000
00000000
00000000
00000000
00000000
00000000
00000000
00000000
00000000
00000000
00000000
00000000
00000000
00000000
00000000
00000000
00000000
00000000
00000000
00000000
00000000
00000000
00000000
00000000
00000000
00000000
00000000
00000000
00000000
00000000
00000000
00000000
00000000
00000000
00000000
00000000
00000000
00000000
00000000
00000000
00000000
00000000
,
;

//---------------dance-single - ----------------
#NOTES:
     dance-single:
     :
     Challenge:
     18:
     1.062433,1.574863,0.829216,0.224579,1.369070,861.000000,765.000000,96.000000,26.000000,0.000000,0.000000,1.062433,1.574863,0.829216,0.224579,1.369070,861.000000,765.000000,96.000000,26.000000,0.000000,0.000000:
// measure 0
0000
0000
0000
0000
,  // measure 1
0000
0000
0000
0000
,  // measure 2
0000
0000
0000
0000
,  // measure 3
0000
0000
0000
0000
,  // measure 4
0000
0000
0000
0000
,  // measure 5
0000
0000
0000
0000
,  // measure 6
0000
0000
0000
0000
,  // measure 7
1000
0010
0100
0001
0100
0010
0001
0100
1000
0001
0010
1000
0001
1000
0010
0100
,  // measure 8
0010
0000
1000
0001
0100
0010
1000
0000
0001
0010
0100
1000
0001
0100
0001
0000
,  // measure 9
0100
0010
0100
0000
0010
1000
0010
0000
1000
0001
1000
0000
0001
0100
0001
0000
,  // measure 10
1000
0100
1000
0000
0001
0100
0001
0000
1000
0010
1000
0000
0001
0010
0001
0000
,  // measure 11
1000
0100
0001
0000
0001
0010
1000
0000
1000
0010
0001
0000
0001
0100
1000
0000
,  // measure 12
0010
1000
0100
0000
0010
0001
0100
0000
0001
0010
0100
1000
0100
0010
0001
0000
,  // measure 13
1000
0100
1000
0000
1010
0000
0000
0010
0100
0001
0100
0000
0011
0000
0000
0001
,  // measure 14
1000
0010
1000
0000
0101
0000
0000
0010
0100
0001
0100
0000
1001
0000
0000
0001
,  // measure 15
0010
1000
0100
0001
0100
1000
0100
0010
0001
0010
1000
0001
1000
0001
0010
0100
,  // measure 16
1000
0001
1000
0001
0010
0100
0010
0100
1000
0100
0010
0001
0010
0001
1000
0100
,  // measure 17
1000
1100
1001
0010
0101
1100
0001
0011
,  // measure 18
0110
1000
0010
0100
0001
1000
0100
0010
,  // measure 19
0001
1001
1100
0010
0110
0101
1000
1001
,  // measure 20
0110
0010
1000
1100
0001
0011
0101
1001
,  // measure 21
1000
0011
1100
0010
0110
1010
0100
0011
,  // measure 22
1001
1000
0001
0010
0100
0010
0100
1000
,  // measure 23
0010
0110
0101
0001
0011
1010
0100
1001
,  // measure 24
1100
1000
0010
0110
0010
1001
1010
1100
,  // measure 25
0001
0010
0001
0010
0001
0100
0001
0100
0010
0100
0010
0100
0010
1000
0010
1000
,  // measure 26
0100
0010
0001
0100
0001
0010
0100
1000
,  // measure 27
0010
1000
0010
1000
0100
1000
0100
1000
0100
0010
0100
0010
0001
1000
0001
1000
,  // measure 28
0001
0010
0100
1000
0010
0000
1000
0100
0010
0001
0100
0000
0001
1000
0001
0000
,  // measure 29
0010
0011
1100
0000
1010
1001
0000
0110
,  // measure 30
1002
0010
1000
0103
,  // measure 31
0010
1000
0001
0100
0001
0010
0100
0001
1000
0010
1000
0100
0010
1000
0001
0100
,  // measure 32
0010
0000
1000
0100
0010
0000
1001
0000
0001
0100
0010
1000
0100
0010
0001
0000
,  // measure 33
2001
0000
0000
0100
0000
0000
0001
0000
0010
0000
0000
0001
0000
0000
3100
0000
,  // measure 34
2000
0000
0000
3020
0000
0000
0230
0000
0302
0000
0000
0023
0000
0000
0230
0000
,  // measure 35
2300
0000
0000
3020
0000
0000
0100
0000
0230
0000
0000
0302
0000
0000
1003
0000
,  // measure 36
0011
0000
0000
0101
0000
0000
1010
0000
1100
0000
0000
1001
0000
0000
0110
0000
,  // measure 37
0010
1000
0000
0010
0100
0000
0001
0000
1000
0100
0000
0010
0001
0000
0100
0000
,  // measure 38
0001
1000
0000
0100
0010
0000
0100
0000
1000
0010
0000
1000
0001
0000
0100
0000
,  // measure 39
0011
0000
0000
0101
0000
0000
1001
0000
1100
0000
0000
1010
0000
0000
0110
0000
,  // measure 40
1010
0000
0000
0101
0000
0000
1001
0000
0011
0000
0000
1100
0000
0000
0110
0000
,  // measure 41
1000
0000
0100
0010
0001
0000
1000
0001
0100
0000
0001
1000
0010
0000
1000
0100
,  // measure 42
0010
0000
0001
0100
0001
0000
1000
0010
1000
0000
0100
0010
0001
0000
1000
0010
,  // measure 43
1000
0100
0001
0010
1000
0010
0001
0010
0100
0010
1000
0100
0001
0010
1000
0100
,  // measure 44
0001
0000
0000
1000
0000
0000
0100
0000
0000
0010
0000
0000
0001
0000
0000
1000
0000
0000
0100
0000
0000
0001
0000
0000
1001
0000
0000
0000
0000
0000
0000
0000
0101
0000
0000
0000
0000
0000
0000
0000
0011
0000
0000
0000
0000
0000
0000
0000
,  // measure 45
1100
0000
1001
0000
1100
0000
0110
0000
1001
0000
0011
0000
,  // measure 46
2020
0000
0000
0000
0000
0000
3000
0000
0130
0000
0001
1000
0001
0000
1000
0100
0010
0001
0000
0001
0100
0000
0010
0000
1000
0000
0001
0100
0001
0000
1000
0010
,  // measure 47
1000
0001
0000
0001
0010
0000
0100
0000
1000
0000
0010
0100
0010
0000
1000
0100
0010
0001
0000
1000
0001
0000
0100
0000
0001
0000
0010
0100
1000
0000
0001
1000
,  // measure 48
0010
0100
0000
0010
1000
0000
0001
0000
1000
0100
0001
0100
1000
0010
0001
0010
1000
0001
0000
0100
0010
0000
0110
0000
0100
0001
0010
0001
1000
0010
1000
0100
,  // measure 49
0010
0001
0000
1000
0100
0000
1001
0000
1000
0000
0100
0000
0010
0000
0100
0000
1000
0000
0001
0000
0010
0000
0001
0000
0100
0000
0001
0000
0010
0000
0100
0000
,  // measure 50
1000
0001
1000
0010
0100
0010
1000
0010
0001
0100
0001
0010
0001
0100
1000
0001
,  // measure 51
0100
1000
0010
0001
1000
1000
0000
0010
0100
0000
1010
0000
0001
0001
0000
0010
,  // measure 52
0100
0000
0011
0000
1000
0001
1000
0010
1000
0100
0001
0100
0010
0001
0100
0010
,  // measure 53
1000
0100
0010
0001
2001
0010
0000
0100
3002
0000
1003
0000
1001
1000
0010
1000
,  // measure 54
0100
0010
0001
0100
0000
0001
1000
0010
0100
0001
0010
0000
0001
1000
0010
1000
,  // measure 55
0100
0010
0001
0100
0000
0001
1000
0010
0100
1000
0001
0000
0010
0001
0100
0001
,  // measure 56
0010
0100
1000
0100
0000
1000
0001
1000
0010
1000
0001
0000
0100
0001
0010
0001
,  // measure 57
0100
0010
1000
0100
0010
0001
1000
0001
0010
0000
1100
0000
0001
1000
0001
0010
,  // measure 58
0100
1000
0010
1000
0000
0100
0010
0001
1000
0100
0001
0000
0010
0001
0010
0100
,  // measure 59
1000
0001
1000
0010
0000
0100
0010
1000
0100
0001
1000
0000
0010
1000
0010
1000
,  // measure 60
0001
1000
0001
1000
0010
0100
0010
0100
0001
0100
0001
0100
0001
1000
0010
0100
,  // measure 61
0001
1000
0100
0010
0100
0001
0010
1000
0001
1000
0010
0100
0110
1000
0001
0010
,  // measure 62
0001
1000
1020
0000
0000
1030
0010
0100
0001
0010
0210
0000
0000
1300
0100
0010
,  // measure 63
0001
0100
0001
0010
0001
0010
0100
1000
0100
1000
0010
0000
1001
0000
1000
0001
,  // measure 64
0010
0100
1000
0000
0101
0000
0010
1000
0100
0010
1002
0000
0000
0000
1003
0001
,  // measure 65
0010
0001
0100
0010
0100
0010
1000
0100
0010
0001
0012
0000
0000
0103
0001
1000
,  // measure 66
0001
0100
2001
0000
0000
3010
1000
0100
1000
0010
0200
0000
0301
1000
0010
1000
,  // measure 67
0100
0010
0001
0100
0001
0010
0100
1000
0010
0100
0002
0000
0023
0000
0031
1000
,  // measure 68
0010
0100
0020
0000
2030
0000
3010
1000
0100
0010
0001
0010
0001
0000
1000
0010
,  // measure 69
1000
0000
0001
0100
0001
0000
1000
0100
1000
0000
1100
0000
0000
0011
0000
0000
,  // measure 70
0101
0000
0000
0000
0000
0000
0011
0000
0000
0000
0000
0000
0000
0000
0000
1001
0000
0000
0000
0000
0000
0000
0000
0000
1100
0000
0000
0000
0000
0000
0010
0000
0000
0000
0010
0000
0000
0000
0010
0000
0000
0000
0010
0000
0000
0000
0010
0000
,  // measure 71
0000
0000
0010
0000
0000
0000
0110
0000
0000
0000
0000
0000
0000
0000
0000
0101
0000
0000
0000
0000
0000
0000
0000
0000
1001
0000
0000
0000
0000
0000
0000
0000
0000
0000
0000
0000
0000
0000
0000
0000
0000
0000
0000
0000
0000
0000
0000
0000
;
