#VERSION:0.83;
#TITLE:roppongi EVOLVED ver. A;
#SUBTITLE:;
#ARTIST:TAG underground;
#TITLETRANSLIT:;
#SUBTITLETRANSLIT:;
#ARTISTTRANSLIT:;
#GENRE:;
#ORIGIN:;
#CREDIT:;
#BANNER:roppongi EVOLVED ver. A.png;
#BACKGROUND:roppongi EVOLVED ver. A-bg.png;
#PREVIEWVID:;
#JACKET:roppongi EVOLVED ver. A-jacket.png;
#CDIMAGE:;
#DISCIMAGE:;
#LYRICSPATH:;
#CDTITLE:;
#MUSIC:roppongi EVOLVED ver. A.ogg;
#OFFSET:0.000000;
#SAMPLESTART:24.000000;
#SAMPLELENGTH:20.000000;
#SELECTABLE:YES;
#DISPLAYBPM:170.000000;
#BPMS:0.000=170.616,
4.000=169.991;
#STOPS:;
#DELAYS:;
#WARPS:;
#TIMESIGNATURES:0.000=4=4;
#TICKCOUNTS:0.000=4;
#COMBOS:0.000=1;
#SPEEDS:0.000=1.000=0.000=0;
#SCROLLS:0.000=1.000;
#FAKES:;
#LABELS:0.000=Song Start;
#BGCHANGES:;
#KEYSOUNDS:;
#ATTACKS:
;

//---------------dance-single - ----------------
#NOTEDATA:;
#CHARTNAME:;
#STEPSTYPE:dance-single;
#DESCRIPTION:;
#CHARTSTYLE:;
#DIFFICULTY:Beginner;
#METER:6;
#RADARVALUES:0.195883,0.332580,0.045403,0.108968,0.000000,151.000000,146.000000,5.000000,12.000000,0.000000,0.000000,0.000000,0.000000,0.000000,0.195883,0.332580,0.045403,0.108968,0.000000,151.000000,146.000000,5.000000,12.000000,0.000000,0.000000,0.000000,0.000000,0.000000;
#CREDIT:;
#DISPLAYBPM:170.000000;
#NOTES:
0000
0000
0000
0000
,
0000
0000
0000
0000
,
0000
0000
0000
0000
,
0000
0000
0000
0000
,
0000
0000
0000
0000
,
0000
0000
0000
0000
,
0000
0000
0000
0000
,
0000
0000
0000
0000
,
0000
0000
0000
0000
,
0000
0001
0000
0001
,
0000
1000
0000
1000
,
0000
0001
0000
1000
,
0000
0001
0000
1000
,
1000
0000
0000
0000
,
0000
0000
0000
0000
,
0001
0000
1000
0000
,
0001
0001
1000
1000
,
0010
0010
0100
0100
,
0100
0000
0000
0000
,
0010
0010
0100
0100
,
0010
0000
0010
0000
,
1000
1000
0001
0001
,
0001
0000
0000
0000
,
0001
0001
1000
1000
,
0002
0000
0000
0003
,
1000
1000
0100
1000
,
0200
0000
0000
0300
,
0001
0001
0100
0001
,
0200
0000
0000
0300
,
1000
1000
0010
1000
,
0020
0000
0000
0030
,
0001
0001
0010
0001
,
0020
0000
0000
0030
,
0000
1000
0000
1000
,
0000
1000
0000
1000
,
0000
0001
0000
0001
,
0000
0001
0000
0001
,
0000
0010
0000
0010
,
0000
0010
0000
0010
,
0000
0100
0000
0100
,
2002
0000
0000
3003
,
0010
0010
1000
0000
,
1000
1000
0100
0000
,
0100
0100
0001
0000
,
0001
0001
0010
0000
,
1000
0000
0000
0000
,
0001
0000
0000
0000
,
1000
0000
0001
0000
,
1000
1000
0001
0001
,
1001
0000
0000
0000
,
0000
0000
0000
0000
,
0000
0000
0000
0000
,
0000
0000
0000
0000
,
0000
0000
0000
0000
,
0000
0000
0000
0000
,
0000
0000
0000
0000
,
0000
0000
0000
0000
,
0001
0001
0100
0001
,
0100
0100
0001
0100
,
0001
0100
1000
0100
,
0001
0100
1000
0100
,
1000
1000
0100
1000
,
0100
0100
1000
0100
,
1000
0100
0001
0100
,
1000
0100
0001
0100
,
1000
0001
1000
0001
,
2002
0000
0000
3003
,
1000
0001
1000
0001
,
2002
0000
0000
3003
,
1000
0100
1000
0000
,
0001
0100
0001
0000
,
0010
0010
0100
0010
,
0200
0000
0000
0300
,
0000
1001
0000
0000
,
;

//---------------dance-single - ----------------
#NOTEDATA:;
#CHARTNAME:;
#STEPSTYPE:dance-single;
#DESCRIPTION:;
#CHARTSTYLE:;
#DIFFICULTY:Easy;
#METER:8;
#RADARVALUES:0.311337,0.399096,0.099887,0.263340,0.000000,240.000000,229.000000,11.000000,29.000000,0.000000,0.000000,0.000000,0.000000,0.000000,0.311337,0.399096,0.099887,0.263340,0.000000,240.000000,229.000000,11.000000,29.000000,0.000000,0.000000,0.000000,0.000000,0.000000;
#CREDIT:;
#DISPLAYBPM:170.000000;
#NOTES:
0000
0000
0000
0000
,
0000
0000
0000
0000
,
0000
0000
0000
0000
,
0000
0000
0000
0000
,
0000
0000
0000
0000
,
0000
0000
0000
0000
,
0000
0000
0000
0000
,
1000
0010
0001
0100
,
1000
0000
0000
0001
0000
0000
1001
0000
,
0010
0010
1000
0001
,
0010
0010
0001
1000
,
0010
0010
1000
0001
,
0010
0010
0001
1000
,
0200
0010
0000
0010
,
0000
0010
0000
0310
,
0001
0000
1000
0000
,
0001
0010
1000
1001
,
0001
0010
1000
0100
,
0102
0000
0100
0103
,
1000
0010
0001
0100
,
2100
0000
0100
3100
,
0010
1000
0100
0001
,
1002
0000
1000
1003
,
0001
0010
1000
0100
,
0010
0000
0000
0100
0000
0000
0010
0000
,
0001
0010
0001
0000
1000
0000
0100
0000
,
2000
0000
0001
3001
,
0010
0100
0010
0000
1000
0000
0010
0000
,
0002
0000
0100
0103
,
1000
0010
1000
0000
0001
0000
0100
0000
,
0002
0000
1000
1003
,
0100
0010
0100
0000
1000
0000
0001
0000
,
2000
0000
0000
0002
3003
0000
0110
0000
,
1000
1000
0001
0001
,
1000
0200
0301
0100
,
1000
1000
0001
0001
,
1000
0020
0031
0010
,
2000
0100
3002
0100
,
2003
0100
3002
0100
,
2003
0010
3002
0013
,
0100
0000
0000
0001
0000
0000
1001
0000
,
0010
0000
0010
0000
0100
0100
0100
0000
,
1000
0000
1000
0000
0100
0100
0100
0000
,
0001
0000
0001
0000
0100
0100
0100
0000
,
0010
0000
0010
0000
0100
0100
0100
0000
,
1000
0000
0000
0000
0000
0000
0000
0010
,
0100
0000
0000
0000
,
1000
0000
0001
0000
,
0100
0010
0001
1000
,
2002
0000
0000
0000
,
0000
3003
0200
0300
,
0020
0000
0000
0030
,
0002
0000
0000
0003
,
0200
0000
0000
0000
,
0000
0300
2000
0000
,
0002
0000
0000
3003
,
0010
0000
0000
0100
0000
0000
0110
0000
,
1000
0000
0001
0000
0001
0100
1000
0000
,
0001
0000
1000
0000
1000
0100
0001
0000
,
0100
1000
0010
0001
,
0200
1000
0001
1300
,
0001
0000
1000
0000
1000
0100
0001
0000
,
1000
0000
0001
0000
0001
0100
1000
0000
,
0100
0001
0010
1000
,
0100
0000
0000
0010
0000
0000
0110
0000
,
0020
0001
1000
0031
,
0001
0100
0001
0000
1000
0000
1000
0000
,
0020
1000
0001
1030
,
0200
0000
0000
0300
,
0010
0010
1000
1000
,
0100
0100
0001
0001
,
0010
1000
0100
0001
,
1000
0000
0000
0001
0000
0000
1000
0000
,
0000
0110
0000
0000
;

//---------------dance-single - ----------------
#NOTEDATA:;
#CHARTNAME:;
#STEPSTYPE:dance-single;
#DESCRIPTION:;
#CHARTSTYLE:;
#DIFFICULTY:Medium;
#METER:11;
#RADARVALUES:0.470898,0.565385,0.236097,0.272420,0.013621,363.000000,337.000000,26.000000,30.000000,0.000000,0.000000,0.000000,0.000000,0.000000,0.470898,0.565385,0.236097,0.272420,0.013621,363.000000,337.000000,26.000000,30.000000,0.000000,0.000000,0.000000,0.000000,0.000000;
#CREDIT:;
#DISPLAYBPM:170.000000;
#NOTES:
0000
0000
0000
0000
,
0000
0000
0000
0000
,
0000
0000
0000
0000
,
0000
0000
0000
0000
,
0000
0000
0000
0000
,
0000
0000
0000
0000
,
0000
0000
0000
0000
,
0010
0001
0100
0010
1000
0100
0010
0000
,
1001
0000
0000
0110
0000
0000
1001
0000
,
0010
1000
0100
0000
0100
1000
0010
0000
,
0010
0001
1000
0000
1000
0001
0010
0000
,
0100
0010
1000
0000
1000
0010
0100
0000
,
0001
1000
0100
0000
0100
1000
0001
0000
,
0020
0100
0000
0100
,
0000
0000
0100
0000
0000
0000
0130
0001
,
1000
1100
0001
0101
,
1000
0100
0001
0100
1000
0010
0001
0000
,
1000
0100
1000
0000
0001
0010
0100
0010
,
0002
0000
1000
1003
,
0001
0100
0010
0000
0001
1000
0100
0010
,
2000
0100
0010
3010
,
0001
0100
0001
0000
1000
0010
0100
0010
,
2000
0000
0001
3001
,
1000
0100
0001
0000
0001
0100
1000
0010
,
0100
0000
0001
0010
0000
0001
0100
0000
,
0010
1000
0010
1000
0001
0100
1000
0100
,
0002
1000
0010
0103
,
1000
0100
1000
0100
0010
0100
1000
0010
,
0100
0001
1001
1001
,
0010
0001
0010
0001
1000
0100
0001
0100
,
2000
0001
0010
3100
,
0010
0100
1000
0000
0010
0100
0001
0000
,
2000
0000
0000
0002
3003
0000
0110
0000
,
2001
3100
1002
0103
,
2001
0000
3100
0000
0010
0100
0100
0000
,
0012
0103
2010
3100
,
0210
0000
1300
0000
0001
1000
0010
0000
,
0021
1030
0201
1300
,
1020
0000
0031
0000
0010
0100
0100
0000
,
0120
0031
1002
0103
,
0010
0000
1000
0100
0000
0010
0010
0010
,
0100
1000
0010
0001
0010
1000
0100
0001
,
1000
0010
0001
0100
1000
0100
0001
0000
,
0100
0001
0010
1000
0010
0001
0100
1000
,
0001
0010
1000
0100
0001
0100
1000
0000
,
0001
0000
0000
0000
0000
0000
0000
1000
,
0001
0000
0000
0000
,
0001
0001
0100
0000
1000
1000
0100
0000
,
0010
0000
0001
0000
0100
0000
0010
0000
1000
0000
0000
0001
0000
0000
1000
0000
,
2002
0000
0000
0000
,
0000
3000
0020
0003
,
0200
0000
0000
0030
,
2000
0000
0000
0300
,
0020
0000
0000
0000
,
0000
3000
0002
0030
,
2000
0000
0000
3003
,
0110
0000
0000
1001
0000
0000
0110
0000
,
0001
0100
1000
0001
1000
0100
0001
0000
,
1000
0100
0001
1000
0001
0100
1000
0000
,
0001
0010
0100
0010
0100
0010
0001
0001
,
1000
0010
0100
0010
0100
0000
1001
0000
,
0010
0001
0100
0010
1000
0100
0010
0000
,
0010
0100
1000
0010
0100
0001
0010
0000
,
0100
0000
1000
0000
0001
0001
0100
0100
,
0010
0000
0100
0001
0000
1000
0100
0000
,
0001
0100
0010
0001
1000
0100
0010
0000
,
1000
0100
1000
0000
0001
0000
0001
0000
,
1000
0100
0010
1000
0001
0100
0010
0000
,
0001
0000
0000
0001
0000
0000
0001
0000
1000
0000
0000
1000
0000
0000
1000
0000
,
0100
0001
0010
1000
0001
0100
1000
0010
,
0001
1000
0100
0001
1000
0100
0001
0000
,
0010
0010
0100
0100
0010
0100
0110
0000
,
2000
0000
0000
3200
0000
0000
0302
0000
,
1003
1001
0000
0000
;

//---------------dance-single - ----------------
#NOTEDATA:;
#CHARTNAME:;
#STEPSTYPE:dance-single;
#DESCRIPTION:;
#CHARTSTYLE:;
#DIFFICULTY:Hard;
#METER:15;
#RADARVALUES:0.668078,0.931223,0.181613,0.254259,0.635647,515.000000,495.000000,20.000000,28.000000,0.000000,0.000000,0.000000,0.000000,0.000000,0.668078,0.931223,0.181613,0.254259,0.635647,515.000000,495.000000,20.000000,28.000000,0.000000,0.000000,0.000000,0.000000,0.000000;
#CREDIT:;
#DISPLAYBPM:170.000000;
#NOTES:
0000
0000
0000
0000
,
0000
0000
0000
0000
,
0000
0000
0000
0000
,
0000
0000
0000
0000
,
0000
0000
0000
0000
,
0000
0000
0000
0000
,
0000
0000
0000
0000
,
0001
0000
0010
0000
1000
0000
0001
0000
0100
1000
0100
1000
0001
0000
0000
0000
,
1001
0000
0000
0000
0010
0000
0100
0000
0000
0000
0010
0000
1000
0000
0010
0100
,
0010
1000
0100
0001
,
0020
1000
0001
1030
,
0010
0001
0100
1000
,
0020
0000
0001
0000
1000
0000
0031
1000
,
0020
0100
0000
0100
,
0000
0000
0100
0000
0000
0000
0130
1000
,
0001
0101
1000
1100
,
0001
0000
0100
0000
1000
0000
0100
0000
0001
0010
0000
0010
0001
0000
1000
0001
,
0010
0001
0010
0001
1000
0100
0001
0100
,
2000
0000
0010
3100
,
0001
0100
0001
0100
0010
0100
0001
0010
,
0100
1000
1001
1001
,
0010
1000
0010
1000
0001
0100
1000
0100
,
0002
0000
0010
0103
,
0001
0100
1000
0001
1000
0100
0001
0010
,
0100
0000
1000
0010
0000
1000
0100
0000
,
0010
0000
0001
0000
0010
0001
0010
0001
0010
0000
0100
0000
0010
0001
0010
0001
,
1000
0000
0010
0000
0100
0010
0100
0010
0100
0000
0001
0000
1000
0000
0100
0000
,
0010
0000
0100
0000
1000
0010
1000
0010
1000
0000
0001
0000
0010
0100
0010
0100
,
0010
0000
0001
0000
1000
0010
1000
0010
0100
0001
0100
0001
1000
0100
1000
0100
,
0010
0000
0100
0000
1000
0001
1000
0001
0100
0000
0010
0000
0100
0001
0100
0001
,
0010
0000
0100
0000
1000
0100
1000
0100
0010
0000
0001
0000
1000
0000
0010
0000
,
0100
0000
0001
0000
1000
0010
1000
0010
0100
0000
0001
0000
1000
0100
1000
0100
,
2000
0000
0000
0002
3003
0000
0110
0000
,
1002
0000
0000
0000
0013
0001
0000
0001
0200
0000
0000
0000
0310
1000
0000
1000
,
0200
0000
0000
0000
0310
0001
0000
0001
0100
0000
0010
0000
1000
0000
0001
0000
,
0010
0000
0000
0000
0100
0010
0000
0010
0002
0000
0000
0000
0103
0010
0000
0010
,
2000
0000
0000
0000
3100
0010
0000
0010
0001
0000
1000
0000
0010
0000
0000
0000
,
1200
0000
0000
0000
0310
0001
0000
0001
2000
0000
0000
0000
3010
1000
0000
1000
,
0002
0000
0000
0000
0013
0001
0000
0001
0010
0000
0100
0000
1000
0000
0010
0000
,
0200
0000
0000
0000
0301
0010
0000
0010
0200
0000
0000
0000
1300
0010
0000
0010
,
0100
0000
0001
1000
0000
0010
0010
0010
,
0100
0000
0001
0000
0010
0001
1000
0010
0100
0000
0001
0000
1000
0100
0010
0100
,
1000
0000
0001
0000
0100
0010
1000
0100
0010
0000
0001
0000
1000
0000
0010
0000
,
0100
0000
1000
0000
0100
0001
1000
0100
0010
0000
0001
0000
1000
0010
0100
0001
,
0010
0000
0100
0000
1000
0010
0100
0010
1000
0100
0010
0001
0100
0010
1000
0001
,
1000
0000
0000
0000
0000
0000
0000
0010
,
0100
0000
0000
0000
,
0110
1000
0001
0000
0110
0001
1000
0000
,
0010
0000
1000
0000
0100
0000
0010
0000
0001
1000
0000
0010
0100
0000
0001
2000
,
0002
0000
0000
0000
,
0000
0003
0020
3000
,
0200
0000
0000
0030
,
0002
0000
0000
0300
,
0020
0000
0000
0000
,
0000
0003
2000
0030
,
0002
0000
0000
3003
,
0110
0000
0000
1001
0000
0000
0110
0000
,
1000
0000
0100
1000
0001
0000
1000
0010
0000
0100
0001
0010
0100
0000
1000
0000
,
0001
0000
0100
0001
1000
0001
0100
0010
0000
0100
0001
0010
0100
0000
1000
0000
,
0010
0000
1000
0100
0010
0000
0001
0100
0000
0010
1000
0001
0010
0000
0100
0000
,
1000
0000
0010
0100
0010
1000
0100
0010
0100
1000
0000
1000
0010
0000
1000
0000
,
0001
0000
0100
0001
1000
0000
0001
0010
0000
0100
1000
0010
0100
0000
0001
0000
,
1000
0000
0100
1000
0001
1000
0100
0010
0000
0100
1000
0010
0100
0000
0001
0000
,
0010
0000
0001
0100
0010
0000
1000
0100
0000
0010
0001
1000
0010
0000
0100
0000
,
0010
0000
0100
0001
0000
1000
0100
0000
,
1000
0100
0010
0001
1000
0100
0010
0001
0000
0001
0100
0010
1000
0000
0001
0000
,
0010
0100
0010
0100
1000
0000
0100
0000
1000
0000
0001
0010
0000
0100
1000
0000
,
0001
0100
0010
1000
0001
0100
0010
1000
0000
1000
0100
0010
0001
0000
1000
0000
,
1010
0000
0000
1001
0000
0000
1100
0000
0011
0000
0000
1001
0000
0000
0101
0000
,
1000
0010
0100
0010
1000
0010
0100
0010
0000
1000
0100
0010
0001
0000
0100
0000
,
0001
0010
0100
0010
0001
0010
0100
0010
0000
0001
0100
0010
1000
0000
0100
0000
,
0010
0100
0010
0100
1000
0001
1000
0001
0100
0010
0100
0010
1000
0000
0000
0000
,
0002
0000
0000
0203
0000
0000
2300
0000
,
3001
1001
0000
0000
;

//---------------dance-double - ----------------
#NOTEDATA:;
#CHARTNAME:;
#STEPSTYPE:dance-double;
#DESCRIPTION:;
#CHARTSTYLE:;
#DIFFICULTY:Easy;
#METER:8;
#RADARVALUES:0.298365,0.365838,0.072645,0.281501,0.000000,230.000000,222.000000,8.000000,31.000000,0.000000,0.000000,0.000000,0.000000,0.000000,0.298365,0.365838,0.072645,0.281501,0.000000,230.000000,222.000000,8.000000,31.000000,0.000000,0.000000,0.000000,0.000000,0.000000;
#CREDIT:;
#DISPLAYBPM:170.000000;
#NOTES:
00000000
00000000
00000000
00000000
,
00000000
00000000
00000000
00000000
,
00000000
00000000
00000000
00000000
,
00000000
00000000
00000000
00000000
,
00000000
00000000
00000000
00000000
,
00000000
00000000
00000000
00000000
,
00000000
00000000
00000000
00000000
,
00000010
00000001
00000100
00001000
,
00010000
00000000
00000000
00001000
00000000
00000000
00011000
00000000
,
01000000
01000000
10000000
10000000
,
00100000
00100000
00010000
00010000
,
00001000
00001000
00000010
00000010
,
00000001
00000001
00000100
00000100
,
00000020
00000100
00000000
00000100
,
00000000
00000100
00000000
00000130
,
00010000
00000000
00001000
00000000
,
00010000
00100000
10000000
10010000
,
00100000
00001000
00010000
01000000
,
20000000
00000000
00100000
30100000
,
00010000
00001000
00000010
00001000
,
00000002
00000000
00000010
00000013
,
00000100
00001000
00010000
00000010
,
00002000
00000000
00000001
00003001
,
00001000
00010000
00100000
10000000
,
01000000
00000000
00000000
00100000
00000000
00000000
01000000
00000000
,
00001000
00010000
00001000
00000000
00000001
00000000
00000010
00000000
,
00000002
00000000
00001000
00001003
,
00010000
00001000
00010000
00000000
10000000
00000000
00100000
00000000
,
20000000
00000000
00100000
30100000
,
01000000
00100000
01000000
00000000
00010000
00000000
00001000
00000000
,
00000200
00000000
00000001
00000301
,
00000010
00000100
00000010
00000000
00010000
00000000
00001000
00000000
,
00200000
00000000
00000000
00020000
00330000
00000000
11000000
00000000
,
00020000
00100000
02030000
00100000
,
03020000
00100000
00031000
00000001
,
00000200
00000010
00000302
00000010
,
00000203
00000010
00001300
00010000
,
00002000
00100000
00023000
00100000
,
00032000
00100000
00023000
00100000
,
00031000
00010000
01000000
10000000
,
00100000
00000000
00000000
10000000
00000000
00000000
10010000
00000000
,
00100000
00100000
00000010
00000010
,
00000001
00000001
00001000
00001000
,
00000100
00000100
01000000
01000000
,
10000000
10000000
00010000
00010000
,
00001000
00000000
00000000
00000000
00000000
00000000
00000000
00000100
,
00000010
00000000
00000000
00000000
,
00000001
00000000
00001000
00000000
,
00010000
00001000
00010000
10000000
,
20020000
00000000
00000000
00000000
,
00000000
30030000
00200000
00300000
,
02000000
00000000
00000000
03000000
,
00020000
00000000
00000000
00030000
,
00002000
00000000
00000000
00000000
,
00000000
00003000
00000020
00000000
,
00000002
00000000
00000000
00000033
,
00000100
00000000
00000000
00000010
00000000
00000000
00000110
00000000
,
00000010
00010000
00001000
01000000
,
00100000
00000000
01000000
00000000
00010000
00100000
01000000
00000000
,
00010000
00001000
00000100
00000001
,
00000020
00000001
00001000
00000031
,
00000100
00010000
00001000
00100000
,
01000000
00000000
00100000
00000000
00010000
01000000
00100000
00000000
,
00010000
00001000
00000010
00000001
,
00001000
00000000
00000000
00000001
00000000
00000000
00000110
00000000
,
00002000
00010000
00000100
00013000
,
00100000
10000000
01000000
00010000
,
00020000
00001000
01000000
00031000
,
00000020
00000000
00000000
00000030
,
00000001
00000001
00000100
00001000
,
01000000
01000000
00100000
10000000
,
00010000
00100000
00000010
00001000
,
00010000
00000000
00000000
00001000
00000000
00000000
00010000
00000000
,
00000000
00000110
00000000
00000000
,
;

//---------------dance-double - ----------------
#NOTEDATA:;
#CHARTNAME:;
#STEPSTYPE:dance-double;
#DESCRIPTION:;
#CHARTSTYLE:;
#DIFFICULTY:Medium;
#METER:12;
#RADARVALUES:0.417711,0.532127,0.281501,0.335985,0.013621,322.000000,291.000000,31.000000,37.000000,0.000000,0.000000,0.000000,0.000000,0.000000,0.417711,0.532127,0.281501,0.335985,0.013621,322.000000,291.000000,31.000000,37.000000,0.000000,0.000000,0.000000,0.000000,0.000000;
#CREDIT:;
#DISPLAYBPM:170.000000;
#NOTES:
00000000
00000000
00000000
00000000
,
00000000
00000000
00000000
00000000
,
00000000
00000000
00000000
00000000
,
00000000
00000000
00000000
00000000
,
00000000
00000000
00000000
00000000
,
00000000
00000000
00000000
00000000
,
00000000
00000000
00000000
00000000
,
10000000
01000000
00100000
00010000
00001000
00000100
00000010
00000000
,
00000011
00000000
00000000
00001100
00000000
00000000
00000101
00000000
,
00000010
00010000
00000010
00000000
00000100
00001000
00000100
00000000
,
00100000
00010000
00100000
00000000
00001000
01000000
00001000
00000000
,
00100000
10000000
00100000
00000000
01000000
00010000
01000000
00000000
,
00001000
00010000
00001000
00000000
00000010
00000100
00000010
00000000
,
00000002
00000100
00000000
00000100
,
00000000
00000100
00000000
00000103
,
00001000
00000000
00010000
00000000
,
00010010
01001000
00010100
00101000
,
10000000
00100000
10000000
00000000
00010000
10000000
01000000
00010000
,
00002000
00000000
00000100
00003100
,
00000001
00000010
00000001
00000000
00001000
00000001
00000100
00001000
,
00020000
00001000
00100000
00130000
,
01000000
00001000
00010000
00000000
00000010
00001000
00010000
00100000
,
20000000
00000000
00010000
30010000
,
10000000
01000000
00010000
00000000
00001000
00000100
00000001
00000010
,
00000100
00000000
00000000
00000010
00000000
00000000
00000110
00000000
,
00010000
00001000
00200000
00000000
00310000
01000000
00001000
00100000
,
00020000
10000000
00100000
01030000
,
00001000
00010000
00000020
00000000
00001030
00000100
00010000
00000010
,
00002000
00000001
00000010
00003100
,
00000010
00001000
00020000
00000000
00031000
01000000
00010000
01000000
,
00200000
00010000
10000000
10300000
,
00010000
10000000
00010000
00001000
,
00000002
00000000
00000000
00002000
00003003
00000000
00000110
00000000
,
00001001
01000000
00001001
01000000
,
00001001
01000000
10000000
00010000
,
10010000
00000100
10010000
00000100
,
10010000
00000100
00000001
00001000
,
00002010
00003100
00120000
01030000
,
00002010
00003100
00010000
00001000
,
01000000
10000000
00100000
00010000
,
00200000
00000000
00000000
00300000
,
10020000
00030100
00002001
01003000
,
10020000
00000000
00030100
00000000
00000001
00000010
00000001
00000000
,
00002001
01003000
10020000
00030100
,
00002001
00000000
01003000
00000000
10000000
00100000
10000000
00000000
,
00010000
00000000
00000000
00000000
00000000
00000000
00000000
10000000
,
00010000
00000000
00000000
00000000
,
00100000
00001000
00010000
00000000
00000010
00001000
00000001
00000000
,
00000010
00000000
00000001
00000000
00001000
00000000
00000010
00000000
00000100
00000000
00000000
00001000
00010000
00000000
00000100
00000000
,
00000020
00000000
00000000
00000000
,
00000000
00000000
00000002
00000030
,
00002000
00000000
00000000
00000003
,
00020000
00000000
00000000
00030000
,
00000002
00000000
00000000
00000000
,
00000000
00003000
00000020
00000003
,
00000200
00000000
00000000
00000330
,
00001000
00000000
00000000
00010000
00000000
00000000
00011000
00000000
,
00000010
00010000
01000000
00000000
00200000
00000000
00310000
00000000
,
10000000
01000000
00010000
00001000
00010000
00000100
00000001
00000000
,
00000010
00000001
00001000
00000000
00000010
00000000
00000100
00000000
,
00000001
00001000
00010000
00001000
00010000
00000000
10010000
00000000
,
00100000
00001000
00010000
00000000
10000000
00000000
01000000
00000000
,
00100000
01000000
10000000
00100000
00010000
00000010
00001000
00000000
,
00000001
00000010
00001000
00000000
00000001
00000100
00001000
00000000
,
00000001
00000000
00000100
00001000
00000000
00010000
00010000
00010000
,
00001000
01000000
00100000
00010000
10000000
01000000
00010000
00000000
,
10000000
00010000
00001000
00000001
,
00000010
00000100
00010000
00001000
00000100
00000010
00010000
00000000
,
00001000
00000000
00000000
00001000
00000000
00000000
00001000
00000000
01000000
00000000
00000000
01000000
00000000
00000000
01000000
00000000
,
10020000
00031000
02100000
03001000
,
00002001
00013000
00000210
00010300
,
00100000
00001000
00001000
00010000
00100000
01000000
00010000
00000000
,
20000000
00000000
00000000
32000000
00000000
00000000
03020000
00000000
,
00031000
00011000
00000000
00000000
,
;

//---------------dance-double - ----------------
#NOTEDATA:;
#CHARTNAME:;
#STEPSTYPE:dance-double;
#DESCRIPTION:;
#CHARTSTYLE:;
#DIFFICULTY:Hard;
#METER:16;
#RADARVALUES:0.609702,0.798191,0.272420,0.281501,0.422251,470.000000,440.000000,30.000000,31.000000,0.000000,0.000000,0.000000,0.000000,0.000000,0.609702,0.798191,0.272420,0.281501,0.422251,470.000000,440.000000,30.000000,31.000000,0.000000,0.000000,0.000000,0.000000,0.000000;
#CREDIT:;
#DISPLAYBPM:170.000000;
#NOTES:
00000000
00000000
00000000
00000000
,
00000000
00000000
00000000
00000000
,
00000000
00000000
00000000
00000000
,
00000000
00000000
00000000
00000000
,
00000000
00000000
00000000
00000000
,
00000000
00000000
00000000
00000000
,
00000000
00000000
00000000
00000000
,
00000001
00000100
00010000
00001000
00100000
10000000
00010000
00000000
,
10010000
00000000
00000000
00000000
00100000
00000000
01000000
00000000
00000000
00000000
00100000
00000000
00010000
00000000
00100000
01000000
,
00100000
01000000
10000000
00010000
,
00002000
00000001
00000100
00003001
,
00000010
00000100
00000001
00001000
,
00020000
10000000
01000000
10030000
,
02000000
00100000
00000000
00100000
,
00000000
00000000
00100000
00000000
00000000
00000000
03100000
00010000
,
00001000
00001100
00000010
00000101
,
00001000
00000000
00000100
00000000
00000001
00000000
00000100
00000000
00001000
00000010
00000000
00010000
00001000
00000000
00100000
00010000
,
10000000
00100000
01000000
00100000
00010000
00001000
00000010
00001000
,
00020000
00000010
01000000
00030010
,
00000001
00000010
00000100
00000010
00001000
00010000
00100000
00010000
,
00002000
00100000
00000100
00103000
,
00010000
00100000
10000000
00010000
01000000
10000000
00010000
00001000
,
00000200
00000000
00000010
00000310
,
00001000
00000010
00000001
00001000
00000100
00000001
00001000
00010000
,
00001000
00000000
00000001
00000010
00000000
00001000
00010000
00000000
,
00100000
00000000
10000000
00000000
00010000
10000000
00010000
10000000
00010000
00000000
01000000
00000000
00100000
10000000
00100000
10000000
,
01000000
00000000
00010000
00000000
00001000
00010000
00001000
00010000
00001000
00000000
00000010
00000000
00000001
00000000
00001000
00000000
,
00000010
00000000
00000100
00000000
00000001
00000010
00000001
00000010
00000001
00000000
00001000
00000000
00000010
00000100
00000010
00000100
,
00000010
00000000
00010000
00000000
00001000
00100000
00001000
00100000
00001000
00000000
00010000
00000000
01000000
00000000
10000000
00000000
,
00100000
00000000
01000000
00000000
00010000
10000000
00010000
10000000
01000000
00000000
00010000
00000000
00000010
00010000
00000010
00010000
,
00001000
00000000
00000100
00000000
00000010
00001000
00000010
00001000
00000001
00000000
00001000
00000000
00000001
00000000
00000010
00000000
,
00000100
00000000
00010000
00000000
00001000
00100000
00001000
00100000
01000000
00000000
10000000
00000000
00010000
01000000
00010000
01000000
,
00020000
00000000
00000000
20000000
30030000
00000000
01100000
00000000
,
10020000
00030100
00002001
01003000
,
10020000
00000000
00030100
00000000
00002001
00000000
01003000
00100000
,
10020000
00030100
00002001
01003000
,
10020000
00000000
00030100
00000000
00001001
00000100
00000010
00000000
,
00000120
00010030
01200000
00301000
,
00000120
00000000
00010030
00000000
01200000
00000000
00301000
00000001
,
00000120
00010030
01200000
00301000
,
00000100
00000000
00001000
00000001
00000000
00000010
00000010
00000010
,
00000100
00000000
00001000
00000000
00000010
00010000
00001000
00100000
01000000
00000000
10000000
00000000
00010000
01000000
00100000
01000000
,
00010000
00000000
10000000
00000000
01000000
00100000
00001000
00010000
00000010
00000000
00001000
00000000
00000001
00000000
00000010
00000000
,
00000100
00000000
00010000
00000000
00000100
00001000
00000001
00000100
00000010
00000000
00010000
00000000
00001000
00000100
00001000
00010000
,
00001000
00000000
01000000
00000000
00100000
10000000
00010000
10000000
00100000
00000000
01000000
00000000
00010000
00000000
00100000
00000000
,
01000000
00000000
00000000
00000000
00000000
00000000
00000000
00000010
,
00000100
00000000
00000000
00000000
,
00001001
00000010
00000100
00000000
00011000
00100000
01000000
00000000
,
00100000
00000000
10000000
00000000
01000000
00000000
00010000
00000000
00001000
00000010
00000000
00000001
00000100
00000000
00000010
00000100
,
00000020
00000000
00000000
00000000
,
00000000
00000000
00002000
00000030
,
00000002
00000000
00000000
00003000
,
00002000
00000000
00000000
00000003
,
00020000
00000000
00000000
00000000
,
00000000
00003000
20000000
00030000
,
02000000
00000000
00000000
33000000
,
01100000
00000000
00000000
10010000
00000000
00000000
01100000
00000000
,
00010000
00000000
00100000
00010000
00001000
00000000
00000100
00000010
00000000
00000010
00000000
00000010
00000001
00000000
00001000
00000000
,
00000010
00000000
00000100
00001000
00010000
00000000
00000010
00001000
00000000
00001000
00000000
00100000
00010000
00000000
10000000
00000000
,
01000000
00000000
00010000
00100000
01000000
00000000
00010000
00000100
00000000
00000010
00000000
00001000
00010000
00000000
00010000
00000000
,
00000100
00000000
00000001
00000100
00001000
00000000
00000001
00000100
00000000
00000100
00000000
00000100
00000010
00000000
00001000
00000000
,
00000100
00000000
00010000
00001000
00100000
00000000
00010000
00000010
00000000
00000100
00000000
00000001
00000010
00000000
00000100
00000000
,
00000010
00000000
00001000
00010000
00100000
00000000
01000000
00100000
00000000
00100000
00000000
00100000
01000000
00000000
00010000
00000000
,
00100000
00000000
00001000
00010000
00000010
00000000
00001000
00000001
00000000
00000010
00000000
00000001
00001000
00000000
00000010
00000000
,
00000100
00000000
00010000
01000000
00000000
00100000
00100000
00100000
,
10000000
00000000
01000000
00100000
00010000
00000000
00100000
00010000
00000000
00001000
00000100
00000010
00000001
00000000
00001000
00000000
,
00000010
00000100
00000010
00000100
00000001
00000000
00000100
00000000
00001000
00000000
00010000
00000010
00000000
00000100
00000001
00000000
,
00001000
00000000
00000010
00000100
00000001
00000000
00001000
00000100
00000000
00000001
00000100
00000010
00001000
00000000
00010000
00000000
,
00110000
00000000
00000000
10010000
00000000
00000000
01010000
00000000
00001010
00000000
00000000
00001001
00000000
00000000
00001100
00000000
,
00000001
00000000
00000010
00000001
00001000
00000000
00000010
00000100
00000000
00001000
00010000
00000010
00001000
00000000
00000100
00000000
,
00010000
00000000
00001000
01000000
00100000
00000000
00010000
00001000
00000000
00000010
00001000
00010000
00100000
00000000
01000000
00000000
,
00100000
00000000
00100000
00000000
10000000
00000000
10000000
00000000
01000000
00100000
00010000
00100000
01000000
00000000
00000000
00000000
,
00002000
00000000
00000000
00003200
00000000
00000000
00000302
00000000
,
00001003
00001001
00000000
00000000
,
;

//---------------dance-single - ----------------
#NOTEDATA:;
#CHARTNAME:;
#STEPSTYPE:dance-single;
#DESCRIPTION:;
#CHARTSTYLE:;
#DIFFICULTY:Challenge;
#METER:18;
#RADARVALUES:1.058547,1.130771,0.345066,0.054484,1.380262,816.000000,778.000000,38.000000,6.000000,0.000000,0.000000,0.000000,0.000000,0.000000,1.058547,1.130771,0.345066,0.054484,1.380262,816.000000,778.000000,38.000000,6.000000,0.000000,0.000000,0.000000,0.000000,0.000000;
#CREDIT:;
#DISPLAYBPM:170.000000;
#NOTES:
// measure 0
0000
0000
0000
0000
,  // measure 1
0000
0000
0000
0000
,  // measure 2
0000
0000
0000
0000
,  // measure 3
0000
0000
0000
0000
,  // measure 4
0000
0000
0000
0000
,  // measure 5
0000
0000
0000
0000
,  // measure 6
0000
0000
0000
0000
,  // measure 7
1000
0010
1000
0010
0100
0010
0100
0010
0100
0001
0100
0001
1000
0001
1000
0001
,  // measure 8
0010
0000
0001
0100
0001
0000
1000
0100
1000
0000
0010
0100
0010
1000
0001
0000
,  // measure 9
0010
0001
0100
0000
0010
1000
0100
0000
1000
0001
0100
0000
0001
1000
0100
0000
,  // measure 10
1000
0010
0100
0000
0010
1000
0001
0000
0010
0001
0100
0000
0001
1000
0010
0000
,  // measure 11
1000
0001
0010
0000
0100
1000
0010
0000
1000
0100
0001
0000
0010
0100
1000
0000
,  // measure 12
0001
1000
0001
0000
0100
0010
0100
0000
0001
0010
0100
1000
0010
0100
0001
1000
,  // measure 13
0010
0100
0101
0000
0001
1000
1010
0000
,  // measure 14
0010
0100
1001
0000
1000
0001
0011
0000
,  // measure 15
0001
0010
0100
1000
0001
0100
0010
1000
0100
0010
0100
1000
0001
1000
0001
0010
,  // measure 16
0001
0000
0010
0100
1000
0000
0001
1000
0010
0000
0100
0010
1000
0100
0010
0001
,  // measure 17
0100
0010
1010
1000
0100
0110
0001
1000
,  // measure 18
1001
0100
1000
0001
0010
0100
1001
0000
,  // measure 19
1000
0001
0011
0100
1000
1010
0010
0100
,  // measure 20
0110
0001
1000
1100
0010
0101
1001
1100
,  // measure 21
0001
1000
1100
0010
0001
0011
0100
0010
,  // measure 22
1010
1000
0100
0010
0001
1000
1001
0000
,  // measure 23
0100
0001
0011
0100
1000
1001
0010
1000
,  // measure 24
1100
1000
0001
0011
0010
0110
1100
1001
,  // measure 25
0010
0001
0100
0000
0001
0010
0100
1000
0010
0100
0001
0000
1000
0100
0010
0001
,  // measure 26
0100
0010
0100
0001
0010
0000
0000
0000
0100
1000
0010
1000
0001
0000
0000
0000
,  // measure 27
0010
0100
1000
0000
0001
1000
0010
1000
0100
0010
0001
0000
0100
0001
1000
0010
,  // measure 28
0100
0010
1000
0100
0010
0000
0001
1000
0001
0010
0100
0000
1000
0010
0001
0000
,  // measure 29
0100
0001
1000
0000
0010
1000
0100
1000
0001
0010
0100
0000
0010
0001
0100
1000
,  // measure 30
0001
1000
0001
0010
0100
0000
0000
0000
1000
0001
0100
0010
1000
0000
0000
0000
,  // measure 31
1000
0100
1000
0100
0010
0001
0010
0001
1000
0010
0100
0001
1000
0100
0010
0001
,  // measure 32
0100
0010
1000
0010
0100
0000
0001
1000
0010
1000
0001
0000
0100
0010
1000
0001
,  // measure 33
0100
0000
0100
0000
0010
1000
0100
0010
0001
0000
0001
0000
0100
0001
1000
0010
,  // measure 34
1000
0000
1000
0000
0010
1000
0100
0010
0001
0100
0001
0010
0100
1000
0001
1000
,  // measure 35
0010
0000
0010
0000
1000
0001
0010
0100
1000
0000
1000
0000
0001
0100
0001
0010
,  // measure 36
0100
0000
0100
0000
1000
0001
0010
0100
1000
0010
0100
0001
0010
0100
1000
0000
,  // measure 37
0101
0000
0101
0000
0001
1000
0010
0100
0010
0000
0010
0000
1000
0001
0100
0001
,  // measure 38
0010
0000
0010
0000
0001
1000
0100
0010
0001
0100
0001
1000
0010
1000
0100
0010
,  // measure 39
0001
0000
0001
0000
0001
1000
0100
0010
0100
0000
0100
0000
1000
0001
0010
0100
,  // measure 40
1000
0010
0100
0001
0010
0100
1000
0010
1000
0001
0100
0001
0010
0100
1000
0000
,  // measure 41
0010
1000
0100
1000
0010
0100
0000
0001
0010
0100
1000
0010
1000
0001
0000
0001
,  // measure 42
0010
0001
0100
0001
1000
0100
0000
1000
0010
1000
0001
0010
0100
1000
0010
0100
,  // measure 43
0010
1000
0001
0010
0001
0100
0000
0010
0100
0010
1000
0100
0010
0001
0000
1000
,  // measure 44
0010
1000
0001
0010
0100
1000
0000
0010
1000
0001
0010
0100
1000
0001
1000
0000
,  // measure 45
0110
0000
0110
0000
0100
0001
0010
0001
1000
0000
1000
0000
0010
1000
0100
0010
,  // measure 46
0001
0000
0001
0000
0001
1000
0010
1000
0100
0010
0001
0100
0001
1000
0100
0010
,  // measure 47
0001
0000
0001
0000
1000
0010
1000
0100
0010
0000
0010
0000
0001
0100
0001
1000
,  // measure 48
0001
1000
0010
0100
1000
0010
0100
0001
1000
0010
0001
0100
1000
0001
0100
0010
,  // measure 49
2000
0100
0000
0100
,  // measure 50
0000
0100
3002
0100
,  // measure 51
0023
0100
0000
0100
,  // measure 52
0000
0100
0032
0100
,  // measure 53
2003
0100
0010
3001
,  // measure 54
0020
1000
0001
0130
,  // measure 55
0001
0010
0001
0010
0100
1000
0100
1000
0001
0100
0001
0100
0010
1000
0010
1000
,  // measure 56
0001
1000
0010
0100
1000
0100
0001
0010
0100
0001
0010
1000
0010
0001
1000
0100
,  // measure 57
0010
0000
0001
1000
0100
0010
0100
1000
0010
0100
0000
0001
1000
0100
1000
0010
,  // measure 58
0001
0000
0100
0001
0010
0100
1000
0010
1000
0100
0000
1000
0001
0010
0001
0100
,  // measure 59
0010
0000
1000
0001
0010
0001
0100
0010
1000
0100
0000
1000
0010
1000
0100
0010
,  // measure 60
0001
0000
1000
0001
0010
0001
0100
0010
1000
0100
0010
0100
1000
0001
0010
0000
,  // measure 61
0001
0000
0100
0001
0010
0100
1000
0010
1000
0100
0010
0001
0100
0010
1000
0000
,  // measure 62
0100
0000
1000
0001
1000
0010
0100
0010
0100
0001
0010
0100
0010
0100
1000
0000
,  // measure 63
0010
0001
0100
1000
0010
0001
1000
0100
0010
1000
0100
0001
0010
0100
0001
1000
,  // measure 64
0001
0000
1000
0100
0010
0100
1000
0000
0001
1000
0001
0010
0100
0010
0100
0000
,  // measure 65
1000
0100
0010
0001
0100
0010
1000
0001
0000
0011
0000
0001
0100
0010
1000
0100
,  // measure 66
0010
0001
0100
0001
1000
0010
1000
0100
0010
0001
0100
0001
1000
0010
0001
0000
,  // measure 67
1000
0001
0010
0001
0100
0010
1000
0100
0000
1000
0010
1000
0100
0010
0001
0000
,  // measure 68
1010
0000
0000
0101
0000
0000
0011
0000
0000
0000
1100
0000
0000
1001
0000
0000
,  // measure 69
0110
0000
0010
1000
0100
1000
0010
0100
0000
0001
0010
0001
0100
0010
1000
0000
,  // measure 70
0001
0010
0100
1000
0010
1000
0100
0010
0000
0100
0010
0001
1000
0001
0100
0000
,  // measure 71
0001
0010
1000
0100
0001
1000
0100
0010
0001
0010
0100
1000
0001
1000
0100
0010
,  // measure 72
1000
0010
0100
0001
1000
0001
0100
0010
1000
0010
0001
0100
1000
0100
0010
0001
,  // measure 73
0010
0100
0010
0100
1001
0000
0000
0000
0000
0000
0000
0000
0000
0000
0000
0000
;
