#VERSION:0.83;
#TITLE:robotip phactory;
#SUBTITLE:;
#ARTIST:BEMANI Sound Team "PHQUASE";
#TITLETRANSLIT:;
#SUBTITLETRANSLIT:;
#ARTISTTRANSLIT:;
#GENRE:;
#ORIGIN:;
#CREDIT:;
#BANNER:robotip phactory.png;
#BACKGROUND:robotip phactory-bg.png;
#PREVIEWVID:;
#JACKET:robotip phactory-jacket.png;
#CDIMAGE:;
#DISCIMAGE:;
#LYRICSPATH:;
#CDTITLE:;
#MUSIC:robotip phactory.ogg;
#OFFSET:0.400000;
#SAMPLESTART:58.092999;
#SAMPLELENGTH:20.000000;
#SELECTABLE:YES;
#DISPLAYBPM:100.000000:123.000000;
#BPMS:0.000=122.920,
228.000=115.000,
234.000=105.000,
235.000=100.000;
#STOPS:;
#DELAYS:;
#WARPS:;
#TIMESIGNATURES:0.000=4=4;
#TICKCOUNTS:0.000=4;
#COMBOS:0.000=1;
#SPEEDS:0.000=1.000=0.000=0;
#SCROLLS:0.000=1.000;
#FAKES:;
#LABELS:0.000=Song Start;
#BGCHANGES:;
#KEYSOUNDS:;
#ATTACKS:
;

//---------------dance-single - ----------------
#NOTEDATA:;
#CHARTNAME:;
#STEPSTYPE:dance-single;
#DESCRIPTION:;
#CHARTSTYLE:;
#DIFFICULTY:Hard;
#METER:14;
#RADARVALUES:0.644328,0.729955,0.401097,0.311055,0.773544,551.000000,502.000000,49.000000,38.000000,0.000000,0.000000,0.000000,0.000000,0.000000,0.644328,0.729955,0.401097,0.311055,0.773544,551.000000,502.000000,49.000000,38.000000,0.000000,0.000000,0.000000,0.000000,0.000000;
#CREDIT:;
#DISPLAYBPM:100.000000:123.000000;
#NOTES:
// measure 0
0000
0000
0000
0000
,  // measure 1
0000
0000
0000
0000
,  // measure 2
0000
0000
0000
0000
,  // measure 3
0010
0000
0000
0010
0000
0000
1000
0000
0100
0000
0000
1000
0000
0000
0001
0000
0000
0100
0000
0000
0001
0010
0000
0000
,  // measure 4
0001
0001
0010
0010
0100
0100
1000
1000
,  // measure 5
0001
0001
0000
0101
0000
0000
1000
1000
0000
1100
0000
0000
,  // measure 6
0010
0010
0000
1001
0000
0000
0100
0100
0000
0011
0000
0000
,  // measure 7
0010
0010
0001
0001
0100
0100
1000
1000
,  // measure 8
0001
0010
0100
1000
0010
0100
0110
0000
0000
0000
0000
0000
,  // measure 9
0001
0000
0100
0001
0000
0100
0000
0000
0010
1000
0000
0010
1000
0000
0000
0001
0000
0010
0001
0000
0010
0000
0000
0100
,  // measure 10
0000
0000
1000
0010
0000
0000
0000
0000
1010
0000
0000
0000
0000
0000
0001
0100
0000
0000
0110
0000
0000
1001
0000
0000
,  // measure 11
0010
0000
0100
0010
0000
0100
0000
0000
0001
1000
0000
0001
0000
0000
0100
0000
0000
0100
0000
0000
0010
1000
0000
0010
,  // measure 12
1000
0000
0000
1010
0000
0000
0001
0000
0000
0011
0000
0000
0001
0000
0001
0000
0000
0000
1000
0000
1000
0000
0000
0000
,  // measure 13
0001
0000
0100
0001
0000
0100
0000
0000
0001
1000
0000
0001
1000
0000
0000
0010
0000
0100
0010
0000
0000
0101
0000
0000
,  // measure 14
1000
0000
0100
1000
0000
0100
1000
0000
0100
1000
0000
0100
0010
0000
0000
0001
0000
0000
1100
0000
0000
0101
0000
0000
,  // measure 15
0010
0000
1000
0010
0000
1000
0010
0000
0000
1000
0000
0001
1000
0000
0000
0010
0000
0000
0110
0000
0000
1010
0000
0000
,  // measure 16
0001
0000
0000
0001
0000
0000
0001
0000
0000
0001
0000
0000
0011
0000
0000
0000
0000
0000
1000
0000
0001
1000
0000
0001
,  // measure 17
1000
0100
0010
0001
1000
0010
0100
0001
,  // measure 18
0010
0000
0000
0100
0000
0000
1000
0000
0000
0001
0000
0000
0100
0000
0000
0010
0000
0000
1000
0000
0000
0001
0000
0010
,  // measure 19
0001
0100
0001
0100
0010
1000
0010
1000
0100
0000
1000
0001
0100
0000
0001
1000
,  // measure 20
0010
0000
0000
0010
0000
0000
0010
0000
0000
0010
0000
0000
1001
0000
0000
0000
0000
0000
1000
0000
0100
0000
1000
0000
,  // measure 21
0002
0013
2100
3020
,  // measure 22
0230
0000
0000
0301
0000
1000
0010
0000
0000
1000
0001
0100
,  // measure 23
0020
1030
2010
3002
,  // measure 24
0203
0000
0000
0310
0000
1000
0100
0000
0000
0010
0001
1000
,  // measure 25
0001
0000
0000
0000
0010
0000
0000
0000
0100
0000
0000
0000
1000
0000
0000
0000
0001
0000
0000
0000
0100
0000
0000
0000
0010
0000
0000
0000
1000
0000
0000
0100
,  // measure 26
1000
0000
0010
0000
0100
0000
0001
0000
0010
0000
0100
0000
1000
0001
1000
0001
,  // measure 27
1000
0000
0000
0000
0001
0000
0000
0000
0010
0000
0000
0000
0100
0000
0000
0000
0010
0000
0000
0000
0001
0000
0000
0000
1000
0000
0000
0000
0100
0000
0000
1000
,  // measure 28
0001
0100
0010
1000
1100
0101
0110
0000
,  // measure 29
1000
0000
1000
0000
1000
0000
0001
0000
0001
0000
0001
0000
0100
0000
0100
0000
0100
0000
0100
0000
0100
0000
0000
0020
,  // measure 30
0000
0000
1030
0100
0000
0020
0000
0000
0031
0100
0000
0020
0000
0000
1030
0100
0000
0020
0000
0000
0031
0100
0000
0020
,  // measure 31
0000
0000
1030
0010
0000
0100
0010
0000
0100
0000
0000
0001
0000
0000
1000
0000
0000
0001
1000
0000
0100
1000
0000
0010
,  // measure 32
0100
0000
0001
0100
0000
0001
0010
0000
0100
0000
0000
1000
0001
0000
0000
1001
0000
0000
0011
0000
0000
1000
0000
0100
,  // measure 33
1000
0000
0001
0010
0000
0001
0100
0000
0001
0000
0000
1000
0000
0000
0010
0000
0000
1000
0100
0000
0010
0001
0000
0200
,  // measure 34
0000
0000
0000
0010
0000
0000
0310
0000
0100
0000
0000
0002
0000
0000
0000
1000
0000
0000
1003
0000
0010
0000
0000
0000
,  // measure 35
1000
0000
0001
0010
0000
0100
1000
0000
0010
0000
0000
1001
0000
0000
0110
0000
0000
0010
1000
0000
0100
1000
0000
0001
,  // measure 36
0010
0000
0001
0100
0000
0001
1000
0000
0100
0000
0000
1000
0010
0000
0000
1010
0000
0000
0000
0000
0000
0101
0000
0000
,  // measure 37
1000
0000
0001
0010
0000
0100
1000
0000
0001
0100
0000
0010
0000
0000
1100
0000
0000
0011
0000
0000
0000
0000
0000
0020
,  // measure 38
0000
0000
1030
0100
0000
0020
0000
0000
0031
0100
0000
0020
0000
0000
1030
0100
0000
0020
0000
0000
0031
0100
0000
0020
,  // measure 39
0000
0000
0030
0000
0000
0000
0000
0000
0000
0000
0000
1001
0000
0000
0000
0000
0000
0000
0000
0000
0000
0202
0000
0000
,  // measure 40
0300
0000
0000
1000
0000
0000
1003
0000
0001
0000
0000
0100
0001
0000
0010
0001
0000
0010
0100
0000
1000
0001
0000
0000
,  // measure 41
0010
0000
0001
0010
0000
0001
0100
0000
0010
0000
0000
1100
0000
0000
1010
0000
0000
1000
0100
0000
0010
0001
0000
0200
,  // measure 42
0000
0000
0000
0001
0000
0000
0301
0000
1000
0000
0000
0020
0000
0000
0000
0100
0000
0000
0130
0000
0010
0000
0000
0000
,  // measure 43
1000
0000
0001
0010
0000
0001
0010
0000
0100
0000
0000
1000
0000
0000
0010
0000
0000
0100
0001
0000
1000
0001
0000
0100
,  // measure 44
0000
0000
0010
1000
0000
0010
1000
0000
0100
0010
0000
0001
0100
0000
0000
0000
0000
0001
1000
0000
0001
0010
0000
0100
,  // measure 45
0000
0000
1000
0100
0000
1000
0100
0000
1000
0001
0000
0100
0001
0000
0010
0100
0000
1000
0000
0000
0000
0001
1000
0001
,  // measure 46
1000
0010
0001
1000
0100
0001
1000
0010
0001
1000
0100
0001
,  // measure 47
1000
1000
0000
0011
0000
0000
0001
0001
0000
0110
0000
0000
,  // measure 48
0100
0100
0000
1010
0000
0000
0010
0010
0000
1001
0000
0000
,  // measure 49
1000
1100
1000
0101
0001
0011
0100
0110
,  // measure 50
0001
0001
1000
1000
0010
0010
0100
0100
,  // measure 51
0110
1010
0101
0001
0011
1001
1100
0010
,  // measure 52
0100
0000
0100
0000
0001
1000
0001
0000
1000
0100
0010
0001
0100
0010
1000
0000
,  // measure 53
0002
0000
0103
0000
2000
0000
3010
0100
,  // measure 54
0020
0000
1030
0001
0200
0000
0301
0000
,  // measure 55
0020
0000
0031
0000
0200
0000
0301
1000
,  // measure 56
0002
0000
0013
0100
2000
0000
3010
0000
,  // measure 57
2000
0000
3001
0000
0200
0000
0310
0100
,  // measure 58
0002
0000
1003
0001
0020
0000
0130
0000
,  // measure 59
0000
2002
0000
0000
,  // measure 60
0000
0000
0000
0000
,  // measure 61
0000
0000
3003
0000
;

//---------------dance-single - ----------------
#NOTEDATA:;
#CHARTNAME:;
#STEPSTYPE:dance-single;
#DESCRIPTION:;
#CHARTSTYLE:;
#DIFFICULTY:Medium;
#METER:10;
#RADARVALUES:0.440856,0.478247,0.212827,0.278312,0.331519,377.000000,351.000000,26.000000,34.000000,0.000000,0.000000,0.000000,0.000000,0.000000,0.440856,0.478247,0.212827,0.278312,0.331519,377.000000,351.000000,26.000000,34.000000,0.000000,0.000000,0.000000,0.000000,0.000000;
#CREDIT:;
#DISPLAYBPM:99.000000:123.000000;
#NOTES:
0000
0000
0000
0000
,
0000
0000
0000
0000
,
0000
0000
0000
0000
,
0010
0100
0010
0100
0001
1000
0001
1000
,
0001
0010
0100
1000
0010
0100
0001
0000
,
1000
0100
0000
0000
0000
0000
0001
0100
0000
0000
0000
0000
,
1000
0010
0000
0000
0000
0000
0001
0010
0000
1001
0000
0000
,
1000
0010
1000
0010
0100
0001
0100
0001
,
1000
0001
1000
0001
1000
0001
0100
0000
0000
0000
0000
0000
,
0010
0000
0000
0100
0000
0000
0010
0000
1000
0000
0000
0000
0000
0000
0001
0100
0000
0000
0001
0000
0000
0000
0000
0000
,
1000
0000
0000
0010
0000
0000
1000
0000
0100
0000
0000
0000
0000
0000
0010
0001
0000
0000
0100
0000
0000
0100
0000
0000
,
0010
0000
0000
1000
0000
0000
0001
0000
0010
0000
0000
0000
0000
0000
0100
1000
0000
0000
0010
0000
0000
0000
0000
0000
,
0001
0000
0000
0010
0000
0000
0100
0000
0000
1000
0000
0000
0010
0000
0100
0000
0000
0000
0001
0000
1000
0000
0000
0000
,
0010
0000
0000
1000
0000
0000
0100
0000
0010
0000
0000
0000
0000
0000
0001
0100
0000
0000
0001
0000
0000
0000
0000
0000
,
1000
0000
0000
0010
0000
0000
1000
0000
0001
0000
0000
0000
0000
0000
0100
0001
0000
0000
0010
0000
0000
0010
0000
0000
,
0001
1000
0100
1000
0010
0100
0001
0010
,
0001
0001
0001
0001
0011
0000
1100
0000
,
0001
0100
1000
0000
0001
0010
1000
0000
,
0010
1000
0100
0000
0010
0001
0100
0000
,
0001
0010
0100
1000
0010
1000
0001
0100
,
0010
0000
0000
0010
0000
0000
0010
0000
0000
0010
0000
0000
0110
0000
0000
0000
0000
0000
1000
0000
0001
0000
1000
0000
,
0002
0003
0101
1010
,
0200
0000
0000
0000
0000
0000
0310
0000
0000
1000
0010
1000
,
0020
0030
0110
1001
,
2000
0000
0000
0000
0000
0000
3001
0000
0000
0100
0010
0100
,
0020
1030
2100
3002
,
0203
0000
0000
0310
0000
0100
0001
0000
0000
1000
0100
1000
,
0200
1300
0102
0013
,
0011
0000
1010
0000
0100
0100
0100
0000
,
1000
0000
0000
0000
1000
0000
0001
0000
0000
0000
0001
0000
0100
0000
0010
0000
0100
0000
0010
0000
0000
0000
0000
1010
,
0000
0000
0000
0000
0000
0101
0000
0000
0000
0000
0000
0011
0000
0000
0000
0000
0000
1100
0000
0000
0000
0000
0000
0020
,
0000
0000
0000
0100
0000
0000
0130
0000
0000
0000
0000
0001
0000
0000
0010
0000
0000
0100
1000
0000
0000
0000
0000
0000
,
0001
0000
0000
1000
0000
0000
1000
0000
0000
0000
0000
0010
0100
0000
0010
0100
0000
0000
0001
0000
0000
0000
0000
0000
,
1000
0000
0000
0100
0000
0000
0100
0000
0000
0000
0000
1000
0000
0000
0001
0000
0000
0100
0010
0000
0000
0000
0000
2000
,
0000
0000
0000
0100
0000
0000
3100
0000
0000
0000
0000
0002
0000
0000
0000
0100
0000
0000
0103
0000
0000
0000
0000
2000
,
0000
0000
0000
0010
0000
0000
3010
0000
0000
0000
0000
1000
0000
0000
0001
0000
0000
1000
0100
0000
0000
0000
0000
0000
,
0001
0000
0000
0100
0000
0000
0010
0000
0000
0000
1000
0000
0000
0000
0000
1001
0000
0000
0000
0000
0000
0110
0000
0000
,
1000
0000
0000
0010
0000
0000
0010
0000
0000
0000
0000
0100
0000
0000
0001
0000
0000
0100
0000
0000
0000
0000
0000
0101
,
0000
0000
0000
0000
0000
1100
0000
0000
0000
0000
0000
0011
0000
0000
0000
0000
0000
1010
0000
0000
0000
0000
0000
0020
,
0000
0000
0000
0030
0000
0000
0000
0000
0000
0000
0000
1001
0000
0000
0000
0000
0000
0000
0000
0000
0000
0210
0000
0000
,
0000
0000
0000
0001
0000
0000
0301
0000
0000
0000
0000
1000
0100
0000
1000
0100
0000
0000
0010
0000
0000
0000
0000
0000
,
0001
0000
0000
0001
0000
0000
0010
0000
0000
0010
0000
0000
0100
0000
0000
0100
0000
0000
1000
0000
0001
0000
0000
2000
,
0000
0000
0000
0010
0000
0000
3010
0000
0000
0000
0000
0002
0000
0000
0000
0010
0000
0000
0013
0000
0000
0000
0000
0200
,
0000
0000
0000
0010
0000
0000
0310
0000
0000
0010
0000
0000
1000
0000
0000
1000
0000
0000
0001
0000
0100
0000
0000
0001
,
0000
0000
0000
1000
0000
0000
1000
0000
0000
1000
0000
0000
0001
0000
0000
0001
0000
0000
0100
0000
0010
0000
0000
0100
,
0000
0000
0000
0001
0000
0000
0001
0000
0000
0001
0000
0000
0100
0000
0000
0010
0000
0000
1000
0000
0020
0000
0000
0000
,
1030
0010
0000
0100
0001
0000
1000
0100
0000
0010
0001
0000
,
1000
0100
0000
0000
0000
0000
0001
0100
0000
0000
0000
0000
,
1000
0010
0000
0000
0000
0000
0001
0010
0000
1001
0000
0000
,
1000
0100
1000
0010
1000
0001
1000
0100
,
0001
0010
0100
1000
0010
1000
0001
0100
,
1000
1000
0100
0100
0010
0010
0001
0001
,
0100
0010
0100
0010
1000
0001
1000
0001
,
0100
0000
0002
0000
2003
0000
3010
0100
,
0020
0000
1030
0010
0200
0000
0301
0000
,
0000
0000
0020
0000
0032
0000
0103
0001
,
2000
0000
3010
1000
0200
0000
0310
0000
,
0000
0000
0002
0000
0203
0000
0301
1000
,
0020
0000
1030
0100
2000
0000
3001
0000
,
0000
2002
0000
0000
,
0000
0000
0000
0000
,
0000
0000
3003
0000
;

//---------------dance-single - ----------------
#NOTEDATA:;
#CHARTNAME:;
#STEPSTYPE:dance-single;
#DESCRIPTION:;
#CHARTSTYLE:;
#DIFFICULTY:Easy;
#METER:7;
#RADARVALUES:0.306377,0.402734,0.343797,0.278312,0.045021,262.000000,220.000000,42.000000,34.000000,0.000000,0.000000,0.000000,0.000000,0.000000,0.306377,0.402734,0.343797,0.278312,0.045021,262.000000,220.000000,42.000000,34.000000,0.000000,0.000000,0.000000,0.000000,0.000000;
#CREDIT:;
#DISPLAYBPM:99.000000:123.000000;
#NOTES:
0000
0000
0000
0000
,
0000
0000
0000
0000
,
0000
0000
0000
0000
,
0010
0010
1000
1000
,
0001
0001
0100
0100
,
0101
0000
1100
0000
,
0011
0000
1010
1001
,
0001
0001
1000
1000
,
0010
0100
0110
0000
,
0001
0100
1000
1100
,
0010
1000
0001
0101
,
0100
0010
0100
0101
,
0010
0010
1001
1001
,
0100
0001
1000
1010
,
0010
1000
0100
0011
,
0001
0010
1000
1001
,
0001
0001
0001
0001
0001
0000
0000
0000
,
0010
1000
0001
0100
,
0001
0010
0100
1000
,
0010
0100
0010
0100
0010
0000
1000
0000
,
0001
0001
0001
0001
0001
0000
0100
0000
,
2002
3000
0010
0100
,
0020
0000
0033
0100
,
0220
0300
1000
0001
,
2000
0000
3030
0100
,
2002
0003
0100
0001
,
0200
0000
3300
0100
,
0220
0030
1000
0010
,
0002
0000
0303
0000
,
1000
0000
0000
0000
0000
0000
0001
0000
0000
0000
0000
0000
0100
0000
0000
0000
0000
0000
0010
0000
0000
0000
0000
2000
,
0000
0000
0000
0000
0000
3002
0000
0000
0000
0000
0000
2003
0000
0000
0000
0000
0000
3002
0000
0000
0000
0000
0000
0013
,
0000
0000
1001
0000
0001
1000
0100
0000
,
1000
0000
1100
0000
0010
0100
0001
0000
,
0010
0000
0101
0000
1000
0100
0001
0000
,
1010
0001
0011
1000
,
0010
0000
0110
0000
0100
0001
1000
0000
,
0001
0000
0110
0000
1000
0010
0100
0000
,
1000
0000
0000
0000
0000
0000
1010
0000
0000
0000
0000
0000
0100
0000
0000
0010
0000
0000
0001
0000
0000
0000
0000
2000
,
0000
0000
0000
0000
0000
3002
0000
0000
0000
0000
0000
2003
0000
0000
0000
0000
0000
3002
0000
0000
0000
0000
0000
0013
,
0000
0000
0000
0000
0000
0000
0000
0000
0000
0000
0000
1001
0000
0000
0000
0000
0000
0000
0000
0000
0000
0110
0000
0000
,
0000
0000
1001
0000
1000
0100
0010
0000
,
0010
0000
1100
0000
0001
0100
1000
0000
,
0101
1000
1100
0001
,
0010
0100
0010
0000
1000
0001
1000
0000
,
0001
0100
0001
0000
1000
0100
1000
0000
,
0001
0010
0001
0000
1000
0010
1000
0000
,
1100
0101
1100
0101
,
0011
0000
1100
0000
,
1010
0000
0101
1001
,
0010
0010
0100
0100
,
0001
0001
1000
1000
,
0001
0100
0001
0000
1000
0100
1000
0000
,
0001
0010
0001
0000
1000
0010
1000
0000
,
0020
0000
0200
0330
,
0002
0013
2000
3010
,
0002
0000
2000
3003
,
0020
1030
0200
0301
,
2000
0000
0200
3300
,
0002
0103
0020
1030
,
0000
2002
0000
0000
,
0000
0000
0000
0000
,
0000
0000
3003
0000
;

//---------------dance-single - ----------------
#NOTEDATA:;
#CHARTNAME:;
#STEPSTYPE:dance-single;
#DESCRIPTION:;
#CHARTSTYLE:;
#DIFFICULTY:Beginner;
#METER:2;
#RADARVALUES:0.141495,0.201367,0.040928,0.081857,0.000000,121.000000,116.000000,5.000000,10.000000,0.000000,0.000000,0.000000,0.000000,0.000000,0.141495,0.201367,0.040928,0.081857,0.000000,121.000000,116.000000,5.000000,10.000000,0.000000,0.000000,0.000000,0.000000,0.000000;
#CREDIT:;
#DISPLAYBPM:99.000000:123.000000;
#NOTES:
0000
0000
0000
0000
,
0000
0000
0000
0000
,
0000
0000
0000
0000
,
0010
0000
0100
0000
,
0001
0000
1000
0000
,
0001
0000
0010
0000
,
0100
0000
1000
0000
,
0001
0000
1000
0000
,
0010
0000
0100
0000
,
0000
0001
0000
1000
,
0000
0001
0000
1000
,
0000
0010
0000
0100
,
0100
0000
0010
0010
,
0000
1000
0000
0100
,
0000
1000
0000
0001
,
0001
0000
0100
0000
,
0010
0010
0010
0000
,
1000
0000
0001
0000
,
0100
0000
0010
0000
,
1000
1000
1000
0000
,
0001
0001
0001
0000
,
0200
0000
0300
0000
,
0020
0000
0030
0000
,
0200
0000
0300
0000
,
0020
0000
0030
0000
,
2000
0000
3000
0000
,
0002
0000
0003
0000
,
2000
0000
3000
0000
,
0002
0000
0003
0000
,
0000
0000
0000
0000
,
1000
0000
1000
0000
,
0010
0010
0010
0000
,
0100
0100
0100
0000
,
0001
0001
0001
0000
,
1001
0000
0110
0000
,
1000
1000
1000
0000
,
0010
0010
0010
0000
,
0001
0001
0001
0000
,
0100
0000
0100
0000
,
1000
0000
0000
0000
,
0000
0010
0010
0000
,
1000
1000
1000
0000
,
1001
0000
0110
0000
,
0010
0010
0010
0000
,
0100
0100
0100
0000
,
1000
1000
1000
0000
,
0001
0000
1000
0000
,
0001
0000
0010
0000
,
0100
0000
1000
0000
,
0010
0000
1000
0000
,
0100
0000
0001
0000
,
1000
0000
0001
0000
,
0100
0100
0100
0100
,
0100
0000
0010
0000
,
1000
0000
1000
0000
,
0000
0000
0001
0000
,
0100
0000
0100
0000
,
0000
0000
0010
0000
,
0100
0000
0100
0000
,
0000
2002
0000
0000
,
0000
0000
0000
0000
,
0000
0000
3003
0000
;
