#VERSION:0.83;
#TITLE:redraw lots;
#SUBTITLE:;
#ARTIST:MARON-CHAN;
#TITLETRANSLIT:;
#SUBTITLETRANSLIT:;
#ARTISTTRANSLIT:;
#GENRE:;
#ORIGIN:;
#CREDIT:;
#BANNER:redraw lots-bn.png;
#BACKGROUND:redraw lots-bg.png;
#PREVIEWVID:;
#JACKET:redraw lots-jacket.png;
#CDIMAGE:;
#DISCIMAGE:;
#LYRICSPATH:;
#CDTITLE:;
#MUSIC:redraw lots.ogg;
#OFFSET:0.150000;
#SAMPLESTART:14.517000;
#SAMPLELENGTH:20.000000;
#SELECTABLE:YES;
#DISPLAYBPM:70.000000:180.000000;
#BPMS:0.000=180.000,
157.000=178.000,
158.000=175.000,
160.000=171.000,
161.000=166.000,
162.000=160.000,
163.000=150.000,
164.000=140.000,
165.000=130.000,
166.000=120.000,
167.000=110.000,
168.000=100.000,
169.000=90.000,
170.000=80.000,
171.000=70.000,
172.000=180.000,
284.000=178.000,
285.000=174.000,
286.000=169.000,
287.000=163.000,
288.000=156.000,
289.000=148.000,
290.000=139.000,
291.000=129.000,
292.000=118.000,
293.000=106.000,
294.000=93.000,
295.000=89.000;
#STOPS:;
#DELAYS:;
#WARPS:;
#TIMESIGNATURES:0.000=4=4;
#TICKCOUNTS:0.000=4;
#COMBOS:0.000=1;
#SPEEDS:0.000=1.000=0.000=0;
#SCROLLS:0.000=1.000;
#FAKES:;
#LABELS:0.000=Song Start;
#BGCHANGES:;
#KEYSOUNDS:;
#ATTACKS:
;

//---------------dance-single - ----------------
#NOTEDATA:;
#CHARTNAME:;
#STEPSTYPE:dance-single;
#DESCRIPTION:;
#CHARTSTYLE:;
#DIFFICULTY:Challenge;
#METER:16;
#RADARVALUES:0.949976,1.049973,0.889166,0.179725,0.524987,703.000000,609.000000,94.000000,19.000000,0.000000,0.000000,0.000000,0.000000,0.000000,0.949976,1.049973,0.889166,0.179725,0.524987,703.000000,609.000000,94.000000,19.000000,0.000000,0.000000,0.000000,0.000000,0.000000;
#CREDIT:;
#DISPLAYBPM:70.000000:180.000000;
#NOTES:
// measure 0
0000
0000
0000
0000
,  // measure 1
0000
0000
0000
0000
,  // measure 2
0000
0000
0000
0000
,  // measure 3
0011
0001
0100
0001
0010
0001
0100
0001
,  // measure 4
1001
1001
0110
0110
,  // measure 5
1010
1000
0100
1000
0010
1000
0100
1000
,  // measure 6
1001
1001
0110
0110
,  // measure 7
0101
0100
1000
0100
0001
0100
1000
0100
,  // measure 8
0110
0110
1001
1001
,  // measure 9
1010
0010
0001
0010
1000
0010
0001
0010
,  // measure 10
0110
0110
1001
1001
,  // measure 11
0110
0100
0001
0010
1000
1001
0001
1000
,  // measure 12
1100
0110
0011
0110
,  // measure 13
1001
1000
0001
0100
0010
0101
0001
0100
,  // measure 14
0101
0011
0102
1003
,  // measure 15
0011
0001
0100
1000
0010
0101
0100
0010
,  // measure 16
1010
1100
0011
0101
,  // measure 17
1010
1000
0001
0100
0010
1001
0010
0001
,  // measure 18
0101
0000
1100
0000
1002
0100
0103
0100
,  // measure 19
0101
0000
0001
1000
0001
0000
0100
0010
0100
0000
0010
1000
0010
0000
1000
0100
,  // measure 20
1000
1000
0100
0100
0001
0100
1001
0000
,  // measure 21
0110
0000
0010
1000
0010
0000
0100
0001
0100
0000
0001
0010
0001
0000
1000
0100
,  // measure 22
1000
1000
0010
0010
0100
0010
1001
0000
,  // measure 23
0101
0000
0001
0010
1000
0000
0100
0000
0010
0000
0011
0000
1000
0000
0001
0000
,  // measure 24
0010
0001
0100
0000
0010
1000
0100
0000
0010
0001
1000
0000
1100
0000
0000
0000
,  // measure 25
0010
0100
1000
0000
0001
1000
0001
0000
0100
0000
0001
0100
0010
0000
1000
0000
,  // measure 26
0001
0010
0100
0010
0002
0000
0000
0000
1003
0100
0010
0100
1000
0000
0000
0000
,  // measure 27
1001
0000
0010
0001
0100
0000
1000
0000
0010
0000
1100
0000
0010
0000
0100
0000
,  // measure 28
0001
0100
0010
0000
1000
0100
0010
0000
1000
0001
0100
0000
1010
0000
0000
0000
,  // measure 29
0001
0100
1000
0000
0010
1000
0010
0000
0100
0000
0001
1000
0100
0000
0010
0000
,  // measure 30
1000
0001
0100
0001
0010
0001
1000
0010
0100
0000
0010
0000
1010
0000
0000
0000
,  // measure 31
0110
0000
0001
0010
0001
0000
1000
0010
1000
0000
0001
0100
0001
0000
1000
0100
,  // measure 32
1000
0000
0010
0100
0001
0000
0010
0100
1000
0000
0001
1000
0010
0000
0000
0000
,  // measure 33
0110
0000
0100
0001
0100
0000
0010
1000
0010
0000
0100
1000
0100
0000
0010
0001
,  // measure 34
0010
0000
0001
0100
0010
0000
0100
0010
1000
0000
0100
1000
0001
0000
0000
0000
,  // measure 35
0001
0001
0001
1000
1000
0010
0100
0100
,  // measure 36
0010
0000
0100
0000
0001
0000
0100
0000
0001
0010
1000
0010
0002
0000
1003
0000
,  // measure 37
0010
0010
0010
0100
0001
0001
0001
1000
,  // measure 38
0110
0100
0101
0000
1001
0010
0011
0000
,  // measure 39
0010
0100
0101
0100
1000
0010
1010
0010
,  // measure 40
0100
1000
1001
1000
0010
0001
0011
0001
,  // measure 41
0010
1000
0110
0001
1000
0100
1100
0010
,  // measure 42
1010
0110
1001
0011
0110
1100
1010
0101
,  // measure 43
1001
0100
1001
0100
0010
0110
1001
0000
,  // measure 44
0001
0001
0010
0010
0100
0100
1000
1000
,  // measure 45
0100
0000
1000
0000
0100
0000
1000
0000
0010
1000
0010
0100
0010
0001
0010
0000
,  // measure 46
1000
0000
0010
0000
1000
0000
0001
0000
1000
0000
0100
0000
0001
0010
0100
1000
,  // measure 47
0010
0000
0101
0000
1100
0001
0100
0000
,  // measure 48
1001
0000
0000
0000
0101
0000
0000
0000
0011
0000
0010
0001
0010
0001
0010
0001
,  // measure 49
0010
0001
0010
0000
0020
0000
0000
0000
0130
1000
0100
0000
0200
0000
0000
0000
,  // measure 50
0310
0000
1000
0100
1000
0000
0001
0100
0001
0000
0010
0000
1100
0000
0000
0000
,  // measure 51
1002
0000
0100
0000
0103
0000
0100
0010
2000
0000
0001
0000
3001
0000
0000
0000
,  // measure 52
0100
1000
0100
0001
0110
0010
0110
0000
,  // measure 53
0020
0000
0130
1000
0001
0000
0010
0000
2000
0000
3010
1000
0001
0000
0100
0000
,  // measure 54
0001
0000
1000
0000
0010
0000
0100
0000
1000
0000
0010
0001
1000
0001
0010
0000
,  // measure 55
0100
0000
0001
0100
1000
0000
0001
0010
1000
0000
0010
0100
1000
0000
0010
0100
,  // measure 56
0001
0000
1000
0010
1000
0000
0001
0010
0001
0000
0100
0010
0100
0000
0000
0000
,  // measure 57
0100
1000
0100
0000
0200
0000
0000
0000
0310
0001
0010
0000
0020
0000
0000
0000
,  // measure 58
0031
0000
0100
0010
0100
0000
0001
1000
0001
0000
0010
0000
0011
0000
0000
0000
,  // measure 59
0210
0000
0010
0000
0310
0000
0001
0100
0020
0000
1000
0000
1030
0000
0000
0000
,  // measure 60
1000
0100
0010
0001
1001
1000
1001
0000
,  // measure 61
0200
0000
0310
1000
0100
0000
0001
0000
2000
0000
3001
0100
0010
0000
1000
0000
,  // measure 62
0010
0000
0100
0000
0001
0000
1000
0000
0010
0000
0001
1000
0100
1000
0001
0000
,  // measure 63
0010
0000
0100
0001
0010
0000
0100
0010
1000
0000
0001
0100
1000
0000
0010
0001
,  // measure 64
1000
0100
1000
0100
0010
0001
0010
0001
1000
0010
0100
0001
0010
0100
0001
1000
,  // measure 65
0001
0100
0001
0100
0001
0000
0100
0000
1000
0010
1000
0010
1000
0000
0010
0000
,  // measure 66
0100
0010
0100
0000
0001
0000
0010
0100
0010
0000
0100
0000
1000
0001
1000
0000
,  // measure 67
0100
1000
0100
1000
0100
0000
1000
0000
0010
0001
0010
0001
0010
0000
0001
0000
,  // measure 68
0100
1000
0100
0000
0010
0000
0001
1000
0001
0000
0010
0000
0100
0010
0100
0000
,  // measure 69
0010
1000
0100
1000
0010
0000
1000
0000
0100
0001
0010
0001
0100
0000
0010
0000
,  // measure 70
1000
0100
1000
0000
0010
0000
0100
0001
0010
0000
0001
0000
0100
0000
0000
0000
,  // measure 71
1002
0100
0010
1003
,  // measure 72
2001
0010
0100
3001
,  // measure 73
1002
0100
0010
1003
,  // measure 74
1001
0000
0000
0000
;

//---------------dance-single - ----------------
#NOTEDATA:;
#CHARTNAME:;
#STEPSTYPE:dance-single;
#DESCRIPTION:;
#CHARTSTYLE:;
#DIFFICULTY:Hard;
#METER:13;
#RADARVALUES:0.740521,0.839978,0.851329,0.605390,0.052026,548.000000,458.000000,90.000000,64.000000,0.000000,0.000000,0.000000,0.000000,0.000000,0.740521,0.839978,0.851329,0.605390,0.052026,548.000000,458.000000,90.000000,64.000000,0.000000,0.000000,0.000000,0.000000,0.000000;
#CREDIT:;
#DISPLAYBPM:70.000000:180.000000;
#NOTES:
0000
0000
0000
0000
,
0000
0000
0000
0000
,
0000
0000
0000
0000
,
0010
0001
0100
0001
0010
0001
0100
0001
,
1001
1001
0110
0110
,
0010
1000
0100
1000
0010
1000
0100
1000
,
1001
1001
0110
0110
,
1000
0010
0001
0010
1000
0010
0001
0010
,
0110
0110
1001
1001
,
0001
0100
1000
0100
0001
0100
1000
0100
,
0110
0110
1001
1001
,
0001
0001
0200
0000
0310
0020
0000
1030
,
2100
3001
0102
1003
,
0010
0010
0200
0000
0301
0002
0000
1003
,
1001
0120
2000
3030
,
1000
0001
2000
0000
3010
0002
0000
0103
,
0210
0301
1020
0130
,
0010
0100
0020
0000
1030
2000
0000
3001
,
0012
0000
0203
0000
0301
1000
0001
0100
,
0010
0010
0100
0100
1000
0001
1000
0001
,
0101
1100
0101
1100
,
0010
0010
0100
0100
1000
0001
1000
0001
,
1100
0101
1100
0101
,
1001
0100
0020
0000
0130
0200
0000
0301
,
0102
0000
0013
0000
2010
0001
3001
0000
,
1100
1100
0001
0100
0000
0100
0010
1000
,
0001
1000
0110
0000
1000
0001
0110
0000
,
1010
0100
0002
0000
1003
0020
0000
1030
,
2010
0000
3001
0000
0201
1000
1300
0000
,
0101
0101
0010
0100
0000
0100
0001
0010
,
0001
0000
1000
0100
1000
0000
0010
0000
0100
0000
0001
0000
1001
0000
0000
0000
,
0001
0001
0010
0010
0100
0100
1000
1000
,
0020
0100
0230
0001
0302
1000
2003
0000
,
3010
0010
0100
0100
0001
0001
1000
1000
,
0002
1000
2003
0100
3200
0010
0320
0000
,
0031
0100
0001
0100
0010
1000
0010
1000
,
0001
0000
1000
0000
0001
0000
0100
0000
0010
1000
0010
1000
0010
0000
0100
0000
,
0001
0010
0001
0010
0100
1000
0100
1000
,
0001
0001
0001
0000
1000
1000
1000
0000
,
0010
0001
0100
0001
0100
1000
0010
1000
,
0001
1000
0001
0100
0010
0100
0010
1000
,
0100
0010
0110
0010
0001
1000
1001
0001
,
0101
0000
1010
0000
0110
1100
0011
1001
,
0110
0000
0110
0000
1000
0110
0110
0000
,
0001
0100
0010
0100
0010
1000
0001
1000
,
0010
0000
0010
0000
0100
0000
0100
0000
0001
1000
0001
1000
0001
0000
0100
0000
,
0001
0001
0010
0010
0100
0100
1000
1000
,
1100
0000
0101
0000
1100
0001
0100
0000
,
1010
0000
0011
0000
1010
0001
0010
0000
,
0001
1000
1200
0000
0310
0100
2100
0000
,
3001
0000
0000
1000
0001
0000
0100
0000
0002
0000
0010
0000
0023
0000
0000
0000
,
0032
0000
0000
0000
0013
0000
0100
1000
0200
0000
0010
0000
0310
0000
0000
0000
,
1000
0001
0100
0010
1010
0000
1001
0000
,
1020
0000
0130
0010
2100
0000
3001
1000
,
0001
0000
0001
0000
0100
0000
0100
0000
0010
0000
1000
0001
1000
0000
0010
0000
,
1000
0100
0001
0010
0100
0001
0010
1000
,
0001
1000
0010
0001
0100
0010
1000
0000
,
1000
0001
1020
0000
0130
0010
2100
0000
,
3010
0000
0000
1000
0010
0000
0100
0000
0002
0000
0100
0000
0203
0000
0000
0000
,
2300
0000
0000
0000
3100
0000
0001
1000
0002
0000
0010
0000
0013
0000
0000
0000
,
0001
0100
1000
0010
0011
0000
1001
0000
,
1020
0000
1030
0100
0201
0000
0310
0001
,
0100
0000
0100
0000
0010
0000
0010
0000
1000
0000
0001
0100
0001
0000
1000
0000
,
0001
1000
0100
0010
1000
0100
0010
0001
,
0100
0001
0010
0100
1000
0010
0001
1000
,
1002
0100
0103
0000
2001
0100
3100
0000
,
0001
0100
0120
0000
1030
1200
0010
0300
,
2001
0010
3010
0000
1002
0010
0013
0000
,
0001
0100
0210
0000
0310
1020
1000
0030
,
2100
0001
3001
0000
0201
1000
1300
0000
,
0001
0010
1002
0000
1003
0120
0100
0030
,
2001
0001
0001
3001
,
1002
1000
1000
1003
,
0201
0320
0001
1030
,
1001
0000
0000
0000
;

//---------------dance-single - ----------------
#NOTEDATA:;
#CHARTNAME:;
#STEPSTYPE:dance-single;
#DESCRIPTION:;
#CHARTSTYLE:;
#DIFFICULTY:Medium;
#METER:10;
#RADARVALUES:0.536473,0.559986,0.529716,0.756737,0.000000,397.000000,341.000000,56.000000,80.000000,0.000000,0.000000,0.000000,0.000000,0.000000,0.536473,0.559986,0.529716,0.756737,0.000000,397.000000,341.000000,56.000000,80.000000,0.000000,0.000000,0.000000,0.000000,0.000000;
#CREDIT:;
#DISPLAYBPM:70.000000:180.000000;
#NOTES:
0000
0000
0000
0000
,
0000
0000
0000
0000
,
0000
0000
0000
0000
,
1000
0001
0100
0000
1000
0001
0100
0000
,
0002
0023
0230
2300
,
3001
1000
0100
0000
0001
1000
0100
0000
,
2000
3200
0320
0032
,
1003
0001
0010
0000
1000
0001
0010
0000
,
0002
0203
0320
2030
,
3001
1000
0010
0000
0001
1000
0010
0000
,
2000
3020
0230
0302
,
1003
0001
1000
0000
1001
0000
0000
0001
,
0200
0320
2030
3002
,
0103
0010
0100
0000
0110
0000
0000
0020
,
2000
0030
0000
3002
0000
0000
0200
0000
0000
0303
0000
0000
,
0001
1000
0001
0000
1001
0000
0000
0100
,
0002
2003
3020
0230
,
0310
0100
0010
0000
0110
0000
0000
0200
,
0002
0000
0300
0000
0000
0000
2003
0000
0000
0000
0000
0000
3010
0000
0000
0100
0000
0000
0020
0000
0000
0000
0000
0000
,
1030
0100
0001
0000
1000
0010
0001
0000
,
0101
0101
1100
1100
,
0001
0100
1000
0000
0001
0010
1000
0000
,
1010
1010
0011
0011
,
0100
0010
1000
0000
0001
0200
0000
0301
,
0020
2030
0002
3003
,
1000
1000
0000
0201
0000
0301
0001
0100
,
0010
0000
0000
0100
0000
0000
0020
0000
0000
0000
0000
0000
1030
0000
0000
0002
0000
0000
2000
0000
0003
0000
0000
0000
,
3010
0100
0001
0000
1000
0002
0000
1003
,
0020
2030
0200
3300
,
0010
0000
0000
0010
0000
0000
0000
0000
0000
2200
0000
0000
0000
0300
0000
3001
0000
0000
0001
0000
0000
1000
0000
0000
,
0001
1000
0100
1000
0002
0000
0023
0000
,
0031
1000
0100
0000
0100
0010
0001
0000
,
0012
1003
2010
3001
,
1000
0010
0200
0000
0310
1000
0001
0000
,
0120
0001
1030
1001
,
0001
0000
0001
0100
1000
0000
1000
0100
,
0010
0000
0010
0000
0001
0100
1000
0000
,
0010
0000
0010
1000
0100
0000
0100
0010
,
0001
0001
0001
0000
1000
1000
1000
0000
,
0010
1100
0010
0101
,
1000
0110
1000
1001
,
0100
0011
0100
1010
,
0002
0000
2003
0000
3010
0020
0130
0200
,
0301
0000
1001
0000
0000
1000
1001
0000
,
0001
0100
0010
0000
0010
0100
1000
0000
,
1000
0001
0010
0000
0001
1000
0100
0000
,
0010
0001
0100
0000
0010
1000
0100
0000
,
1100
1100
0101
0010
,
1010
1010
0011
0100
,
0010
1000
0120
0000
0130
0001
0210
0000
,
0301
0000
0100
0010
2000
0000
3020
0000
,
0032
0000
0000
0100
0200
0000
0303
0000
,
0010
1000
0100
0000
0011
0000
0101
0000
,
0002
0000
0000
1000
2003
0000
0000
0010
,
3010
1000
0100
0000
0010
0001
0100
0000
,
0200
0001
1000
0301
,
0020
0001
1000
0031
,
1000
0100
1100
0000
0001
0100
0101
0000
,
0010
0000
1000
0001
0200
0000
0302
0000
,
2003
0000
0000
0010
0020
0000
3030
0000
,
1000
0100
0001
0000
1010
0000
0011
0000
,
2001
0000
0000
0001
3002
0000
0000
0100
,
0103
0001
1000
0000
0010
0001
1000
0000
,
0210
0320
2030
3002
,
0103
0010
0100
0010
0100
0010
0100
0010
,
1100
0001
1100
0001
,
0100
0010
0110
0000
0000
0110
0000
0000
,
1010
0001
1010
0001
,
0100
0001
0101
0000
0000
0101
0000
0000
,
0011
1000
0011
1000
,
0001
1000
1001
0000
0000
1001
0000
0000
,
2002
0000
0000
3000
,
0203
0010
0010
0010
,
0320
1000
0001
1030
,
0110
0000
0000
0000
;

//---------------dance-single - ----------------
#NOTEDATA:;
#CHARTNAME:;
#STEPSTYPE:dance-single;
#DESCRIPTION:;
#CHARTSTYLE:;
#DIFFICULTY:Easy;
#METER:6;
#RADARVALUES:0.360802,0.454988,0.368909,0.435124,0.000000,267.000000,228.000000,39.000000,46.000000,0.000000,0.000000,0.000000,0.000000,0.000000,0.360802,0.454988,0.368909,0.435124,0.000000,267.000000,228.000000,39.000000,46.000000,0.000000,0.000000,0.000000,0.000000,0.000000;
#CREDIT:;
#DISPLAYBPM:70.000000:180.000000;
#NOTES:
0000
0000
0000
0000
,
0000
0000
0000
0000
,
0000
0000
0000
0000
,
0001
0100
1000
0100
,
0010
0010
0010
0000
,
1000
0100
0001
0100
,
0010
0010
0010
0000
,
0001
0010
1000
0010
,
0100
0100
0100
0000
,
1000
0010
0001
0010
,
0100
0100
0100
0000
,
0001
0100
2000
3000
,
0010
1000
0001
0100
,
0010
1000
0002
0003
,
0100
0100
0200
0300
,
1000
0010
0002
0003
,
0100
0010
1000
0001
,
0010
0100
2000
3000
,
0010
0010
0010
1001
,
0001
0010
0100
1000
,
0010
0010
0010
0010
,
1000
0100
0010
0001
,
0100
0100
0100
0100
,
0001
1000
0020
0030
,
1000
0001
2002
3003
,
0100
0010
0100
0010
,
1000
1100
0001
0101
,
0010
0100
0002
0003
,
0100
0010
0220
0330
,
1000
0001
1000
0001
,
0100
0101
0010
1100
,
1000
0100
1000
0100
,
2000
3200
2300
3200
,
0310
0001
0010
0001
,
0020
0032
0023
0032
,
0103
0000
0100
0000
,
0010
0000
1000
1001
,
0001
0000
0001
0000
,
1000
1100
0001
0101
,
0010
0020
1030
2000
,
3100
0200
0301
0002
,
1003
2000
3001
0002
,
0103
0110
1001
0110
,
1000
0001
0000
1001
,
0010
0000
0010
0000
,
1000
0000
0001
0110
,
1000
0000
1000
0000
,
0010
1001
0110
0000
,
0100
0101
1100
0000
,
0001
0201
0301
0201
,
0301
1000
1001
1001
,
0020
0000
0200
0000
,
0000
0330
0110
0110
,
2000
0000
0002
3003
,
0100
0100
0010
0010
,
2000
0100
0010
3100
,
0002
0100
0010
0103
,
1000
1200
1300
1200
,
1300
0001
1001
1001
,
0200
0000
0020
0000
,
0000
0330
0110
0110
,
0020
0000
2000
3030
,
0001
0001
1000
1000
,
0002
0010
1000
0013
,
2000
0010
0001
3010
,
1001
0000
1001
0000
,
0000
0000
0200
0000
0000
0310
0000
0000
,
1001
0000
1001
0000
,
0000
0000
2000
0000
0000
3001
0000
0000
,
1001
0000
1001
0000
,
0000
0000
0020
0000
0000
0130
0000
0000
,
2002
0000
0000
0000
,
0000
0000
0000
3003
,
0001
0010
0100
1000
,
1001
0000
0000
0000
;

//---------------dance-single - ----------------
#NOTEDATA:;
#CHARTNAME:;
#STEPSTYPE:dance-single;
#DESCRIPTION:;
#CHARTSTYLE:;
#DIFFICULTY:Beginner;
#METER:2;
#RADARVALUES:0.145942,0.244994,0.018918,0.113511,0.000000,108.000000,106.000000,2.000000,12.000000,0.000000,0.000000,0.000000,0.000000,0.000000,0.145942,0.244994,0.018918,0.113511,0.000000,108.000000,106.000000,2.000000,12.000000,0.000000,0.000000,0.000000,0.000000,0.000000;
#CREDIT:;
#DISPLAYBPM:70.000000:180.000000;
#NOTES:
0000
0000
0000
0000
,
0000
0000
0000
0000
,
0000
0000
0000
0000
,
0000
0000
0000
0000
,
0100
0100
0100
0100
,
0000
0000
0000
0000
,
0010
0010
0010
0010
,
0000
0000
0000
0000
,
1000
1000
1000
1000
,
0000
0000
0000
0000
,
0001
0001
0001
0001
,
0000
0000
1000
0000
,
0000
0000
0001
0000
,
0000
0000
0100
0000
,
0000
0010
0020
0030
,
0000
0000
1000
0000
,
0000
0000
0010
0000
,
0000
0000
0100
0000
,
0001
0001
0000
0000
,
0000
0000
0000
0000
,
0100
0100
0100
0100
,
0000
0000
0000
0000
,
0010
0010
0010
0010
,
0000
0000
1000
0000
,
0001
0000
0001
0000
,
0100
0000
0000
0000
,
0010
0000
0010
0000
,
0000
0000
0100
0000
,
0001
0000
0001
0000
,
1000
0000
0000
0000
,
0010
0010
0020
0030
,
0000
0000
0000
0000
,
1000
1000
1000
1000
,
0000
0000
0000
0000
,
0001
0001
0001
0001
,
0001
0000
0000
0000
,
1000
0000
0000
0000
,
0010
0000
0000
0000
,
0100
0000
0100
0000
,
0002
0003
0000
0000
,
2000
3000
0000
0000
,
0020
0030
0000
0000
,
0200
0000
0000
0300
,
0000
0000
0000
0000
,
1000
0000
1000
0000
,
1000
0000
1000
0000
,
0001
0000
0001
0000
,
0100
0100
0100
0000
,
0010
0010
0010
0000
,
1000
0000
1000
0000
,
0001
0000
0100
0000
,
0010
0000
0020
0000
,
0030
0000
0000
0000
,
1000
0000
0100
0000
,
0010
0000
0001
0000
,
0200
0000
0000
0300
,
0000
0000
0000
0000
,
0010
0000
0010
0000
,
1000
0000
0001
0000
,
0100
0000
0200
0000
,
0300
0000
0000
0000
,
0001
0000
0010
0000
,
0100
0000
1000
0000
,
0002
0000
0000
0003
,
0000
0000
0000
0000
,
0010
0000
0010
0000
,
0000
0000
0000
0000
,
0100
0000
0100
0000
,
0000
0000
0000
0000
,
0010
0000
0010
0000
,
0000
0000
0000
0000
,
2002
0000
0000
0000
,
0000
0000
0000
3003
,
0000
0000
0000
0000
,
1001
0000
0000
0000
;
