#VERSION:0.83;
#TITLE:perfect green;
#SUBTITLE:;
#ARTIST:Woodbird;
#TITLETRANSLIT:;
#SUBTITLETRANSLIT:;
#ARTISTTRANSLIT:;
#GENRE:;
#ORIGIN:;
#CREDIT:;
#BANNER:perfect green-bn.png;
#BACKGROUND:perfect green-bg.png;
#PREVIEWVID:;
#JACKET:perfect green-jacket.png;
#CDIMAGE:;
#DISCIMAGE:;
#LYRICSPATH:;
#CDTITLE:;
#MUSIC:perfect green.ogg;
#OFFSET:0.400000;
#SAMPLESTART:52.087502;
#SAMPLELENGTH:20.000000;
#SELECTABLE:YES;
#DISPLAYBPM:160.000000;
#BPMS:0.000=160.000;
#STOPS:;
#DELAYS:;
#WARPS:;
#TIMESIGNATURES:0.000=4=4;
#TICKCOUNTS:0.000=4;
#COMBOS:0.000=1;
#SPEEDS:0.000=1.000=0.000=0;
#SCROLLS:0.000=1.000;
#FAKES:;
#LABELS:0.000=Song Start;
#BGCHANGES:;
#KEYSOUNDS:;
#ATTACKS:
;

//---------------dance-single - ----------------
#NOTEDATA:;
#CHARTNAME:;
#STEPSTYPE:dance-single;
#DESCRIPTION:;
#CHARTSTYLE:;
#DIFFICULTY:Hard;
#METER:10;
#RADARVALUES:0.489354,0.512865,0.153094,0.191367,0.000000,358.000000,342.000000,16.000000,20.000000,0.000000,0.000000,0.000000,0.000000,0.000000,0.489354,0.512865,0.153094,0.191367,0.000000,358.000000,342.000000,16.000000,20.000000,0.000000,0.000000,0.000000,0.000000,0.000000;
#CREDIT:;
#NOTES:
0000
0000
0000
0000
,
0000
0000
0000
0000
,
0000
0000
0000
0000
,
1000
0001
0100
0000
0010
0000
1000
0100
,
0000
0010
0000
0000
0000
0000
0000
0000
,
0001
0010
0100
0000
1000
0000
0010
0100
,
0000
0001
0000
0000
0000
0000
0000
0000
,
0010
0001
1000
0000
0010
0100
0000
0100
,
0001
0000
0001
1000
0000
1000
0100
0000
,
1000
0010
0100
0000
0001
0010
0000
0010
,
0100
0000
0100
1000
0000
1000
0010
0000
,
0200
0010
0302
1000
,
0013
0100
1000
0001
0000
1000
0100
0000
,
2000
0010
0100
0001
,
0010
0000
3001
1000
0200
0000
0300
0000
,
0010
0001
1000
0000
0001
0010
0000
0100
,
1000
0000
0010
0100
0000
0001
1000
0000
,
0100
1000
0001
0000
1000
0010
0000
0100
,
0001
0000
1000
0100
0000
0010
0001
0000
,
1001
0000
1001
0000
1000
1000
0001
0101
,
0000
0101
0000
0100
0010
0000
0100
0000
,
0110
0000
0110
0000
0010
0010
1000
1100
,
0000
1100
0000
1000
0001
0000
1000
0000
,
0011
0000
0011
0000
0010
0010
0100
1100
,
0000
1100
0000
1000
0010
0000
1000
0000
,
0101
0000
0101
0000
0001
0001
1000
1010
,
0000
1010
0000
0010
0100
0000
0010
0000
,
0002
0100
0103
0000
0020
1000
1030
0000
,
0001
1000
0100
0010
0100
1000
0001
0000
,
0010
0001
0100
0000
0001
0001
1000
0020
,
0000
1030
0001
0100
0200
0000
0310
0000
,
1000
0100
0010
0000
0001
0001
1000
0200
,
0000
0310
0001
1000
2000
0000
3001
0000
,
0100
0001
0010
0000
0100
0100
1000
0002
,
0000
0013
0001
1000
2000
0000
3100
0000
,
1000
0100
0001
0000
1000
0010
0001
0000
,
1000
0010
0100
0001
0010
0100
1000
0000
,
0001
0100
1000
0000
0001
0010
1000
0000
,
0001
1000
0010
1000
0100
0010
0001
0000
,
0100
0001
1000
0000
0010
1000
0001
0000
,
1000
0010
0100
0001
1000
0010
0100
0000
,
0010
0100
0001
0000
0010
0100
1000
0000
,
0010
1000
0001
1000
0010
0100
0001
0000
,
0010
0001
1000
0000
0001
1000
0010
0000
,
1000
0100
0010
0001
0010
0001
1000
0000
,
0010
1000
0100
0000
0010
0001
1000
0000
,
0001
0100
0010
0100
0001
1000
0100
0000
,
1000
0010
0001
0000
1000
0001
0100
0000
,
0010
0100
0001
1000
0010
1000
0100
0000
,
1000
0001
0010
0000
0001
1000
0100
0000
,
0010
0100
1000
0001
1000
0001
0100
0000
,
0001
1000
0010
0000
1000
0100
0010
0000
,
0001
1000
0001
0100
0000
0000
0000
0000
,
0010
0100
0001
0000
1000
0100
0010
0000
,
1000
0001
0010
0100
0000
0000
0000
0000
,
0001
0010
1000
0000
0001
0100
1000
0000
,
0010
1000
0100
0010
0000
0000
0000
0000
,
0001
1000
0010
0000
1000
0100
0001
0000
,
0010
0001
1000
0100
0000
0000
0000
0000
,
2000
0010
3002
0010
,
1003
0001
0100
0010
0000
0000
0000
0000
,
0200
0001
0320
1000
,
0130
0010
1000
0001
0000
0000
0000
0000
,
0020
0001
0230
0010
,
1300
0010
1000
0100
0000
0000
0000
0000
,
2000
0010
3002
0100
,
0013
0001
1000
0100
0000
0000
0000
0000
,
0010
0000
0000
0000
;

//---------------dance-single - ----------------
#NOTEDATA:;
#CHARTNAME:;
#STEPSTYPE:dance-single;
#DESCRIPTION:;
#CHARTSTYLE:;
#DIFFICULTY:Medium;
#METER:8;
#RADARVALUES:0.363598,0.384649,0.191367,0.267914,0.000000,266.000000,246.000000,20.000000,28.000000,0.000000,0.000000,0.000000,0.000000,0.000000,0.363598,0.384649,0.191367,0.267914,0.000000,266.000000,246.000000,20.000000,28.000000,0.000000,0.000000,0.000000,0.000000,0.000000;
#CREDIT:;
#DISPLAYBPM:160.000000;
#NOTES:
0000
0000
0000
0000
,
0000
0000
0000
0000
,
0000
0000
0000
0000
,
1000
0010
1000
0000
0001
0000
0000
0010
,
0000
0000
0000
0000
,
0100
0001
0100
0000
0010
0000
0000
1000
,
0000
0000
0000
0000
,
1000
0001
1000
0000
0001
0000
0000
0000
,
0100
0000
0010
1000
0000
0001
0100
0000
,
0010
0100
0010
0000
1000
0000
0000
0000
,
0001
0000
0010
0100
0000
1000
0001
0000
,
0200
0301
0020
1030
,
0001
1000
0001
1000
0000
0000
0000
0000
,
0020
1000
0100
1000
,
0001
0100
2000
3030
,
0002
0010
1000
0103
,
2000
0100
0010
3001
,
0200
0000
0020
0300
,
0001
1000
0001
1030
,
1001
0000
1001
0000
1000
1000
0000
0001
,
0000
0100
0000
0001
0010
0000
0000
0000
,
0110
0000
0110
0000
0100
0100
0000
1000
,
0000
0001
0000
1000
0010
0000
0000
0000
,
1010
0000
1010
0000
0010
0010
0000
1000
,
0000
0001
0000
0100
0001
0000
0000
0000
,
0101
0000
0101
0000
0001
0001
0000
0010
,
0000
0100
0000
1000
0010
0000
0000
0000
,
2000
0000
0001
0000
0100
3100
0000
0000
,
1000
0010
0100
0001
0000
0000
0000
0000
,
0200
0000
0010
0000
0001
0301
0000
0000
,
1000
0001
0100
0010
0000
0000
0000
0000
,
0002
0000
0010
0000
1000
1003
0000
0000
,
0010
0100
1000
0001
0000
0000
0000
0000
,
0020
0000
1000
0000
0001
0031
0000
0000
,
0010
0001
1000
0100
0000
0000
0000
0000
,
1000
0000
0010
0000
1000
0001
0100
0000
,
0001
1000
0100
0010
0000
0000
0000
0000
,
0100
0000
1000
0000
0010
0100
0001
0000
,
0010
0001
1000
0100
0000
0000
0000
0000
,
1000
0000
0010
0000
0100
0010
1000
0000
,
0001
0100
0010
1000
0000
0000
0000
0000
,
0100
0000
0010
0000
0100
1000
0001
0000
,
1000
0100
0010
0001
0000
0000
0000
0000
,
0011
0000
1000
0000
0010
0100
0001
0000
,
0100
0010
1000
0001
0000
0000
0000
0000
,
1100
0000
0010
0000
0100
0001
1000
0000
,
0001
0010
0100
1000
0000
0000
0000
0000
,
1010
0000
0100
0000
1000
0001
0010
0000
,
0001
0100
0010
1000
0000
0000
0000
0000
,
0101
0000
0001
0000
0010
0100
1000
0000
,
0100
1000
0001
0010
0000
0000
0000
0000
,
0110
0010
0110
0100
,
1000
0000
0001
0100
0000
0000
0000
0000
,
1001
1000
1001
0001
,
0010
0000
0100
0010
0000
0000
0000
0000
,
0011
0001
0011
0010
,
0100
0000
1000
0010
0000
0000
0000
0000
,
1010
1000
1010
0010
,
1000
0000
0001
0100
0000
0000
0000
0000
,
0002
0013
2000
3100
,
0020
0000
0000
0200
0000
0000
0330
0000
,
0020
1030
0002
0103
,
0002
0000
0000
2000
0000
0000
3003
0000
,
2000
3100
0020
0031
,
0200
0000
0000
0020
0000
0000
0330
0000
,
2000
3001
0020
0130
,
2000
0000
0000
0002
0000
0000
3003
0000
,
0010
0000
0000
0000
;

//---------------dance-single - ----------------
#NOTEDATA:;
#CHARTNAME:;
#STEPSTYPE:dance-single;
#DESCRIPTION:;
#CHARTSTYLE:;
#DIFFICULTY:Easy;
#METER:6;
#RADARVALUES:0.284317,0.384649,0.153094,0.095684,0.000000,208.000000,192.000000,16.000000,10.000000,0.000000,0.000000,0.000000,0.000000,0.000000,0.284317,0.384649,0.153094,0.095684,0.000000,208.000000,192.000000,16.000000,10.000000,0.000000,0.000000,0.000000,0.000000,0.000000;
#CREDIT:;
#DISPLAYBPM:160.000000;
#NOTES:
0000
0000
0000
0000
,
0000
0000
0000
0000
,
0000
0000
0000
0000
,
1000
0100
0001
0100
,
1000
0000
0000
0000
,
0001
0010
1000
0010
,
0001
0000
0000
0000
,
0100
0010
1000
0000
,
0001
0010
0100
0000
,
1000
0001
0010
0000
,
0100
1000
0001
0000
,
0020
0030
0002
0003
,
2000
0001
3100
0000
,
0020
0000
0130
0000
,
0002
1000
0103
0000
,
0020
0000
1030
0000
,
0200
0000
0301
0000
,
2000
0000
0002
3000
,
0020
0000
0000
0033
,
1001
1001
1000
0000
,
0001
0100
0010
0010
,
0110
0110
0010
0000
,
1000
0001
0100
0100
,
0101
0101
0001
0000
,
0010
0100
1000
1000
,
1100
1100
0100
0000
,
1000
0001
0010
0010
,
1010
1010
0010
1000
,
0001
1000
0100
0100
,
0110
0110
0010
0100
,
1000
0001
0100
0100
,
0101
0101
0001
1000
,
0010
0010
1000
0001
,
0011
0011
0010
0100
,
0010
0001
1000
0100
,
1000
0100
0001
0100
,
1000
0001
1000
0000
,
0001
0010
1000
0010
,
0001
1000
0001
0000
,
1000
0010
0001
0010
,
1000
0100
1000
0000
,
0001
0100
1000
0100
,
0001
0010
0001
0000
,
0010
0001
0100
0001
,
0010
0100
1000
0000
,
1000
0010
1000
0001
,
1000
0100
0010
0000
,
0001
0010
0100
0010
,
0100
1000
0001
0000
,
1000
0001
0010
0100
,
1000
0010
1000
0000
,
0010
0000
0100
0000
,
0010
1000
0100
0000
,
0010
0000
0100
0000
,
0010
0001
0100
0000
,
0001
0000
1000
0000
,
0010
1000
0001
0000
,
1000
0000
0001
0000
,
0100
0001
1000
0000
,
0010
0000
0010
0000
,
0100
0000
0100
0000
,
0001
0000
0001
0000
,
1000
0000
1000
0000
,
0001
0000
0010
0000
,
0100
0000
1000
0000
,
0010
0000
0100
0000
,
0001
0000
1000
0000
,
0010
0000
0000
0000
;

//---------------dance-single - ----------------
#NOTEDATA:;
#CHARTNAME:;
#STEPSTYPE:dance-single;
#DESCRIPTION:;
#CHARTSTYLE:;
#DIFFICULTY:Beginner;
#METER:2;
#RADARVALUES:0.143526,0.224378,0.038273,0.000000,0.000000,105.000000,101.000000,4.000000,0.000000,0.000000,0.000000,0.000000,0.000000,0.000000,0.143526,0.224378,0.038273,0.000000,0.000000,105.000000,101.000000,4.000000,0.000000,0.000000,0.000000,0.000000,0.000000,0.000000;
#CREDIT:;
#DISPLAYBPM:160.000000;
#NOTES:
// measure 0
0000
0000
0000
0000
,  // measure 1
0000
0000
0000
0000
,  // measure 2
0000
0000
0000
0000
,  // measure 3
1000
0000
1000
0000
,  // measure 4
1000
0000
0000
0000
,  // measure 5
0001
0000
0001
0000
,  // measure 6
0001
0000
0000
0000
,  // measure 7
0100
0000
0100
0000
,  // measure 8
0100
0000
0000
0000
,  // measure 9
0010
0000
0010
0000
,  // measure 10
0010
0000
0000
0000
,  // measure 11
1000
0000
0001
0000
,  // measure 12
1000
0000
0000
0000
,  // measure 13
0010
0000
0100
0000
,  // measure 14
0010
0000
0000
0000
,  // measure 15
0100
0000
0010
0000
,  // measure 16
0100
0000
0000
0000
,  // measure 17
0001
0000
1000
0000
,  // measure 18
0001
0000
0000
0000
,  // measure 19
1001
0000
0000
0000
,  // measure 20
0010
0010
0010
0000
,  // measure 21
0110
0000
0000
0000
,  // measure 22
0100
0100
0100
0000
,  // measure 23
1001
0000
0000
0000
,  // measure 24
0001
0001
0001
0000
,  // measure 25
0110
0000
0000
0000
,  // measure 26
1000
1000
1000
0000
,  // measure 27
0010
0000
0010
0000
,  // measure 28
1000
0000
1000
0000
,  // measure 29
0001
0000
0001
0000
,  // measure 30
0100
0000
0100
0000
,  // measure 31
0001
0000
0010
0000
,  // measure 32
0001
0000
0010
0000
,  // measure 33
0100
0000
1000
0000
,  // measure 34
0100
0000
1000
0000
,  // measure 35
0010
0000
0100
0000
,  // measure 36
0010
0000
0000
0000
,  // measure 37
1000
0000
0001
0000
,  // measure 38
1000
0000
0000
0000
,  // measure 39
0001
0000
0010
0000
,  // measure 40
0001
0000
0000
0000
,  // measure 41
1000
0000
0010
0000
,  // measure 42
1000
0000
0000
0000
,  // measure 43
0100
0000
0010
0000
,  // measure 44
0001
0000
0000
0000
,  // measure 45
0100
0000
0010
0000
,  // measure 46
1000
0000
0000
0000
,  // measure 47
0001
0000
1000
0000
,  // measure 48
0100
0000
0000
0000
,  // measure 49
1000
0000
0010
0000
,  // measure 50
0100
0000
0000
0000
,  // measure 51
0001
0000
0001
0000
,  // measure 52
0001
0000
0000
0000
,  // measure 53
0010
0000
0010
0000
,  // measure 54
0010
0000
0000
0000
,  // measure 55
0100
0000
0100
0000
,  // measure 56
0100
0000
0000
0000
,  // measure 57
1000
0000
1000
0000
,  // measure 58
1000
0000
0000
0000
,  // measure 59
0001
0000
0000
0000
,  // measure 60
0100
0000
0000
0000
,  // measure 61
0010
0000
0000
0000
,  // measure 62
1000
0000
0000
0000
,  // measure 63
0100
0000
0000
0000
,  // measure 64
0010
0000
0000
0000
,  // measure 65
0001
0000
0000
0000
,  // measure 66
1000
0000
0000
0000
,  // measure 67
0010
0000
0000
0000
;
