#VERSION:0.83;
#TITLE:morning;
#SUBTITLE:;
#ARTIST:DJ WILDPARTY;
#TITLETRANSLIT:;
#SUBTITLETRANSLIT:;
#ARTISTTRANSLIT:;
#GENRE:;
#ORIGIN:;
#CREDIT:;
#BANNER:morning-bn.png;
#BACKGROUND:morning-bg.png;
#PREVIEWVID:;
#JACKET:morning-jacket.png;
#CDIMAGE:;
#DISCIMAGE:;
#LYRICSPATH:;
#CDTITLE:;
#MUSIC:morning.ogg;
#OFFSET:0.000000;
#SAMPLESTART:63.528999;
#SAMPLELENGTH:20.000000;
#SELECTABLE:YES;
#DISPLAYBPM:170.000000;
#BPMS:0.000=170.000;
#STOPS:;
#DELAYS:;
#WARPS:;
#TIMESIGNATURES:0.000=4=4;
#TICKCOUNTS:0.000=4;
#COMBOS:0.000=1;
#SPEEDS:0.000=1.000=0.000=0;
#SCROLLS:0.000=1.000;
#FAKES:;
#LABELS:0.000=Song Start;
#BGCHANGES:;
#KEYSOUNDS:;
#ATTACKS:
;

//---------------dance-single - ----------------
#NOTEDATA:;
#CHARTNAME:;
#STEPSTYPE:dance-single;
#DESCRIPTION:;
#CHARTSTYLE:;
#DIFFICULTY:Hard;
#METER:11;
#RADARVALUES:0.483821,0.590428,0.135170,0.090113,0.000000,451.000000,433.000000,18.000000,12.000000,0.000000,0.000000,0.000000,0.000000,0.000000,0.483821,0.590428,0.135170,0.090113,0.000000,451.000000,433.000000,18.000000,12.000000,0.000000,0.000000,0.000000,0.000000,0.000000;
#CREDIT:;
#DISPLAYBPM:170.000000;
#NOTES:
0000
0000
0000
0000
,
0000
0000
0000
0000
,
0000
0000
0000
0000
,
0000
0000
0000
0000
,
0000
0000
0000
0000
,
0000
0000
0000
0000
,
0000
0000
0000
0000
,
0000
0000
0000
0000
,
0000
0000
0000
0000
,
0000
0000
0000
0000
,
0000
0000
0000
0000
,
0000
0000
0000
0000
,
0000
0000
0000
0000
,
0010
0100
0010
1000
,
0100
0010
0100
1000
,
0001
0010
0001
0100
,
1000
0001
0010
0100
,
1000
0010
0100
0001
,
0010
0100
1000
0001
,
0010
0100
0010
0001
,
0100
0010
1000
0001
,
1000
0001
1000
0010
,
0100
0001
0010
0100
,
0010
0001
1000
0010
,
1000
0100
0010
0001
,
0100
0010
1000
0001
,
1000
0010
0100
0001
,
0010
0100
1000
0010
,
1000
0001
0010
0100
,
1000
0010
0100
0001
0010
0100
1000
0001
,
0000
1000
0100
0000
0010
0000
0001
0000
,
0100
0010
1000
0001
0010
0100
1000
0001
,
0000
1000
0001
0000
0100
0000
0010
0000
,
0100
0001
1000
0100
0010
0001
1000
0010
,
0000
0100
0001
0000
0010
0000
1000
0000
,
0100
0010
0001
1000
0010
0100
0001
1000
,
0000
0001
0010
0000
0100
0000
1000
0000
,
0010
0001
0100
0001
1000
0100
1000
0010
,
0000
1000
0001
0000
0010
0000
0100
0000
,
0010
0100
0010
0001
1000
0100
1000
0001
,
0000
0100
0010
0000
1000
0000
0001
0000
,
0010
0100
1000
0010
1000
0001
0100
0001
,
0000
0010
0100
0000
1000
0000
0001
0000
,
2000
0100
3100
0000
0002
0100
0103
0000
,
2000
0010
3010
0000
0002
0010
0013
0000
,
1000
0001
0010
0001
0100
0010
1000
0100
,
0010
0001
1000
0000
0010
0100
0001
0000
,
1000
0100
0010
0100
0010
0001
1000
0001
,
0100
0010
1000
0000
0001
0010
0100
0000
,
1000
0001
1000
0010
0100
0001
0013
0100
,
1000
0010
0100
0000
0001
0010
1000
0000
,
0100
1000
0010
0100
0010
1000
0001
0010
,
0100
1000
0001
0000
1000
0010
0001
0000
,
0010
0001
1000
0001
1000
0100
0010
0031
,
0100
0010
1000
0000
0100
0010
0100
0000
,
0010
0100
1000
0001
1000
0010
0100
0001
,
0010
0001
1000
0000
0100
0010
0001
0000
,
0010
0100
0010
0001
1000
0010
0100
0001
,
0010
0100
1000
0000
0001
1000
0001
0000
,
2000
0100
3100
0000
0002
0100
0103
0000
,
2000
0010
3010
0000
0002
0010
0013
0000
,
0001
1000
0010
1000
0100
0010
0001
0100
,
0001
0010
1000
0000
1100
0000
0101
0000
,
0001
1000
0010
0100
0001
0010
0100
1000
,
0001
0103
0010
0000
1010
0000
0011
0000
,
0010
0100
0010
0001
0103
0010
1000
0001
,
0010
0001
0100
0000
0110
0000
1001
0000
,
1000
0010
1000
0001
0010
0100
1000
0010
,
1000
0100
0010
0000
0011
0000
1100
0000
,
0010
1000
0100
0010
0001
1000
0001
0100
,
0001
0010
1000
0000
0101
0000
1010
0000
,
0100
0001
0010
0100
1000
0010
1000
0001
,
0100
0010
1000
0000
1001
0000
0110
0000
,
0010
0100
0010
1000
0100
0310
0001
1000
,
0010
1000
0100
0000
0011
0000
0101
0000
,
2000
0100
3100
0000
0002
0100
0103
0000
,
2000
0010
3010
0000
0002
0010
0013
0000
,
0100
0000
0000
0000
0001
0000
1000
0100
,
0000
1000
0001
0000
0100
0000
0010
0000
,
1000
0000
0000
0000
0100
0000
1000
0010
,
0000
0010
0100
0000
0001
0000
1000
0000
,
0001
0000
0000
0000
1000
0000
0010
0100
,
0000
0100
0001
0000
0010
0000
1000
0000
,
0100
0000
0000
0000
1000
0000
0010
1000
,
0000
1000
0001
0000
0010
0000
0001
0000
,
0100
0000
0000
0000
0001
0000
0010
0100
,
0000
1000
0001
0000
1000
0000
0010
0000
,
1000
0000
0000
0000
0100
0000
0010
0001
,
0000
1000
0001
0000
0010
0000
0100
0000
,
1000
0000
0000
0000
0010
0000
0100
0001
,
0000
1000
0010
0000
1000
0000
0001
0000
,
1001
0000
1010
0000
,
1100
0000
0110
0000
;

//---------------dance-single - ----------------
#NOTEDATA:;
#CHARTNAME:;
#STEPSTYPE:dance-single;
#DESCRIPTION:;
#CHARTSTYLE:;
#DIFFICULTY:Medium;
#METER:8;
#RADARVALUES:0.332560,0.451504,0.090113,0.090113,0.000000,310.000000,298.000000,12.000000,12.000000,0.000000,0.000000,0.000000,0.000000,0.000000,0.332560,0.451504,0.090113,0.090113,0.000000,310.000000,298.000000,12.000000,12.000000,0.000000,0.000000,0.000000,0.000000,0.000000;
#CREDIT:;
#DISPLAYBPM:170.000000;
#NOTES:
0000
0000
0000
0000
,
0000
0000
0000
0000
,
0000
0000
0000
0000
,
0000
0000
0000
0000
,
0000
0000
0000
0000
,
0000
0000
0000
0000
,
0000
0000
0000
0000
,
0000
0000
0000
0000
,
0000
0000
0000
0000
,
0000
0000
0000
0000
,
0000
0000
0000
0000
,
0000
0000
0000
0000
,
0000
0000
0000
0000
,
0010
0000
1000
0000
,
0100
0000
0010
0000
,
0001
0000
0100
0000
,
0001
0000
1000
0000
,
0100
0000
0010
0000
,
0001
0000
0100
0000
,
1000
0000
0001
0000
,
0010
0000
0100
0000
,
0010
0000
0001
0000
,
0100
0000
1000
0000
,
0001
0000
0010
0000
,
0001
0000
1000
0000
,
0100
0000
0010
0000
,
0100
0000
0010
0000
,
0001
0000
0100
0000
,
1000
0000
0010
0000
,
1000
0000
0000
0000
0010
0000
0100
0001
,
0000
1000
0100
0000
0010
0000
0001
0000
,
0100
0000
0000
0000
0001
0000
1000
0100
,
0000
1000
0010
0000
0100
0000
0001
0000
,
0010
0000
0000
0000
0001
0000
1000
0001
,
0000
0010
0100
0000
1000
0000
0010
0000
,
0100
0000
0000
0000
0001
0000
1000
0001
,
0000
1000
0100
0000
0010
0000
0001
0000
,
1000
0000
0000
0000
0100
0000
0010
0001
,
0000
0100
0010
0000
1000
0000
0001
0000
,
0010
0000
0000
0000
0001
0000
1000
0100
,
0000
1000
0010
0000
0100
0000
0001
0000
,
0010
0000
0000
0000
0001
0000
1000
0100
,
0000
1000
0001
0000
0100
0000
0010
0000
,
2000
3100
0020
0031
,
0200
0310
0002
1003
,
0010
0000
1000
0001
1000
0000
0010
0100
,
0000
0100
0001
0000
0010
0000
0100
0000
,
1000
0000
0001
0010
0001
0000
0100
0010
,
0000
1000
0001
0000
1000
0000
0100
0000
,
0001
0000
1000
0010
1000
0000
0100
0010
,
0000
0001
0100
0000
0001
0000
1000
0000
,
0010
0000
1000
0100
1000
0000
0001
0010
,
0000
0100
1000
0000
0001
0000
0100
0000
,
0001
0000
1000
0100
1000
0000
0010
0100
,
0000
0100
0010
0000
1000
0000
0001
0000
,
0010
0000
0001
0100
0001
0000
1000
0100
,
0000
0010
0001
0000
0100
0000
1000
0000
,
0001
0000
0100
0010
0130
0000
0001
0010
,
0000
0001
1000
0000
0010
0000
0100
0000
,
0002
0013
2000
3100
,
0020
1030
0200
0301
,
0010
0000
1000
0001
0010
0000
0100
1000
,
0000
0001
0100
0000
0110
0000
0001
0000
,
0010
0000
0100
1000
0001
0000
1000
0010
,
0000
0010
0100
0000
1001
0000
0001
0000
,
1000
0000
0100
0010
0001
0000
1000
0100
,
0000
1000
0010
0000
0101
0000
1000
0000
,
0100
0000
0010
0001
0100
0000
0001
1000
,
0000
1000
0100
0000
1100
0000
0010
0000
,
0100
0000
0001
0010
1000
0000
0001
0100
,
0000
0010
0100
0000
1010
0000
0100
0000
,
0001
0000
0010
0001
0100
0000
0001
1000
,
0000
1000
0100
0000
0011
0000
0100
0000
,
0001
0000
0010
0001
1000
0000
0100
1000
,
0000
0001
0100
0000
1001
0000
1000
0000
,
0020
1030
0002
0013
,
0200
3301
2000
3100
,
0110
0000
0000
0000
0001
0000
0000
1000
,
0000
0001
0100
0010
,
1000
0000
0000
0000
0100
0000
0000
0010
,
0000
0001
1000
0001
,
0010
0000
0000
0000
0001
0000
0000
0100
,
0000
0010
1000
0100
,
1000
0000
0000
0000
0010
0000
0000
0100
,
0000
0001
0010
0100
,
0010
0000
0000
0000
0100
0000
0000
1000
,
0000
0010
0100
0010
,
0100
0000
0000
0000
0001
0000
0000
0010
,
0000
0001
1000
0100
,
0001
0000
0000
0000
1000
0000
0000
0010
,
0000
1000
0001
0100
,
0101
0000
1010
0000
,
1100
0000
0011
0000
;

//---------------dance-single - ----------------
#NOTEDATA:;
#CHARTNAME:;
#STEPSTYPE:dance-single;
#DESCRIPTION:;
#CHARTSTYLE:;
#DIFFICULTY:Easy;
#METER:5;
#RADARVALUES:0.169498,0.243118,0.000000,0.000000,0.000000,158.000000,158.000000,0.000000,0.000000,0.000000,0.000000,0.000000,0.000000,0.000000,0.169498,0.243118,0.000000,0.000000,0.000000,158.000000,158.000000,0.000000,0.000000,0.000000,0.000000,0.000000,0.000000,0.000000;
#CREDIT:;
#DISPLAYBPM:170.000000;
#NOTES:
0000
0000
0000
0000
,
0000
0000
0000
0000
,
0000
0000
0000
0000
,
0000
0000
0000
0000
,
0000
0000
0000
0000
,
0000
0000
0000
0000
,
0000
0000
0000
0000
,
0000
0000
0000
0000
,
0000
0000
0000
0000
,
0000
0000
0000
0000
,
0000
0000
0000
0000
,
0000
0000
0000
0000
,
0000
0000
0000
0000
,
0010
0000
0000
0000
,
1000
0000
0000
0000
,
0001
0000
0000
0000
,
0100
0000
0000
0000
,
0001
0000
0000
0000
,
0010
0000
0000
0000
,
0100
0000
0000
0000
,
1000
0000
0000
0000
,
0001
0000
0000
0000
,
0100
0000
0000
0000
,
0001
0000
0000
0000
,
0010
0000
0000
0000
,
0100
0000
0000
0000
,
1000
0000
0000
0000
,
0001
0000
0000
0000
,
1000
0000
0000
0000
,
0001
0000
1000
0000
,
0001
0000
0100
0000
,
0010
0000
1000
0000
,
0010
0000
0100
0000
,
0001
0000
0010
0000
,
0001
0000
1000
0000
,
0010
0000
1000
0000
,
0100
0000
0010
0000
,
0001
0000
0100
0000
,
0001
0000
0010
0000
,
0001
0000
1000
0000
,
0100
0000
0010
0000
,
0100
0000
1000
0000
,
0010
0000
0100
0000
,
0001
0000
0010
0000
,
0001
0000
1000
0000
,
0001
0000
0010
0000
,
0100
0000
1000
0001
,
1000
0000
0010
0000
,
1000
0000
0100
0010
,
0100
0000
1000
0000
,
0010
0000
0100
0001
,
0100
0000
0001
0000
,
0010
0000
0001
1000
,
0001
0000
1000
0000
,
0100
0000
1000
0010
,
1000
0000
0100
0000
,
0001
0000
1000
0100
,
1000
0000
0010
0000
,
0100
0000
0001
0010
,
0001
0000
0100
0000
,
0010
0000
1000
0000
,
0100
0000
1000
0000
,
0010
1000
0001
0100
,
0010
0000
0100
0000
,
0001
0010
0100
1000
,
0001
0000
1000
0000
,
0001
0100
0010
1000
,
0100
0000
0010
0000
,
0100
1000
0001
0100
,
0001
0000
0010
0000
,
0001
0010
0100
1000
,
0010
0000
1000
0000
,
0100
1000
0010
0100
,
0001
0000
1000
0000
,
0001
1000
0010
0100
,
0001
0000
1000
0000
,
0010
0000
0100
0000
,
0001
0000
0001
0000
,
0001
0000
0000
0000
,
1000
0000
1000
0000
,
1000
0000
0000
0000
,
0010
0000
0010
0000
,
0010
0000
0000
0000
,
0100
0000
0100
0000
,
0100
0000
0000
0000
,
0001
0000
1000
0000
,
0001
0000
0000
0000
,
0010
0000
0100
0000
,
0010
0000
0000
0000
,
0001
0000
0100
0000
,
0001
0000
0000
0000
,
1000
0000
0010
0000
,
0100
0000
0001
0000
;

//---------------dance-single - ----------------
#NOTEDATA:;
#CHARTNAME:;
#STEPSTYPE:dance-single;
#DESCRIPTION:;
#CHARTSTYLE:;
#DIFFICULTY:Beginner;
#METER:1;
#RADARVALUES:0.086895,0.138173,0.000000,0.000000,0.000000,81.000000,81.000000,0.000000,0.000000,0.000000,0.000000,0.000000,0.000000,0.000000,0.086895,0.138173,0.000000,0.000000,0.000000,81.000000,81.000000,0.000000,0.000000,0.000000,0.000000,0.000000,0.000000,0.000000;
#CREDIT:;
#DISPLAYBPM:170.000000;
#NOTES:
// measure 0
0000
0000
0000
0000
,  // measure 1
0000
0000
0000
0000
,  // measure 2
0000
0000
0000
0000
,  // measure 3
0000
0000
0000
0000
,  // measure 4
0000
0000
0000
0000
,  // measure 5
0000
0000
0000
0000
,  // measure 6
0000
0000
0000
0000
,  // measure 7
0000
0000
0000
0000
,  // measure 8
0000
0000
0000
0000
,  // measure 9
0000
0000
0000
0000
,  // measure 10
0000
0000
0000
0000
,  // measure 11
0000
0000
0000
0000
,  // measure 12
0000
0000
0000
0000
,  // measure 13
0010
0000
0000
0000
,  // measure 14
0000
0000
0000
0000
,  // measure 15
1000
0000
0000
0000
,  // measure 16
0000
0000
0000
0000
,  // measure 17
0001
0000
0000
0000
,  // measure 18
0000
0000
0000
0000
,  // measure 19
0010
0000
0000
0000
,  // measure 20
0000
0000
0000
0000
,  // measure 21
0001
0000
0000
0000
,  // measure 22
0000
0000
0000
0000
,  // measure 23
0100
0000
0000
0000
,  // measure 24
0000
0000
0000
0000
,  // measure 25
1000
0000
0000
0000
,  // measure 26
0000
0000
0000
0000
,  // measure 27
0100
0000
0000
0000
,  // measure 28
0000
0000
0000
0000
,  // measure 29
0001
0000
0000
0000
,  // measure 30
0001
0000
0000
0000
,  // measure 31
1000
0000
0000
0000
,  // measure 32
1000
0000
0000
0000
,  // measure 33
0010
0000
0000
0000
,  // measure 34
0010
0000
0000
0000
,  // measure 35
0100
0000
0000
0000
,  // measure 36
0100
0000
0000
0000
,  // measure 37
0001
0000
0000
0000
,  // measure 38
0010
0000
0000
0000
,  // measure 39
0001
0000
0000
0000
,  // measure 40
0010
0000
0000
0000
,  // measure 41
0100
0000
0000
0000
,  // measure 42
1000
0000
0000
0000
,  // measure 43
0100
0000
0000
0000
,  // measure 44
1000
0000
0000
0000
,  // measure 45
0010
0000
0010
0000
,  // measure 46
0010
0000
0000
0000
,  // measure 47
0100
0000
0100
0000
,  // measure 48
0100
0000
0000
0000
,  // measure 49
0001
0000
0001
0000
,  // measure 50
0001
0000
0000
0000
,  // measure 51
1000
0000
1000
0000
,  // measure 52
1000
0000
0000
0000
,  // measure 53
0100
0000
0100
0000
,  // measure 54
0100
0000
0000
0000
,  // measure 55
0010
0000
0010
0000
,  // measure 56
0010
0000
0000
0000
,  // measure 57
0001
0000
0001
0000
,  // measure 58
0001
0000
0000
0000
,  // measure 59
1000
0000
1000
0000
,  // measure 60
1000
0000
0000
0000
,  // measure 61
0001
0000
0010
0000
,  // measure 62
0001
0000
0000
0000
,  // measure 63
1000
0000
0010
0000
,  // measure 64
1000
0000
0000
0000
,  // measure 65
0001
0000
0100
0000
,  // measure 66
0001
0000
0000
0000
,  // measure 67
1000
0000
0100
0000
,  // measure 68
1000
0000
0000
0000
,  // measure 69
0001
0000
1000
0000
,  // measure 70
0001
0000
0000
0000
,  // measure 71
0100
0000
0010
0000
,  // measure 72
0100
0000
0000
0000
,  // measure 73
0010
0000
0100
0000
,  // measure 74
0010
0000
0000
0000
,  // measure 75
1000
0000
0001
0000
,  // measure 76
1000
0000
0000
0000
,  // measure 77
0010
0000
0000
0000
,  // measure 78
0000
0000
0000
0000
,  // measure 79
0100
0000
0000
0000
,  // measure 80
0000
0000
0000
0000
,  // measure 81
0001
0000
0000
0000
,  // measure 82
0000
0000
0000
0000
,  // measure 83
1000
0000
0000
0000
,  // measure 84
0000
0000
0000
0000
,  // measure 85
0100
0000
0000
0000
,  // measure 86
0000
0000
0000
0000
,  // measure 87
0010
0000
0000
0000
,  // measure 88
0000
0000
0000
0000
,  // measure 89
0001
0000
0000
0000
,  // measure 90
0000
0000
0000
0000
,  // measure 91
1000
0000
0000
0000
,  // measure 92
1000
0000
0000
0000
;
