#TITLE:mnemoniq;
#SUBTITLE:;
#ARTIST:youhei shimizu;
#TITLETRANSLIT:;
#SUBTITLETRANSLIT:;
#ARTISTTRANSLIT:;
#GENRE:;
#CREDIT:;
#BANNER:mnemoniq-bn.png;
#BACKGROUND:mnemoniq-bg.png;
#LYRICSPATH:;
#CDTITLE:;
#MUSIC:mnemoniq.ogg;
#OFFSET:0.000000;
#SAMPLESTART:17.260000;
#SAMPLELENGTH:20.000000;
#SELECTABLE:YES;
#DISPLAYBPM:111.000000;
#BPMS:0.000000=111.239998
;
#STOPS:
;
#BGCHANGES:;
#KEYSOUNDS:;
#ATTACKS:;

//---------------dance-single - ----------------
#NOTES:
     dance-single:
     :
     Hard:
     11:
     0.489537,0.478360,0.158463,0.752699,0.430821,346.000000,330.000000,16.000000,76.000000,0.000000,0.000000,0.489537,0.478360,0.158463,0.752699,0.430821,346.000000,330.000000,16.000000,76.000000,0.000000,0.000000:
0000
0000
0000
0000
,
0000
0000
0000
0000
,
0000
0000
0000
0000
,
0002
0023
0230
2300
,
3010
0000
0000
1010
0000
0000
0001
0000
0100
0000
0000
0100
0001
0000
0000
0000
0000
0000
0000
0000
0000
0000
0000
0000
,
1000
0000
0000
1100
0000
0000
0010
0000
0100
0000
0000
0100
0010
0000
0000
0000
0000
0000
0000
0000
0000
0000
0000
0000
,
0100
0000
0000
0101
0000
0000
0001
0000
1000
0000
0000
1000
0002
0000
0000
0203
0000
0000
0320
0000
0000
2030
0000
0000
,
3100
0000
0000
0010
0000
0000
0001
0000
0100
0000
0000
0100
0010
0000
0000
1000
0000
0000
1001
0000
0000
0000
0000
0000
,
0010
0000
0000
1000
0000
0000
1000
0000
0000
0100
0000
0010
0000
0000
0010
0001
0000
0000
1000
0000
0000
0001
0000
0100
,
0001
0000
0000
0010
0000
0000
0010
0000
0000
0100
0000
1000
0000
0000
1000
0001
0000
0000
1000
0000
0000
0010
0000
0100
,
0010
0000
0000
0100
0000
0000
0100
0000
0000
0001
0000
0010
0000
0000
0001
1000
0000
0000
0100
0000
0000
1000
0000
0001
,
2000
3200
0320
0032
,
1003
0000
0000
0100
0000
0000
0100
0000
0000
0010
0000
0100
0000
0000
1000
0001
0000
0000
0010
0000
0000
0001
0000
0010
,
0001
0000
0000
1000
0000
0000
1000
0000
0000
0010
0000
1000
0000
0000
0100
0010
0000
0000
0001
0000
0000
0100
0000
0010
,
0100
0000
0000
0001
0000
0000
0001
0000
0000
1000
0000
0010
0000
0000
0010
1000
0000
0000
0001
0000
0000
1000
0000
0100
,
1000
0000
0000
0001
0000
0000
0010
0000
0000
0100
0000
1000
0001
0000
0000
0000
0000
0000
0011
0000
0000
0000
0000
0000
,
2000
0000
0000
0000
0000
3002
0000
0000
0000
0023
0000
0000
0000
0000
0000
0100
0000
0000
0130
0000
0000
1000
0000
0001
,
1000
0000
0000
0010
0000
0000
0100
0000
0000
0001
0000
0000
0010
0000
0000
0001
0000
0000
1000
0000
0000
0010
0000
0100
,
0002
0000
0000
0000
0000
0023
0000
0000
0000
0230
0000
0000
0000
0000
0000
1300
0000
0000
0110
0000
0000
0000
0000
0000
,
0001
0000
0001
1000
0000
1000
0001
0000
0000
0100
0000
0000
0110
0000
0000
0000
0000
0000
1001
0000
0000
0000
0000
0000
,
0020
0000
0000
0000
0000
0032
0000
0000
0000
2003
0000
0000
0000
0000
0000
0001
0000
0000
3001
0000
0000
0100
0000
0010
,
1000
0000
0000
0001
0000
0000
1000
0000
0000
0100
0000
0000
0010
0000
0000
0001
0000
0000
0100
0000
0000
0010
0000
1000
,
0200
0000
0000
0000
0000
2300
0000
0000
0000
3002
0000
0000
0000
0000
0000
0013
0000
0000
0101
0000
0000
0000
0000
0000
,
0010
0000
0000
1100
0000
0000
0001
0000
1000
0000
0000
1000
0100
0000
0000
0100
0000
0000
1000
0000
1000
0001
0000
0001
,
0020
0000
0000
0000
0000
0032
0000
0000
0000
0203
0000
0000
0000
0000
0000
0000
0000
0000
0310
0000
0010
1000
0000
1000
,
0200
0000
0000
0000
0000
2300
0000
0000
0000
3020
0000
0000
0000
0000
0000
0000
0000
0000
0000
0000
0000
0000
0000
0000
,
0100
0000
0000
0000
0000
0000
0100
0000
0000
0000
0000
0000
0130
0000
0000
1001
0000
0000
0001
0000
1000
0001
0000
0000
,
0020
0000
0000
0000
0000
0032
0000
0000
0000
2003
0000
0000
0000
0000
0000
0100
0000
0000
3100
0000
0000
1000
0000
0001
,
2000
0000
0000
0000
0000
3020
0000
0000
0000
0130
0000
0000
1002
0000
0000
0000
0000
0023
0000
0000
0000
0031
0000
1000
,
0200
0000
0000
0000
0000
0320
0000
0000
0000
0230
0000
0000
0000
0000
0000
1000
0000
0000
1300
0000
0000
0001
0000
0100
,
0002
0000
0000
0000
0000
2003
0000
0000
0000
3100
0000
0000
2000
0000
0000
3020
0000
0000
0230
0000
0000
0302
0000
0000
,
0023
0000
0000
0000
0000
0230
0000
0000
0000
2300
0000
0000
0000
0000
0000
0001
0000
0000
3001
0000
0000
1000
0000
0100
,
2000
0000
0000
0000
0000
3002
0000
0000
0000
0103
0000
0000
0120
0000
0000
0000
0000
2030
0000
0000
0000
3100
0000
1000
,
0002
0000
0000
0000
0000
2003
0000
0000
0000
3002
0000
0000
0000
0000
0000
0010
0000
0000
0013
0000
0000
0001
0000
0100
,
0020
0000
0000
0000
0000
2030
0000
0000
0000
3001
0000
0000
0020
0000
0000
0230
0000
0000
2300
0000
0000
3002
0000
0000
,
0203
0320
2030
3002
0023
0032
2003
3200
,
0310
0000
0000
0001
0000
0000
0001
0000
0000
1000
0000
0100
0000
0000
0100
1000
0000
0000
0010
0000
0000
0100
0000
0001
,
1000
0000
0000
0010
0000
0000
0010
0000
0000
0100
0000
0001
0000
0000
0001
1000
0000
0000
0100
0000
0000
0010
0000
0100
,
0010
0000
0000
0001
0000
0000
0001
0000
0000
1000
0000
0001
0000
0000
1000
0100
0000
0000
1000
0000
0000
0010
0000
0100
,
0002
2003
3200
0320
,
0130
0000
0000
0010
0000
0000
0010
0000
0000
0001
0000
0100
0000
0000
1000
0010
0000
0000
1000
0000
0000
0001
0000
0100
,
0001
0000
0000
1000
0000
0000
1000
0000
0000
0010
0000
1000
0000
0000
0100
0010
0000
0000
0001
0000
0000
0100
0000
0100
,
0010
0000
0000
1000
0000
0000
1000
0000
0000
0001
0000
1000
0000
0000
0001
0100
0000
0000
0001
0000
0000
0010
0000
0100
,
1000
0000
0000
0001
0000
0000
0010
0000
0000
0001
0000
1000
0100
0000
0000
0000
0000
0000
0011
0000
0000
0000
0000
0000
,
2100
0000
0000
0000
0000
0001
0000
0000
0000
0010
0000
0000
0000
0000
0001
0000
0000
0000
3100
0000
0000
0000
0000
0000
,
0102
0000
0000
0000
0000
1000
0000
0000
0000
0010
0000
0000
0000
0000
0103
0000
0000
0000
0001
0000
1000
0000
0001
0000
,
0100
0000
0000
0000
;

//---------------dance-single - ----------------
#NOTES:
     dance-single:
     :
     Medium:
     9:
     0.363616,0.387244,0.059424,0.415965,0.094087,257.000000,251.000000,6.000000,42.000000,0.000000,0.000000,0.363616,0.387244,0.059424,0.415965,0.094087,257.000000,251.000000,6.000000,42.000000,0.000000,0.000000:
0000
0000
0000
0000
,
0000
0000
0000
0000
,
0000
0000
0000
0000
,
0002
0023
0230
2300
,
3020
0000
0000
0100
0000
0000
0000
0000
0100
0000
0000
0000
0130
0000
0000
0000
0000
0000
0000
0000
0000
0000
0000
0000
,
2000
0000
0000
0001
0000
0000
0000
0000
0001
0000
0000
0000
3001
0000
0000
0000
0000
0000
0000
0000
0000
0000
0000
0000
,
0002
0000
0000
0010
0000
0000
0000
0000
0010
0000
0000
0000
0013
0000
0000
0000
0000
0000
0000
0000
0000
0000
0000
0000
,
1000
0000
0000
0010
0000
0000
0000
0000
0100
0000
0000
0000
0001
0000
0000
0000
0000
0000
1001
0000
0000
0000
0000
0000
,
0001
1000
0010
1000
0100
0010
0001
0100
,
0010
0100
0010
1000
0100
0010
0100
1000
,
0001
1000
0001
0010
0001
0100
0010
1000
,
0002
0203
0320
2030
,
3001
1000
0010
1000
0100
1000
0010
0100
,
0010
1000
0001
0010
0001
0100
0001
0010
,
0100
0010
0001
0100
0010
1000
0001
1000
,
0001
1000
0010
1000
0100
0000
0110
0000
,
0001
0000
0000
0000
0000
0000
1000
0000
0000
0010
0000
0000
0000
0000
0000
0100
0000
0000
0100
0000
0000
0001
0000
1000
,
0000
0000
0000
0000
0000
0000
0000
0000
0000
0000
0000
0000
0000
0000
0000
0001
0000
0000
0001
0000
0000
1000
0000
0010
,
0000
0000
1000
0001
0000
0010
0100
0000
,
1000
0001
1000
0010
0200
0000
0301
0000
,
1000
0000
0000
0000
0000
0000
0001
0000
0000
0100
0000
0000
0000
0000
0000
0001
0000
0000
0001
0000
0000
1000
0000
0100
,
0000
0000
0000
0000
0000
0000
0000
0000
0000
0000
0000
0000
0000
0000
0000
0010
0000
0000
0010
0000
0000
0001
0000
0100
,
0000
0000
0010
0100
0000
0001
1000
0000
,
0001
0010
0001
0100
0010
1000
0100
0010
,
0002
0000
0000
0000
0000
2003
0000
0000
0000
3002
0000
0000
0000
0000
0000
0000
0000
0000
0003
0000
0000
0000
0000
0000
,
0200
0000
0000
0000
0000
0320
0000
0000
0000
0230
0000
0000
0000
0000
0000
0000
0000
0000
0000
0000
0000
0000
0000
0000
,
0001
0000
0000
0000
0000
0000
0001
0000
0000
0000
0000
0000
0301
0000
0000
2000
0000
0000
0000
0000
3020
0000
0000
0000
,
0130
0000
0000
0000
0000
0000
0001
0000
0000
1000
0000
0000
0000
0000
0000
0100
0000
0000
0100
0000
0000
0010
0000
0001
,
0000
0000
0000
0000
0000
0000
0000
0000
0000
0000
0000
0000
2000
0000
0000
0000
0000
3002
0000
0000
0000
1003
0000
0100
,
0000
0000
0000
0000
0000
0000
0010
0000
0000
0001
0000
0000
0000
0000
0000
1000
0000
0000
1000
0000
0000
0010
0000
0100
,
0000
0000
1010
0000
0002
2003
3020
0230
,
0301
0000
0000
0000
0000
0000
1000
0000
0000
0001
0000
0000
0000
0000
0000
0010
0000
0000
0010
0000
0000
0100
0000
1000
,
0000
0000
0000
0000
0000
0000
0000
0000
0000
0000
0000
0000
0020
0000
0000
0000
0000
0230
0000
0000
0000
0301
0000
1000
,
0000
0000
0000
0000
0000
0000
0010
0000
0000
0100
0000
0000
0000
0000
0000
0001
0000
0000
0001
0000
0000
1000
0000
0100
,
0000
0000
0011
0000
2000
3002
0023
0230
,
2300
3020
0230
0302
,
0013
0001
1000
0001
0010
0100
0010
0001
,
0100
0010
0100
0010
1000
0100
0010
0100
,
0010
0001
0100
0010
0100
0001
1000
0100
,
0020
0230
2300
3002
,
1003
0001
1000
0100
0010
0001
0010
0100
,
0010
0100
0010
0001
0100
0001
1000
0100
,
1000
0001
1000
0001
1000
0010
0100
0001
,
0010
0100
1000
0001
0100
0000
0101
0000
,
0002
0000
0013
0000
0001
1000
0100
0000
,
2000
0000
3010
0000
1000
0001
0010
0000
,
1100
0000
0000
0000
;

//---------------dance-single - ----------------
#NOTES:
     dance-single:
     :
     Easy:
     6:
     0.263162,0.273349,0.178271,0.079231,0.000000,186.000000,168.000000,18.000000,8.000000,0.000000,0.000000,0.263162,0.273349,0.178271,0.079231,0.000000,186.000000,168.000000,18.000000,8.000000,0.000000,0.000000:
0000
0000
0000
0000
,
0000
0000
0000
0000
,
0000
0000
0000
0000
,
0002
2003
3002
2003
,
3001
0100
1000
0000
,
0010
1000
0001
0000
,
0010
0100
1000
0000
,
0001
1000
0010
1001
,
0010
1000
0100
0010
,
0001
0010
0001
0100
,
1000
0001
0010
0001
,
0100
0010
0100
0001
,
0010
0100
1000
0010
,
1000
0100
0010
0001
,
0100
0010
0100
0001
,
1000
0100
0010
0110
,
0001
0100
0001
1000
,
0100
0010
0100
1000
,
0010
0001
1000
0001
,
0010
0100
1001
1001
,
0110
0001
0010
0001
,
0100
1000
0010
0100
,
0001
1000
0010
0100
,
0001
1000
0001
0100
,
0110
1001
0002
0003
,
1001
0110
2000
0000
,
0010
0010
3010
1001
,
0010
0001
0100
1000
,
0010
0100
0010
1000
,
0100
0010
0001
0100
,
1000
0001
0110
0110
,
1001
0010
1000
0100
,
0001
1000
0100
0010
,
1000
0001
1000
0010
,
0100
0001
1001
1001
,
0110
0001
0100
1000
,
0001
1000
0010
1000
,
0100
0010
0100
1000
,
0010
0001
0100
0010
,
0100
0001
1000
0100
,
0001
1000
0010
1000
,
0100
0010
0001
0100
,
0001
0010
0001
0100
,
1000
0010
0100
1001
,
0002
0010
1000
0013
,
2000
0100
0001
3100
,
0110
0000
0000
0000
;

//---------------dance-single - ----------------
#NOTES:
     dance-single:
     :
     Beginner:
     3:
     0.118847,0.159453,0.059424,0.000000,0.000000,84.000000,78.000000,6.000000,0.000000,0.000000,0.000000,0.118847,0.159453,0.059424,0.000000,0.000000,84.000000,78.000000,6.000000,0.000000,0.000000,0.000000:
0000
0000
0000
0000
,
0000
0000
0000
0000
,
0000
0000
0000
0000
,
0001
0000
1000
0000
,
0001
0000
0000
0000
,
0010
0000
0000
0000
,
0100
0000
0000
0000
,
1000
0000
0000
1001
,
0000
0010
0000
0100
,
0000
0010
0000
0100
,
0000
0001
0000
1000
,
0000
0010
0000
0100
,
0000
0010
0000
1000
,
0000
0100
0000
0100
,
0000
1000
0000
0001
,
0000
0000
1001
0000
,
0010
0000
0000
1000
,
0000
0000
0000
0001
,
0001
0000
0000
0000
,
0000
0000
0100
0100
,
0100
0000
0000
0010
,
0000
0000
0000
1000
,
1000
0000
0000
0000
,
0001
0000
1000
1000
,
1000
0000
0001
0000
,
0100
0000
0010
0000
,
0000
0000
1001
0000
,
0001
0001
0000
1000
,
0000
0000
0010
0010
,
0000
0000
0000
0100
,
0000
0000
0010
0010
,
0010
0010
0000
1000
,
0000
0000
0001
0001
,
0000
0000
0000
0100
,
0000
0000
0001
0001
,
0001
0000
1001
0000
,
0010
0000
1000
0000
,
0100
0000
1000
0000
,
0001
0000
0010
0000
,
0001
0001
0001
0001
,
0000
1000
0000
0100
,
0000
0010
0000
0100
,
0000
0010
0000
0001
,
0000
0000
1001
0000
,
0010
0000
0000
0000
,
0100
0000
0000
0000
,
1001
0000
0000
0000
;

//---------------dance-single - ----------------
#NOTES:
     dance-single:
     :
     Challenge:
     14:
     0.690446,0.774487,0.316926,0.277310,0.817074,488.000000,456.000000,32.000000,28.000000,0.000000,0.000000,0.690446,0.774487,0.316926,0.277310,0.817074,488.000000,456.000000,32.000000,28.000000,0.000000,0.000000:
// measure 0
0000
0000
0000
0000
,  // measure 1
0000
0000
0000
0000
,  // measure 2
0000
0000
0000
0000
,  // measure 3
0002
1003
0020
0130
,  // measure 4
1001
0000
0000
0110
0000
0000
0010
0000
1000
0000
0000
0010
1000
0000
0000
0100
0000
0000
0100
0000
0000
0010
0000
0001
,  // measure 5
1000
0000
0000
1100
0000
0000
0001
0000
0100
0000
0000
0001
0200
0000
0000
0000
0000
0320
0000
0000
0000
1030
0000
1000
,  // measure 6
0001
0000
0000
0101
0000
0000
1000
0000
0010
0000
0000
1000
0010
0000
0100
0001
1000
0001
1000
0000
0001
0010
0100
0010
,  // measure 7
0100
0000
0000
0011
0000
0001
1000
0000
0010
0000
0000
0100
0001
0000
0000
1010
0000
0000
1001
0000
0000
0000
0000
0000
,  // measure 8
0110
0000
0000
1000
0000
0000
0001
0000
0000
0010
0000
0100
0000
0000
1000
0001
0000
0000
0010
0000
0000
0001
0000
0100
,  // measure 9
1000
0000
0000
0100
0000
0000
0010
0000
0000
1000
0000
0001
0000
0000
0010
0100
0000
0000
0010
0000
0000
0001
0000
1000
,  // measure 10
0100
0000
0000
0010
0000
0000
0100
0000
0000
1000
0000
0010
0000
0000
1000
0001
0000
0000
0010
0000
0000
0001
0000
0100
,  // measure 11
0010
0000
0000
0100
0000
0000
0001
0000
0000
0010
0000
0100
0000
0000
1000
0010
0000
0000
1000
0000
0000
0001
0000
0010
,  // measure 12
0100
0000
0000
1000
0000
0000
0010
0000
0000
1000
0000
0100
0000
0000
0001
1000
0000
0000
0001
0000
0000
1000
0000
0010
,  // measure 13
0100
0000
0000
0001
0000
0000
0010
0000
0000
0001
0000
0100
0000
0000
1000
0010
0000
0000
1000
0000
0000
0100
0000
0001
,  // measure 14
0010
0000
0000
1000
0000
0000
0100
0000
0000
0010
0000
0100
0000
0000
1000
0001
0000
0000
0010
0000
0000
0001
0000
0100
,  // measure 15
0010
0000
0000
1000
0000
0000
0100
0000
0000
0010
0000
0001
1000
0000
0000
0000
0000
0000
0001
0010
0001
1000
0010
1000
,  // measure 16
0100
0000
0000
0010
0000
0010
0001
0000
0000
1000
0000
1000
0010
0000
0000
1100
0000
0000
0101
0000
0000
1000
0000
0010
,  // measure 17
0100
0000
0000
0001
0000
0001
1000
0000
0000
0100
0000
0100
0010
0000
0000
0011
0000
0000
1100
0000
0000
0001
0000
1000
,  // measure 18
0100
0000
0000
0010
0000
0010
0001
0000
0000
0100
0000
0100
0001
0000
0000
0011
0000
0000
1010
0000
0000
0000
0000
0000
,  // measure 19
1000
0000
1000
0100
0000
0100
0010
0000
0010
0001
0000
0001
0200
0000
0000
0000
0000
0000
0320
0000
0000
0000
0000
0000
,  // measure 20
1030
0000
0000
0010
0000
0010
0100
0000
0000
0001
0000
0001
1000
0000
0000
0110
0000
0000
1001
0000
0000
0010
0000
0100
,  // measure 21
0001
0000
0000
0010
0000
0010
0100
0000
0000
1000
0000
1000
0001
0000
0000
1100
0000
0000
0011
0000
0000
0100
0000
0001
,  // measure 22
0010
0000
0000
0001
0000
0001
1000
0000
0000
0100
0000
0100
1000
0000
0000
0110
0000
0000
0011
0000
0000
0000
0000
0000
,  // measure 23
0001
0000
0001
0100
0000
0100
0010
0000
0010
1000
0000
1000
0002
0000
0000
2003
0000
0000
3010
0000
0100
0010
1000
0001
,  // measure 24
0020
0000
0000
0000
0000
0032
0000
0000
0000
2003
0000
0000
0000
0000
0000
3001
0100
0001
1000
0000
1000
0010
0100
0001
,  // measure 25
2000
0000
0000
0000
0000
3002
0000
0000
0000
0203
0000
0000
0000
0000
0000
0000
0000
0000
0000
0000
0000
0000
0000
0000
,  // measure 26
0301
1000
0001
1000
0000
0000
0001
1000
0001
1000
0000
0000
0001
1000
0001
1000
0000
0000
0010
0000
0010
0100
0000
0000
,  // measure 27
0001
0000
0000
1000
0000
1000
0100
0000
0000
0010
0000
0010
0100
0000
0000
1100
0000
0000
1010
0000
0000
0001
0000
1000
,  // measure 28
0100
0000
0000
0010
0000
0010
0001
0000
0000
1000
0000
1000
0002
0000
0000
0000
0000
0023
0000
0000
0000
0031
0000
0100
,  // measure 29
0010
0000
0000
1000
0000
1000
0001
0000
0000
0100
0000
0100
0001
0000
0000
0011
0000
0000
1001
0000
0000
0100
0000
0010
,  // measure 30
1000
0000
0000
0100
0000
0100
0010
0000
0000
0001
0000
0001
1000
0000
0001
1000
0010
0100
0001
0000
0010
0100
0010
0001
,  // measure 31
0100
0000
0000
0010
0000
0010
1000
0000
0000
0100
0000
0100
0010
0000
0000
0011
0000
0000
1010
0000
0000
0001
0000
0100
,  // measure 32
0010
0000
0000
1000
0000
1000
0001
0000
0000
0100
0000
0100
0020
0000
0000
0000
0000
2030
0000
0000
0000
3100
0000
0010
,  // measure 33
0001
0000
0000
1000
0000
1000
0001
0000
0000
0100
0000
0100
0010
0000
0000
0110
0000
0000
1010
0000
0000
0001
0000
0100
,  // measure 34
0010
0000
0000
1000
0000
1000
0100
0000
0000
0010
0000
0010
0001
0000
0001
1000
0100
1000
0010
0000
0010
1000
0100
0010
,  // measure 35
0001
0000
0001
0010
0100
1000
0010
0000
0010
0100
0001
1000
0002
0000
0023
0000
0230
0000
2300
0000
3020
0000
0230
0000
,  // measure 36
0301
0000
0000
1000
0000
0000
0100
0000
0000
0010
0000
0100
0000
0000
0010
0001
0000
0000
0100
0000
0000
1000
0000
0001
,  // measure 37
0010
0000
0000
0001
0000
0000
0100
0000
0000
1000
0000
0010
0000
0000
1000
0100
0000
0000
0001
0000
0000
0010
0000
0100
,  // measure 38
0010
0000
0000
0001
0000
0000
0100
0000
0000
1000
0000
0010
0000
0000
1000
0100
0000
0000
0001
0000
0000
1000
0000
0010
,  // measure 39
0100
0000
0000
0001
0000
0000
0010
0000
0000
0001
0000
0100
0000
0000
1000
0001
0000
0000
0010
0000
0000
1000
0000
0100
,  // measure 40
0001
0000
0000
0010
0000
0000
0100
0000
0000
0010
0000
0001
0000
0000
0100
1000
0000
0000
0001
0000
0000
1000
0000
0010
,  // measure 41
1000
0000
0000
0100
0000
0000
0010
0000
0000
0100
0000
1000
0000
0000
0001
1000
0000
0000
0001
0000
0000
0100
0000
0001
,  // measure 42
0100
0000
0000
0010
0000
0000
0100
0000
0000
0001
0000
0010
0000
0000
1000
0001
0000
0000
0100
0000
0000
0001
0000
1000
,  // measure 43
0010
0000
0000
1000
0000
0000
0100
0000
0000
0010
0000
0001
1000
0000
0000
0000
0000
0000
0001
0010
0100
1000
0010
0100
,  // measure 44
0002
0000
0000
0000
0000
0203
0000
0000
0000
0320
0000
0000
0000
0000
2030
0000
0000
0000
3001
0000
0000
0100
0000
0000
,  // measure 45
1010
0000
0000
0000
0000
0101
0000
0000
0000
1100
0000
0000
0001
0000
0001
0000
0100
0010
1000
0000
1000
0000
0001
0000
,  // measure 46
0011
0000
0000
0000
;
