#TITLE:mistake;
#SUBTITLE:;
#ARTIST:kkypr;
#TITLETRANSLIT:;
#SUBTITLETRANSLIT:;
#ARTISTTRANSLIT:;
#GENRE:;
#CREDIT:;
#BANNER:mistake-bn.png;
#BACKGROUND:mistake-bg.png;
#LYRICSPATH:;
#CDTITLE:;
#MUSIC:mistake.ogg;
#OFFSET:0.000000;
#SAMPLESTART:17.778000;
#SAMPLELENGTH:20.000000;
#SELECTABLE:YES;
#DISPLAYBPM:162.000000;
#BPMS:0.000000=162.000000
;
#STOPS:
;
#BGCHANGES:;
#KEYSOUNDS:;
#ATTACKS:;

//---------------dance-single - ----------------
#NOTES:
     dance-single:
     :
     Hard:
     12:
     0.615256,0.572523,0.178623,0.138929,0.009923,434.000000,416.000000,18.000000,14.000000,0.000000,0.000000,0.615256,0.572523,0.178623,0.138929,0.009923,434.000000,416.000000,18.000000,14.000000,0.000000,0.000000:
0000
0000
0000
0000
,
0000
0000
0000
0000
,
0000
0000
0000
0000
,
0000
0000
0000
0000
,
1000
0001
0010
0100
0000
1000
1000
0000
,
0010
0100
0001
1000
0000
0100
0100
0000
,
1000
0001
0010
0100
0000
0010
0010
0000
,
0001
0100
0010
1000
0000
0001
0001
0000
,
0010
0001
1000
0001
0000
0100
0100
0000
,
0001
0010
0001
1000
0000
0010
0010
0000
,
0100
0010
1000
0001
0000
1000
1000
0000
,
0001
0010
0100
1000
0000
0001
0001
0000
,
1001
0000
0010
0100
0001
0010
0100
1000
,
0001
0000
1000
0001
0010
0100
1000
0000
,
0101
0000
0010
0100
0001
1000
0100
1000
,
0010
0000
0100
0001
0010
0100
1000
0000
,
1100
0000
0001
1000
0010
0000
1000
0100
,
0001
0000
0010
0001
0100
0010
1000
0000
,
0010
0000
1000
0001
1000
0000
0100
0000
0200
0000
0000
0000
0310
0000
0001
0000
,
1000
0001
0010
0100
1000
0000
0110
0000
,
0011
1000
1000
0001
0100
0010
1000
0000
,
0001
0010
0100
0010
0001
1000
0100
0000
,
1010
0000
0001
0010
0001
0100
1000
0000
,
0010
1000
0100
0010
0002
0000
0100
0000
,
1003
0000
0101
0010
1000
0001
0100
0001
,
0010
0001
0100
0010
1000
0000
1010
0000
,
2000
0001
3001
0010
0100
0001
1000
0100
,
0010
0001
0010
0100
1000
0000
0110
0000
,
1001
0000
0100
0001
1000
0100
1000
0001
,
0010
0000
0001
0200
0000
1000
1300
0000
,
0100
0000
0001
0010
0001
0100
0010
1000
,
0100
0000
1000
0002
0000
1003
0200
0000
,
0310
0000
0011
0100
0001
0010
0100
1000
,
0010
0000
1200
0000
2300
0001
3001
0100
,
0000
0010
1000
0100
1000
0010
0001
0000
,
1010
0000
0010
1000
0100
0010
0001
0000
,
1001
0001
0010
0100
0000
1000
1000
0000
,
0010
0100
0010
0100
0001
1000
0001
1000
,
2200
3000
0001
1300
,
0010
1000
0010
1000
0001
0100
0001
0100
,
0101
0000
1000
0001
0000
0010
0100
0000
,
1000
0100
1000
0100
0010
0001
0010
0001
,
0220
0300
1000
0031
,
0100
1000
0001
0010
0001
1000
0100
0010
,
0011
0000
0100
0010
1000
0001
1000
0100
,
0010
0000
0001
0100
1000
0001
0010
0000
,
0100
0000
1000
0010
1000
0100
0010
0001
,
0100
0000
0100
0001
0010
0001
1000
0000
,
0010
0000
1000
0100
0001
0010
0100
1000
,
0010
1000
0001
0010
0100
0000
0100
0000
,
1000
0000
0001
0010
0001
0000
0100
0000
0200
0000
0000
0000
0310
0000
1000
0000
,
0001
0010
0100
1000
0020
0000
0130
0000
,
0001
0010
0100
1000
0000
0001
0001
0000
,
1000
0010
0001
0010
0100
0001
1000
0100
,
0010
0001
0100
0010
0000
1000
1000
0000
,
0001
0010
0100
1000
0010
1000
0100
0001
,
0010
0100
0010
0001
0000
1000
1000
0000
,
0010
0100
1000
0001
1000
0001
0100
0010
,
1000
0001
0010
0100
0000
0010
0010
0000
,
0001
1000
0100
0001
0100
0010
1000
0010
,
0001
1000
0001
0100
0000
0010
0010
0000
,
1000
0100
0010
0100
0001
0010
1000
0001
,
1000
0001
1000
0010
0000
0100
0100
0000
,
0010
0001
1000
0010
0100
0001
1000
0100
,
0001
0010
0001
0100
0000
1000
1000
0000
,
0100
1000
0001
0010
1000
0010
0001
0100
,
0010
1000
0010
0100
0000
0001
0001
0000
,
1000
0100
1000
0001
0010
0001
0010
0100
;

//---------------dance-single - ----------------
#NOTES:
     dance-single:
     :
     Medium:
     9:
     0.489086,0.505168,0.416787,0.258011,0.000000,345.000000,303.000000,42.000000,26.000000,0.000000,0.000000,0.489086,0.505168,0.416787,0.258011,0.000000,345.000000,303.000000,42.000000,26.000000,0.000000,0.000000:
0000
0000
0000
0000
,
0000
0000
0000
0000
,
0000
0000
0000
0000
,
0000
0000
0000
0000
,
1000
0100
0000
0010
0000
0001
0000
0000
,
0100
0010
0000
1000
0000
0001
0000
0000
,
0010
0001
0000
1000
0000
0100
0000
0000
,
0001
1000
0000
0010
0000
0100
0000
0000
,
0001
0100
0000
0010
0000
1000
0000
0000
,
0010
1000
0000
0100
0000
0001
0000
0000
,
0100
0001
0000
1000
0000
0010
0000
0000
,
1000
0001
0000
0010
0000
0100
0000
0000
,
1001
0000
1100
0000
0001
0100
0010
0000
,
0101
0000
1010
0000
1000
0100
0010
0000
,
0000
0000
0001
1000
0001
0000
0100
0010
,
1000
0001
0011
0110
,
0000
0000
1000
0001
0010
0000
0100
0010
,
0100
1000
1010
0101
,
0000
0001
0010
0001
0200
0000
0320
0000
,
1030
0001
0010
0000
1100
0000
0011
0000
,
0000
1000
0100
0010
0002
0000
2003
0000
,
3010
0000
1000
0100
0002
0000
0023
0000
,
0031
0000
0100
0010
1000
0000
1001
0000
,
0010
0100
0001
0000
0120
0000
2030
0000
,
3001
0000
0010
0001
0100
0000
1100
0000
,
1010
0000
0001
0100
1000
0000
1001
0000
,
0010
0001
0100
0000
0010
1000
0100
0000
,
0001
0010
1000
0000
0101
0000
0011
0000
,
0000
0000
0010
0001
1000
0000
0010
0100
,
0000
0000
0001
2000
0000
3001
2000
0000
,
3000
0000
0100
0010
0001
0000
1000
0001
,
0000
0000
0010
0200
0000
0310
0200
0000
,
0300
0000
1000
0001
1000
0000
0100
0010
,
0000
0000
0120
0000
0032
0000
1003
0100
,
0000
0000
1000
0001
1000
0000
0110
0000
,
1001
0000
0010
0000
0100
0001
1000
0000
,
0011
0000
0000
1000
0000
0000
0100
0000
,
0010
0001
0010
0000
0100
1000
0100
0000
,
2020
3000
0100
0130
,
0001
1000
0001
0000
0100
0010
0100
0000
,
0202
0000
0300
0010
0000
0000
1003
0000
,
0001
0100
0001
0000
1000
0010
1000
0000
,
2200
3000
0010
0310
,
0001
0100
0010
0000
1000
0100
0010
0000
,
1100
0000
0101
0000
0010
1000
0001
0000
,
1001
0000
1010
0000
0100
0010
0001
0000
,
0000
0000
1000
0001
0010
0000
0011
0000
,
0110
0000
1000
0001
0200
0000
0320
0000
,
0030
0000
1000
0001
2000
0000
3020
0000
,
0130
0001
1000
0000
1001
0000
0011
0000
,
0000
1000
0001
1000
0200
0000
0320
0000
,
0031
0100
1000
0000
1100
0000
0101
0000
,
1000
0001
0000
0010
0000
0100
0000
0000
,
1000
0100
0010
0000
0001
0100
0010
0000
,
0100
0001
0000
0010
0000
1000
0000
0000
,
0001
0010
1000
0000
0001
0100
1000
0000
,
0010
0100
0000
0001
0000
1000
0000
0000
,
0100
1000
0001
0000
0010
0100
1000
0000
,
0001
0100
0000
0010
0000
1000
0000
0000
,
0100
0010
0001
0000
1000
0010
0001
0000
,
0010
0100
0000
1010
0000
0110
0000
0000
,
0100
0001
0010
0000
0001
1000
0100
0000
,
1000
0001
0000
0110
0000
0101
0000
0000
,
0001
0010
0100
0000
1000
0001
1000
0000
,
0010
1000
0000
1100
0000
1010
0000
0000
,
0001
0010
0001
0000
0100
0010
1000
0000
,
0100
0010
0000
0011
0000
1001
0000
0000
,
0001
1000
0001
1000
0010
0100
0010
0100
;

//---------------dance-single - ----------------
#NOTES:
     dance-single:
     :
     Easy:
     6:
     0.307628,0.336158,0.138929,0.009923,0.000000,217.000000,203.000000,14.000000,1.000000,0.000000,0.000000,0.307628,0.336158,0.138929,0.009923,0.000000,217.000000,203.000000,14.000000,1.000000,0.000000,0.000000:
0000
0000
0000
0000
,
0000
0000
0000
0000
,
0000
0000
0000
0000
,
0000
0000
0000
0000
,
1000
0000
0001
0000
,
0010
0000
0100
0000
,
1000
0000
0010
0000
,
0100
0000
0001
0000
,
1000
0000
0001
0000
,
0100
0000
0010
0000
,
1000
0000
0100
0000
,
0010
0000
0001
0000
,
0010
0001
1000
0001
,
1000
0100
0010
0001
,
0000
0100
0010
0100
,
0001
0010
1000
0100
,
0000
0010
0100
1000
,
0001
0010
0001
0100
,
0000
0010
0100
0001
,
1000
0001
1000
0100
,
0000
0001
1000
0001
,
0000
0100
0010
0100
,
0000
0001
0010
1000
,
0100
0010
0002
0003
,
1001
1000
0001
0010
,
0001
0100
0010
1000
,
0010
0010
0100
0100
,
0001
1000
0001
1000
,
0000
0010
1000
0001
,
0000
0110
0000
0110
,
0000
1000
0100
0001
,
0000
1001
0000
1001
,
0000
0001
0010
0100
,
0000
1000
1000
1000
,
0000
0001
0100
0010
,
1000
0001
1000
0100
,
0110
0000
0000
0001
,
1000
1000
0001
0001
,
0100
0000
0010
0100
,
0001
0001
1000
1000
,
0100
0000
0000
1000
,
0100
0100
0010
0010
,
0001
0000
0001
1000
,
0010
0010
0100
0100
,
0001
0010
0001
1000
,
0010
0100
0010
1000
,
0000
0001
1000
0010
,
1000
0100
0010
0100
,
0000
1000
0001
0010
,
0001
0100
1000
0010
,
0000
1000
0100
0010
,
0001
1000
0001
0100
,
1001
0000
0000
1000
,
0001
0010
0001
0010
,
0110
0000
1000
1000
,
0010
1000
0010
1000
,
1001
0000
0000
0010
,
0100
0001
0100
0001
,
0110
0000
0100
0100
,
1000
0100
1000
0100
,
0110
0000
0000
0010
,
0001
1000
0001
1000
,
1001
0000
0001
0001
,
0010
0100
0010
0100
,
0110
0000
0000
0010
,
1000
0010
0100
0001
,
1001
0000
0100
0100
,
0001
0010
1000
0100
;

//---------------dance-single - ----------------
#NOTES:
     dance-single:
     :
     Beginner:
     1:
     0.129005,0.167459,0.009923,0.000000,0.000000,91.000000,90.000000,1.000000,0.000000,0.000000,0.000000,0.129005,0.167459,0.009923,0.000000,0.000000,91.000000,90.000000,1.000000,0.000000,0.000000,0.000000:
// measure 0
0000
0000
0000
0000
,  // measure 1
0000
0000
0000
0000
,  // measure 2
0000
0000
0000
0000
,  // measure 3
0000
0000
0000
0000
,  // measure 4
1000
0000
0000
0000
,  // measure 5
0010
0000
0000
0000
,  // measure 6
0100
0000
0000
0000
,  // measure 7
0001
0000
0000
0000
,  // measure 8
1000
0000
0000
0000
,  // measure 9
0100
0000
0000
0000
,  // measure 10
0010
0000
0000
0000
,  // measure 11
0001
0000
0000
0000
,  // measure 12
0010
0000
0010
0000
,  // measure 13
0010
0000
0100
0000
,  // measure 14
0000
0000
1000
0000
,  // measure 15
0001
0000
1000
0000
,  // measure 16
0000
0000
0001
0000
,  // measure 17
0010
0000
0001
0000
,  // measure 18
0000
0000
0100
0000
,  // measure 19
0100
0000
0100
0000
,  // measure 20
0000
0000
0010
0000
,  // measure 21
0000
0000
1000
0000
,  // measure 22
0000
0000
0001
0000
,  // measure 23
1000
0000
0000
0000
,  // measure 24
0000
0000
0010
0000
,  // measure 25
0100
0000
0001
0000
,  // measure 26
1000
0000
1000
0000
,  // measure 27
0001
0000
0010
0000
,  // measure 28
0000
0000
0001
0000
,  // measure 29
1000
0000
0000
0000
,  // measure 30
0000
0000
0010
0000
,  // measure 31
0100
0000
0000
0000
,  // measure 32
0000
0000
0001
0000
,  // measure 33
0100
0000
0010
0000
,  // measure 34
0000
0000
1000
0000
,  // measure 35
1000
0000
0000
0000
,  // measure 36
1001
0000
0000
0000
,  // measure 37
0010
0000
0010
0000
,  // measure 38
0100
0000
0000
0000
,  // measure 39
0001
0000
0001
0000
,  // measure 40
0010
0000
0000
0000
,  // measure 41
0100
0000
0100
0000
,  // measure 42
1000
0000
0000
0000
,  // measure 43
1000
0000
1000
0000
,  // measure 44
0001
0000
0001
0000
,  // measure 45
0001
0000
0100
0000
,  // measure 46
0000
0000
0010
0000
,  // measure 47
1000
0000
0100
0000
,  // measure 48
0000
0000
1000
0000
,  // measure 49
0001
0000
1000
0000
,  // measure 50
0000
0000
0100
0000
,  // measure 51
0100
0000
0100
0000
,  // measure 52
0010
0000
0000
0000
,  // measure 53
0001
0000
1000
0000
,  // measure 54
0001
0000
0000
0000
,  // measure 55
0100
0000
0010
0000
,  // measure 56
0100
0000
0000
0000
,  // measure 57
0001
0000
0010
0000
,  // measure 58
0100
0000
0000
0000
,  // measure 59
1000
0000
0001
0000
,  // measure 60
0100
0000
0000
0000
,  // measure 61
0010
0000
0010
0000
,  // measure 62
0010
0000
0000
0000
,  // measure 63
1000
0000
1000
0000
,  // measure 64
1000
0000
0000
0000
,  // measure 65
0001
0000
0001
0000
,  // measure 66
0001
0000
0000
0000
,  // measure 67
0100
0000
0100
0000
;
