#VERSION:0.83;
#TITLE:melt in my arms;
#SUBTITLE:;
#ARTIST:Honey P feat. Asuka M;
#TITLETRANSLIT:;
#SUBTITLETRANSLIT:;
#ARTISTTRANSLIT:;
#GENRE:;
#ORIGIN:;
#CREDIT:;
#BANNER:melt in my arms.png;
#BACKGROUND:melt in my arms-bg.png;
#PREVIEWVID:;
#JACKET:melt in my arms-jacket.png;
#CDIMAGE:;
#DISCIMAGE:;
#LYRICSPATH:;
#CDTITLE:;
#MUSIC:melt in my arms.ogg;
#OFFSET:0.000000;
#SAMPLESTART:49.553001;
#SAMPLELENGTH:20.000000;
#SELECTABLE:YES;
#DISPLAYBPM:118.000000;
#BPMS:0.000=118.044;
#STOPS:;
#DELAYS:;
#WARPS:;
#TIMESIGNATURES:0.000=4=4;
#TICKCOUNTS:0.000=4;
#COMBOS:0.000=1;
#SPEEDS:0.000=1.000=0.000=0;
#SCROLLS:0.000=1.000;
#FAKES:;
#LABELS:0.000=Song Start;
#BGCHANGES:;
#KEYSOUNDS:;
#ATTACKS:
;

//---------------dance-single - ----------------
#NOTEDATA:;
#CHARTNAME:;
#STEPSTYPE:dance-single;
#DESCRIPTION:;
#CHARTSTYLE:;
#DIFFICULTY:Easy;
#METER:6;
#RADARVALUES:0.198574,0.275865,0.149694,0.000000,0.000000,130.000000,116.000000,14.000000,0.000000,0.000000,0.000000,0.000000,0.000000,0.000000,0.198574,0.275865,0.149694,0.000000,0.000000,130.000000,116.000000,14.000000,0.000000,0.000000,0.000000,0.000000,0.000000,0.000000;
#CREDIT:;
#DISPLAYBPM:118.000000;
#NOTES:
0000
0000
0000
0000
,
0000
0000
0000
0000
,
0000
0000
0000
0000
,
0000
0000
0000
0000
,
0000
0000
0000
0000
,
0000
0000
0000
0000
,
0010
0000
0100
0100
,
0010
0000
0010
0000
,
0100
0000
0000
0000
,
0100
0000
0000
0100
0000
0000
0000
0000
,
1000
0100
1000
0000
,
0010
0001
0100
1000
,
0001
1000
0001
0001
,
1000
0100
1000
0000
,
0010
0001
0010
0010
,
0001
1000
0001
0100
,
1000
0100
1000
1000
,
1001
0100
0001
0000
,
0001
0000
0001
0000
,
1000
1000
0001
0001
,
0001
1000
1000
1000
,
1001
0010
0010
0001
,
0010
0000
0100
0000
,
1001
0000
0000
0100
0000
0000
0000
0000
,
0100
0100
0000
0000
0000
0000
0000
0000
,
1001
0000
0100
0001
0000
0000
0000
0000
,
0100
0001
0100
0001
,
0001
0010
0010
0001
,
0100
0001
0001
1000
,
1001
0000
0100
1001
0000
0000
0000
0000
,
1001
0000
0100
1001
0000
0000
0000
0000
,
0010
0000
0000
0000
0000
0000
0000
0100
,
0000
0100
0100
0000
0000
0000
0000
0000
,
1001
0000
0100
1000
0000
0000
0000
0000
,
0100
1000
0100
1000
,
1000
0010
0010
1000
,
0100
1000
1000
0001
,
1001
0000
0100
1001
0000
0000
0000
0000
,
1001
0000
0100
1001
0000
0000
0000
0000
,
0010
0000
0000
0000
0000
0000
0000
0100
,
0000
0100
0100
0000
0000
0000
0000
0000
,
0010
0010
0010
0010
,
0010
0010
0010
0010
,
1001
0000
0000
0000
;

//---------------dance-single - ----------------
#NOTEDATA:;
#CHARTNAME:;
#STEPSTYPE:dance-single;
#DESCRIPTION:;
#CHARTSTYLE:;
#DIFFICULTY:Medium;
#METER:8;
#RADARVALUES:0.239816,0.298854,0.160387,0.000000,0.032077,157.000000,142.000000,15.000000,0.000000,0.000000,0.000000,0.000000,0.000000,0.000000,0.239816,0.298854,0.160387,0.000000,0.032077,157.000000,142.000000,15.000000,0.000000,0.000000,0.000000,0.000000,0.000000,0.000000;
#CREDIT:;
#DISPLAYBPM:118.000000;
#NOTES:
0000
0000
0000
0000
,
0000
0000
0000
0000
,
0000
0000
0000
0000
,
0000
0000
0000
0000
,
0000
0000
0000
0000
,
0000
0000
0000
0000
,
1000
1000
1000
0100
,
0001
0001
0001
0010
,
1000
0010
0000
0010
0000
0001
0000
1000
,
1000
0000
1000
0100
0000
0001
0000
0000
,
1000
0000
1000
0010
0000
0001
0000
0000
,
0001
0000
0001
0100
0000
1000
0000
0000
,
1000
0000
1000
0010
0000
0001
0000
0000
,
0100
0000
0100
1000
0000
0010
0000
0000
,
0010
0000
0010
0001
0000
0100
0000
0000
,
0100
0000
0100
1000
0000
0010
0000
0000
,
1000
0000
0100
0000
0100
0000
1000
0100
,
1001
0000
1000
0001
1000
0001
0000
0000
,
0100
0000
0100
0010
0100
0010
0000
0000
,
0001
0000
0001
1000
0001
1000
0000
0000
,
0010
0000
0010
0100
0010
0100
0000
0000
,
0110
0000
1000
1000
0000
0001
0000
0000
,
0100
0000
0001
0001
0000
1000
0000
0000
,
1010
0000
0100
1000
0000
1001
0000
0000
,
0100
0100
0000
1000
0000
0100
0000
0000
,
1001
0000
0100
0001
0000
0000
0000
0000
,
0000
1000
0010
0000
1000
0010
0000
0000
,
0110
0000
0000
0100
0000
0000
0000
0000
,
0000
0000
1000
0000
0100
0010
0000
0001
0000
0000
0100
0000
0010
0000
0100
0000
,
1001
0000
0000
0110
0000
0000
0000
0000
,
0100
0000
0000
0100
0000
0000
1001
0000
0000
0000
0000
0000
0000
0000
0000
0000
,
0100
0000
0000
0000
0000
0000
0000
0001
,
0000
0100
0100
0000
0000
1000
0000
0000
,
1001
0000
0100
1000
0000
0000
0000
0000
,
0000
0001
0010
0000
0001
0010
0000
0000
,
0110
0000
0000
0100
0000
0000
0000
0000
,
0000
0000
1000
0000
0100
0010
0000
0001
0000
0000
0100
0000
0010
0000
0100
0000
,
1001
0000
0000
0110
0000
0000
0000
0000
,
0100
0000
0000
0100
0000
0000
1001
0000
0000
0000
0000
0000
0000
0000
0000
0000
,
0100
0000
0000
0000
0000
0000
0000
1000
,
0000
0100
0100
0000
0000
0000
0000
0000
,
1000
1000
1000
1000
,
0001
0001
0001
0100
,
1001
0000
0000
0000
;

//---------------dance-single - ----------------
#NOTEDATA:;
#CHARTNAME:;
#STEPSTYPE:dance-single;
#DESCRIPTION:;
#CHARTSTYLE:;
#DIFFICULTY:Hard;
#METER:9;
#RADARVALUES:0.259674,0.298854,0.245926,0.000000,0.064155,170.000000,147.000000,23.000000,0.000000,0.000000,0.000000,0.000000,0.000000,0.000000,0.259674,0.298854,0.245926,0.000000,0.064155,170.000000,147.000000,23.000000,0.000000,0.000000,0.000000,0.000000,0.000000,0.000000;
#CREDIT:;
#DISPLAYBPM:118.000000;
#NOTES:
// measure 0
0000
0000
0000
0000
,  // measure 1
0000
0000
0000
0000
,  // measure 2
0000
0000
0000
0000
,  // measure 3
0000
0000
0000
0000
,  // measure 4
0000
0000
0000
0000
,  // measure 5
0000
0000
0000
0000
,  // measure 6
1000
1000
1000
0100
,  // measure 7
0001
0001
0001
0010
,  // measure 8
1000
0010
0000
0010
0000
0001
0000
1000
,  // measure 9
1000
0000
1000
0001
0000
0101
0000
0000
,  // measure 10
0001
0000
0001
1000
0000
1010
0000
0000
,  // measure 11
0010
0000
0010
0100
0000
0101
0000
0000
,  // measure 12
0001
0000
0000
0000
0000
0000
0001
0000
0000
0000
0100
0000
0000
1000
0000
0000
,  // measure 13
1000
0000
0000
1000
0000
0000
0010
0100
,  // measure 14
0001
0000
0001
1000
0000
0101
0000
0000
,  // measure 15
0010
0000
0010
0100
0000
1100
0000
0000
,  // measure 16
1000
0000
0100
0000
0100
0000
1000
0100
,  // measure 17
1001
0000
0010
1000
0100
0001
0000
0000
,  // measure 18
0001
0000
0010
0001
0100
1000
0000
0000
,  // measure 19
0010
0000
0001
0001
0001
1000
0000
0000
,  // measure 20
0010
0000
1000
1000
1000
0001
0000
0000
,  // measure 21
0110
0000
1000
0100
0000
0001
0000
0000
,  // measure 22
0010
0000
0001
0100
0000
1000
0000
0000
,  // measure 23
1010
0000
0100
1000
0000
1001
0000
0000
,  // measure 24
0100
0100
0000
1000
0000
0100
0000
0000
,  // measure 25
1001
0000
0100
0001
0000
0000
0000
0000
,  // measure 26
0000
0000
1000
0010
0001
0000
0000
0000
1000
0010
0001
0000
0000
0000
0000
0000
,  // measure 27
0110
0000
0000
0100
0000
0000
0000
0000
,  // measure 28
0000
0000
1000
0000
0100
0010
0000
0001
0000
0000
0100
0000
0010
0000
0100
0000
,  // measure 29
1001
0000
0000
0110
0000
0000
0000
0000
,  // measure 30
0100
0000
0000
0100
0000
0000
1001
0000
0000
0000
0000
0000
0000
0000
0000
0000
,  // measure 31
0100
0000
0000
0000
0000
0000
0000
0101
,  // measure 32
0000
0100
0100
0000
0000
0011
0000
0000
,  // measure 33
1001
0000
0100
1000
0000
0000
0000
0000
,  // measure 34
0000
0000
0001
0010
1000
0000
0000
0000
0001
0010
1000
0000
0000
0000
0000
0000
,  // measure 35
0110
0000
0000
0100
0000
0000
0000
0000
,  // measure 36
0000
0000
0001
0000
0100
0010
0000
1000
0000
0000
0100
0000
0010
0000
0100
0000
,  // measure 37
1001
0000
0000
0110
0000
0000
0000
0000
,  // measure 38
0100
0000
0000
0100
0000
0000
1001
0000
0000
0000
0000
0000
0000
0000
0000
0000
,  // measure 39
0100
0000
0000
0000
0000
0000
0000
1100
,  // measure 40
0000
0100
0100
0000
0000
0000
0000
0000
,  // measure 41
1000
1000
1000
1000
,  // measure 42
0001
0000
0000
0000
0001
0000
0000
0000
0001
0000
0000
0000
0100
0100
0000
0000
,  // measure 43
1001
0000
0000
0000
;

//---------------dance-double - ----------------
#NOTEDATA:;
#CHARTNAME:;
#STEPSTYPE:dance-double;
#DESCRIPTION:;
#CHARTSTYLE:;
#DIFFICULTY:Easy;
#METER:5;
#RADARVALUES:0.192464,0.275865,0.139002,0.000000,0.000000,126.000000,113.000000,13.000000,0.000000,0.000000,0.000000,0.000000,0.000000,0.000000,0.192464,0.275865,0.139002,0.000000,0.000000,126.000000,113.000000,13.000000,0.000000,0.000000,0.000000,0.000000,0.000000,0.000000;
#CREDIT:;
#DISPLAYBPM:118.000000;
#NOTES:
00000000
00000000
00000000
00000000
,
00000000
00000000
00000000
00000000
,
00000000
00000000
00000000
00000000
,
00000000
00000000
00000000
00000000
,
00000000
00000000
00000000
00000000
,
00000000
00000000
00000000
00000000
,
00100000
00100000
00010000
00001000
,
00000010
00000000
00000010
00000000
,
00000100
00000000
00000000
00000000
,
00000100
00000000
00000000
00000100
00000000
00000000
00000000
00000000
,
00000001
00000001
00000100
00000000
,
00000010
00000001
00000100
00001000
,
00000001
00000001
00001000
00000000
,
00001000
00001000
00000001
00000000
,
00001000
00010000
01000000
00010000
,
10000000
10000000
00010000
10000000
,
00100000
00000000
00100000
00000000
,
10010000
01000000
00010000
00000000
,
00010000
00000000
00001000
00001000
,
00010000
00000100
00001000
00000100
,
00000001
00000000
00000001
00000000
,
00001001
00000010
00000010
00001000
,
00010000
00000000
01000000
00000000
,
10010000
00000000
00000000
00010000
00000000
00000000
00000000
00000000
,
00010000
00010000
00000000
00000000
00000000
00000000
00000000
00000000
,
00011000
00000000
01000000
00010000
00000000
00000000
00000000
00000000
,
00001000
00000100
00001000
00000001
,
00000001
00000010
00000010
00001000
,
00010000
01000000
01000000
00010000
,
00011000
00000000
00000100
00011000
00000000
00000000
00000000
00000000
,
00011000
00000000
01000000
00011000
00000000
00000000
00000000
00000000
,
00000100
00000000
00000000
00000000
00000000
00000000
00000000
01000000
,
00000000
01000000
01000000
00000000
00000000
00000000
00000000
00000000
,
10010000
00000000
01000000
00010000
00000000
00000000
00000000
00000000
,
00001000
00000100
00001000
00000001
,
00000001
00000010
00000010
00001000
,
00000100
00010000
00001000
00001000
,
00001001
00000000
00000100
00001001
00000000
00000000
00000000
00000000
,
00011000
00000000
01000000
01000000
00000000
00000000
00000000
00000000
,
01000000
00000000
00000000
00000000
00000000
00000000
00000000
00010000
,
00000000
00010000
00010000
00000000
00000000
00000000
00000000
00000000
,
00100000
00100000
00100000
00100000
,
00001000
00001000
00001000
00001000
,
00001001
00000000
00000000
00000000
;

//---------------dance-double - ----------------
#NOTEDATA:;
#CHARTNAME:;
#STEPSTYPE:dance-double;
#DESCRIPTION:;
#CHARTSTYLE:;
#DIFFICULTY:Medium;
#METER:8;
#RADARVALUES:0.236761,0.275865,0.149694,0.000000,0.037424,155.000000,141.000000,14.000000,0.000000,0.000000,0.000000,0.000000,0.000000,0.000000,0.236761,0.275865,0.149694,0.000000,0.037424,155.000000,141.000000,14.000000,0.000000,0.000000,0.000000,0.000000,0.000000,0.000000;
#CREDIT:;
#DISPLAYBPM:118.000000;
#NOTES:
00000000
00000000
00000000
00000000
,
00000000
00000000
00000000
00000000
,
00000000
00000000
00000000
00000000
,
00000000
00000000
00000000
00000000
,
00000000
00000000
00000000
00000000
,
00000000
00000000
00000000
00000000
,
00100000
00100000
00100000
01000000
,
00010000
00010000
00010000
10000000
,
01000000
00010000
00000000
00010000
00000000
00010000
00000000
00000100
,
00000010
00000000
00000010
00001000
00000000
00010000
00000000
00000000
,
00100000
00000000
00100000
00010000
00000000
00001000
00000000
00000000
,
00000100
00000000
00000100
00001000
00000000
00010000
00000000
00000000
,
01000000
00000000
01000000
00010000
00000000
00001000
00000000
00000000
,
00000010
00000000
00000001
00000001
00000000
00000100
00001000
00010000
,
00000000
00000000
00000100
00010000
00000000
00100000
00000000
00000000
,
10000000
00000000
10000000
00010000
00000000
10000000
00000000
00000000
,
10000000
00000000
01000000
00000000
01000000
00000000
00010000
00001000
,
00011000
00000000
00000100
00000100
00000100
00000001
00000000
00000000
,
00000010
00000000
00000000
00001000
00000000
00100000
00000000
00000000
,
01000000
00000000
01000000
00010000
00000000
00001000
00000000
00000000
,
00001000
00000001
00001000
00000001
,
00001001
00000000
00000100
00000100
00000000
00001000
00000000
00000000
,
00100000
00000000
00001000
00001000
00000000
01000000
00000000
00000000
,
01010000
00000000
00010000
00001000
00000000
00000110
00000000
00000000
,
00000001
00000001
00000000
00001000
00000000
00000100
00000000
00000000
,
00011000
00000000
00001000
00000100
00000000
00000000
00000000
00000000
,
00000000
00000010
00001000
00000000
00010000
00100000
00000000
00000000
,
10010000
00000000
00000000
01000000
00000000
00000000
00000000
00000000
,
00000000
00000000
10000000
00000000
01000000
00100000
00000000
00010000
00000000
00000000
00001000
00000000
00000100
00000000
00000001
00000000
,
00000110
00000000
00000000
00011000
00000000
00000000
00000000
00000000
,
00000100
00000000
00000000
00010000
00000000
00000000
01000000
00000000
00000000
00000000
00000000
00000000
00000000
00000000
00000000
00000000
,
00100000
00000000
00000000
00000000
00000000
00000000
00000000
00011000
,
00000000
00010000
00001000
00000000
00000000
00000100
00000000
00000000
,
00100000
00000000
10000000
01000000
00000000
00000000
00000000
00000000
,
00000000
00100000
00010000
00000000
00001000
00000010
00000000
00000000
,
00001001
00000000
00000000
00000100
00000000
00000000
00000000
00000000
,
00000000
00000000
00000001
00000000
00000100
00000010
00000000
00001000
00000000
00000000
00010000
00000000
01000000
00000000
10000000
00000000
,
01100000
00000000
00000000
00011000
00000000
00000000
00000000
00000000
,
01000000
00000000
00000000
00001000
00000000
00000000
00000100
00000000
00000000
00000000
00000000
00000000
00000000
00000000
00000000
00000000
,
00000010
00000000
00000000
00000000
00000000
00000000
00000000
00011000
,
00000000
00001000
00010000
00000000
00000000
01000000
00000000
00000000
,
10000000
10000000
10000000
00010000
,
00001000
00000000
00000000
00000000
00000001
00000000
00000000
00000000
00000001
00000000
00000000
00000000
00000100
00000100
00000000
00000000
,
00001001
00000000
00000000
00000000
;

//---------------dance-double - ----------------
#NOTEDATA:;
#CHARTNAME:;
#STEPSTYPE:dance-double;
#DESCRIPTION:;
#CHARTSTYLE:;
#DIFFICULTY:Hard;
#METER:10;
#RADARVALUES:0.455193,0.459775,0.470467,0.299388,0.106924,298.000000,254.000000,44.000000,28.000000,0.000000,0.000000,0.000000,0.000000,0.000000,0.455193,0.459775,0.470467,0.299388,0.106924,298.000000,254.000000,44.000000,28.000000,0.000000,0.000000,0.000000,0.000000,0.000000;
#CREDIT:;
#DISPLAYBPM:118.000000;
#NOTES:
00000000
00000000
00000000
00000000
,
00000000
00000000
00000000
00000000
,
00000000
00000000
00000000
00000000
,
00000000
00000000
00000000
00000000
,
00000000
00000000
00000000
00000000
,
00010000
00000000
00100000
00000000
00020000
00000000
00000000
10000000
00000000
00000000
01030000
00000000
00000000
00000000
00001000
00000000
,
00010000
00000010
00000000
00000000
00000200
00000000
00000000
00001000
00000000
00000000
00000310
00000000
00000000
00000000
00000001
00000000
,
00001000
00000100
00000000
00000000
00200000
00000000
00000000
00001000
00000000
00000000
01300000
00000000
00000000
00000000
00010000
00000000
,
10000000
11000000
00000000
00110000
00000000
00001100
00000000
00000011
,
00000001
00000010
00000001
00001200
00000000
00010000
00010300
00000000
,
00100000
00001000
00010000
00010200
00000000
00100000
00100300
00010000
,
10000000
00100000
01000000
01020000
00000000
10000000
10030000
00010000
,
00210000
00000000
00301000
00102000
00000000
00010000
00013000
00000000
,
00000100
00001000
00000001
00001002
00000000
00000010
00000013
00000000
,
00000001
00001000
00000100
00020100
00000000
00001000
00031000
01000000
,
00100000
10000000
00010000
01020000
00000000
00100000
00130000
00010000
,
10000000
10200000
02300000
03002000
,
00013000
00000000
00011000
00001000
00010000
00000100
00001000
00000002
,
00000100
00000000
00000103
00000001
00000010
00000200
00001000
00000000
,
00000301
00000100
00001000
00100000
00010000
00100000
10000000
00000000
,
01000000
00100000
00010000
01000000
00100000
00001000
00100000
01000000
,
01010000
00000000
00010000
00100000
10000000
00100000
00010000
01000000
,
01100000
00000000
00001000
00100000
00001000
00010000
00000010
00000100
,
00000001
00000010
00000001
00000100
00000010
00001000
00000100
00010000
,
00011000
00011000
00000000
02000000
00000000
00010000
03010000
10000000
,
11000000
10000000
00010000
02010000
00000000
00001000
03001000
00011000
,
00000000
00000000
00000100
00001000
00000100
00000000
00000000
00000000
00100000
00010000
00100000
00000000
00001000
00000000
00010000
00000000
,
00010100
00001000
00000010
00000210
00000000
00000301
00001000
00000100
,
00000000
00000000
00010000
00000000
00010000
00001000
00000000
00100000
00000000
00010000
01000000
00000000
00100000
00000000
10000000
00000000
,
11000000
00100000
01000000
10020000
00000000
00130000
00001000
00010000
,
00011000
00000000
00000000
00101000
00000000
00000000
00010100
00000000
00000000
00000000
00000010
00000000
00001000
00000000
00000001
00000000
,
00000012
00000000
00000103
00000010
00001000
00000100
00010000
00011000
,
00000000
01010000
01010000
20000000
00000000
00010000
30010000
00100000
,
00101000
00100000
00010000
02010000
00000000
03001000
00010000
00011000
,
00000000
00000000
01000000
00010000
01000000
00000000
00000000
00000000
00001000
00100000
00001000
00000000
00010000
00000000
00000010
00000000
,
00000110
00000100
00000001
00000021
00000000
00001030
00000010
00000001
,
00000000
00000000
00001000
00000000
00001000
00000100
00000000
00010000
00000000
00100000
10000000
00000000
00010000
00000000
01000000
00000000
,
01100000
00100000
10000000
12000000
00000000
10000000
13000000
00010000
,
00110000
00000000
00000000
00011000
00000000
00000000
00001100
00000000
00000000
00000000
00000100
00000000
00010000
00000000
00001000
00000000
,
00201000
00000000
00010000
00000000
00301000
00100000
00010000
10000000
,
00100000
01000000
00010000
00100000
00010000
01000000
00100000
20000000
,
00000000
00010000
30020000
00000000
00100000
00000000
01030000
00000000
,
01000000
00001000
00000000
00010000
00001000
00000000
00000000
00000000
00000000
00000000
00000010
00000000
00000010
00000001
00000100
00000000
,
00000110
00000000
00000000
00000000
;

//---------------dance-double - ----------------
#NOTEDATA:;
#CHARTNAME:;
#STEPSTYPE:dance-double;
#DESCRIPTION:;
#CHARTSTYLE:;
#DIFFICULTY:Challenge;
#METER:12;
#RADARVALUES:0.548370,0.574719,0.598777,0.171079,0.283350,359.000000,303.000000,56.000000,16.000000,0.000000,0.000000,0.000000,0.000000,0.000000,0.548370,0.574719,0.598777,0.171079,0.283350,359.000000,303.000000,56.000000,16.000000,0.000000,0.000000,0.000000,0.000000,0.000000;
#CREDIT:;
#DISPLAYBPM:118.000000;
#NOTES:
00000000
00000000
00000000
00000000
,
00000000
00000000
00000000
00000000
,
00000000
00000000
00000000
00000000
,
00000000
00000000
00000000
00000000
,
00000000
00000000
00000000
00000000
,
00010000
00100000
00000000
00010000
01000000
00000000
00100000
10000000
00000000
01000000
10000000
00000000
00000000
00000000
00010000
00100000
,
00010000
00100000
00000000
00001000
00010000
00000000
00000100
00001000
00000000
00000010
00000100
00000000
00000000
00000000
00000001
00001000
,
00000001
00001000
00000000
00000010
00000100
00000000
00000010
00001000
00000000
00000001
00000100
00000000
00000000
00000000
00000010
00001000
,
00000010
00000000
00010000
00001000
00000000
00000000
00001000
00010000
00000000
00000000
00010000
00001000
00000000
00000000
00001000
00010000
,
00001000
00100000
00010000
10020000
00000000
01000000
01030000
10000000
,
10100000
00100000
01000000
02010000
00000000
00001000
03001000
00010000
,
00010100
00000000
00000100
00000000
00001000
00000000
00001020
00000000
00000000
00000000
00010000
00000000
00010030
00000000
00000010
00000100
,
00000001
00000000
00000010
00000000
00000100
00000000
00001200
00000000
00000000
00000000
00001000
00000000
00000000
00010300
00000000
00000000
,
00101000
00100000
00010000
02010000
00000000
00100000
03100000
10000000
,
11000000
10000000
00010000
00120000
00000000
01000000
01030000
00100000
,
10100000
00000000
10000000
00000000
00010000
00000000
02010000
00000000
00000000
00000000
00001000
00000000
03001000
00010000
00001000
00010000
,
00001000
00000000
00011000
00000000
00000110
00000000
00000011
00000100
,
00001001
00000000
00001000
00001000
00001010
00000010
00000100
00000102
,
00001000
00000000
00000103
00000010
00002010
00003200
00010300
00000000
,
00110000
00001000
00010000
02000000
00000000
10000000
13000000
00100000
,
10010000
00100000
01000000
01002000
00000000
00013000
00002000
00203000
,
00310000
00000000
01010000
00001000
00010000
00000100
00001000
00000001
,
00000011
00000000
00001000
00000010
00000100
00000010
00010000
00001000
,
00100000
00100000
00001000
00001000
00000100
00000100
00000001
00000001
,
00001100
00001100
00000000
00010100
00001000
00010000
01000000
00100000
,
10100000
10000000
00010000
01001000
10000000
00100000
00010000
00101000
,
00000000
00000000
00001000
00010000
00000100
00000000
00000000
00000000
00001000
00000001
00000100
00000000
00000010
00000000
00001000
00000000
,
00001100
00010000
00001000
01000000
00010000
00100000
01000000
10000000
,
00100000
00000000
01010000
00000000
00010000
00100000
00000000
00110000
00000000
00010000
10000000
00000000
11000000
00000000
10010000
00000000
,
00101000
00001000
00010000
00010100
00001000
00000010
00000100
00000001
,
00001001
00000000
00001000
00000010
00000000
00001000
00000020
00000000
00000000
00000000
00000100
00000000
00000130
00000000
00000001
00000000
,
00000011
00000100
00000010
00010000
00001000
00100000
00010000
01010000
,
00000000
00110000
00110000
00011000
00001000
00000100
00001000
00010000
,
10010000
00000000
10000000
00000000
00100000
00000000
01000000
00000000
00001000
00010000
00000000
00001000
00010000
00000000
00001000
00010000
,
00000000
00000000
00001000
01000000
00100000
00000000
00000000
00000000
01000000
00010000
10000000
00000000
00100000
00000000
01000000
00000000
,
01010000
00100000
00001000
00010000
00000010
00000100
00000001
00001000
,
00000100
00000000
00001010
00000000
00000010
00010000
00000000
00011000
00000000
00000010
00000100
00000000
00000101
00000000
00001010
00000000
,
00010100
00001000
01000000
01100000
00100000
10000000
00010000
00100000
,
10010000
00000000
10000000
00100000
00000000
10000000
00200000
00000000
00000000
00000000
01000000
00000000
01300000
00000000
00010000
00000000
,
00010100
00000000
00000100
00000000
00001000
00000001
00000000
00001000
00000001
00000000
00000010
00000000
00000100
00000000
00001100
00000000
,
00000000
00011000
00011000
00100000
00010000
01000000
00100000
10000000
,
01000000
10000000
00000000
10000000
00010000
00000000
00010000
00100000
00000000
00100000
00001000
00000000
00000000
00001000
00010000
00001000
,
00010000
00000100
00000000
00000100
00000010
00000000
00000000
00000000
00000000
00000000
00001000
00000001
00001000
00001000
00000000
00010000
,
00000100
00000000
00000000
00000000
;

//---------------dance-single - ----------------
#NOTEDATA:;
#CHARTNAME:;
#STEPSTYPE:dance-single;
#DESCRIPTION:;
#CHARTSTYLE:;
#DIFFICULTY:Challenge;
#METER:12;
#RADARVALUES:0.481160,0.482764,0.459775,0.128309,0.160387,315.000000,272.000000,43.000000,12.000000,0.000000,0.000000,0.000000,0.000000,0.000000,0.481160,0.482764,0.459775,0.128309,0.160387,315.000000,272.000000,43.000000,12.000000,0.000000,0.000000,0.000000,0.000000,0.000000;
#CREDIT:;
#DISPLAYBPM:118.000000;
#NOTES:
0000
0000
0000
0000
,
0000
0000
0000
0000
,
0000
0000
0000
0000
,
0000
0000
0000
0000
,
0000
0000
0000
0000
,
1000
0010
0000
1000
0020
0000
0000
0100
0000
0000
0130
0000
0000
0000
0001
0000
,
0100
0010
0000
0100
0020
0000
0000
1000
0000
0000
1030
0000
0000
0000
0001
0000
,
0100
0001
0000
0100
0002
0000
0000
0010
0000
0000
0013
0000
0000
0000
1000
0001
,
1000
1100
0000
0011
0000
1010
0000
0101
,
1001
1000
0100
0010
0001
1000
0010
0000
,
0100
0010
1000
0001
0010
0001
1000
0100
,
1000
0010
0100
0001
0010
0100
1000
0000
,
0001
0000
0100
0000
0010
0000
2000
0000
0000
0000
0100
0000
0000
3001
0000
0000
,
0101
0001
1000
0010
1000
0100
0010
0000
,
0001
1000
0010
0100
0001
0010
0100
1000
,
0010
0100
0010
1000
0100
0010
0001
1000
,
0000
0100
1100
0000
0110
0000
0011
0000
,
1001
0000
0010
1000
0100
0010
0001
2000
,
0010
0000
3001
1000
0010
0200
0001
0000
,
0310
0100
0001
0010
0001
1000
0100
0000
,
1000
0000
0010
0000
0100
0000
0001
0000
1000
0100
1000
0000
0001
0000
0010
0000
,
0011
0000
0001
0100
0010
0001
0010
1000
,
0100
0000
1000
0010
0001
0010
1000
0000
,
1100
1000
0010
0100
0001
1000
0001
0100
,
0110
0110
0000
1002
0000
0010
0010
0013
,
0011
0001
1000
1200
0000
1300
0010
0110
,
0000
0000
0001
0010
1000
0000
0000
0000
0001
0100
1000
0000
0010
0000
0100
0000
,
0110
0010
1000
0100
0001
0100
0010
0100
,
0000
0000
1100
0000
1000
0010
0000
0100
0000
0001
1000
0000
0001
0000
0010
0000
,
1001
0001
0100
0102
0000
1000
1003
0001
,
0011
0000
0000
1010
0000
0000
0011
0000
0000
0000
0100
0000
0100
0000
1000
0000
,
1010
0010
1000
0001
0001
0010
0100
1100
,
0000
0011
0011
2001
0000
0100
0100
3100
,
1100
1000
0010
0100
0001
0010
0100
1000
,
0000
0000
1000
0010
0001
0000
0000
0000
1000
0100
0001
0000
0010
0000
0100
0000
,
0011
0001
1000
0010
0001
0010
0100
0001
,
0000
0000
0101
0000
0100
0010
0000
1000
0000
0001
0010
0000
0100
0000
1000
0000
,
1001
0001
0010
0012
0000
1000
1003
0001
,
1100
0000
0000
0101
0000
0000
1100
0000
0000
0000
0001
0000
0001
0000
1000
0000
,
0110
0001
0100
0010
1000
0001
0100
0101
,
0000
1001
1001
1000
0010
0100
0001
1000
,
0100
0000
0100
0000
0002
0000
0000
1000
0000
0000
1003
0000
0000
0000
0001
0010
,
0000
0001
0000
1000
0010
0000
0000
0000
0000
0000
1000
0001
1000
0001
1000
0000
,
1100
0000
0000
0000
;

//---------------dance-single - ----------------
#NOTEDATA:;
#CHARTNAME:;
#STEPSTYPE:dance-single;
#DESCRIPTION:;
#CHARTSTYLE:;
#DIFFICULTY:Beginner;
#METER:1;
#RADARVALUES:0.087067,0.114944,0.064155,0.000000,0.000000,57.000000,51.000000,6.000000,0.000000,0.000000,0.000000,0.000000,0.000000,0.000000,0.087067,0.114944,0.064155,0.000000,0.000000,57.000000,51.000000,6.000000,0.000000,0.000000,0.000000,0.000000,0.000000,0.000000;
#CREDIT:;
#DISPLAYBPM:118.000000;
#NOTES:
0000
0000
0000
0000
,
0000
0000
0000
0000
,
0000
0000
0000
0000
,
0000
0000
0000
0000
,
0000
0000
0000
0000
,
1000
0000
0000
0000
,
0001
0000
0000
0000
,
1000
0000
0000
0000
,
1001
0000
0000
0000
,
0110
0000
0000
0000
,
0000
0000
1000
0000
,
0001
0000
0001
0000
,
0010
0000
0010
0000
,
0001
0000
0000
0000
,
0000
0000
1000
0000
,
0100
0000
0100
0000
,
0000
0000
0000
0000
,
1001
0000
0000
0000
,
0001
0000
0000
0000
,
0100
0000
0000
0000
,
1000
0000
0000
0000
,
0110
0000
0000
0000
,
0010
0000
0000
0000
,
1000
0000
1000
0000
,
1000
0000
0000
0000
,
0001
0000
0010
0000
,
0100
0000
0000
0000
,
1000
0000
0001
0000
,
1000
0000
0001
0000
,
0010
0000
0001
0000
,
1000
0000
0001
0000
,
0100
0000
0000
0000
,
0110
0000
0000
0000
,
0001
0000
1000
0000
,
0010
0000
0000
0000
,
0100
0000
0010
0000
,
1000
0000
0001
0000
,
0010
0000
0100
0000
,
1000
0000
0000
0000
,
0010
0000
0000
0000
,
0100
0000
0100
0000
,
0100
0000
0000
0000
,
0000
0000
0000
0000
,
1001
0000
0000
0000
;
