#TITLE:lilithave66;
#SUBTITLE:;
#ARTIST:siouxxie;
#TITLETRANSLIT:;
#SUBTITLETRANSLIT:;
#ARTISTTRANSLIT:;
#GENRE:;
#CREDIT:;
#BANNER:lilithave66-bn.png;
#BACKGROUND:lilithave66-bg.png;
#LYRICSPATH:;
#CDTITLE:;
#MUSIC:lilithave66.ogg;
#OFFSET:0.000000;
#SAMPLESTART:86.224998;
#SAMPLELENGTH:20.000000;
#SELECTABLE:YES;
#DISPLAYBPM:100.000000;
#BPMS:0.000000=100.264999
;
#STOPS:
;
#BGCHANGES:;
#KEYSOUNDS:;
#ATTACKS:;

//---------------dance-single - ----------------
#NOTES:
     dance-single:
     :
     Medium:
     10:
     0.458716,0.518922,0.330275,0.385321,0.192661,350.000000,314.000000,36.000000,42.000000,0.000000,0.000000,0.458716,0.518922,0.330275,0.385321,0.192661,350.000000,314.000000,36.000000,42.000000,0.000000,0.000000:
0000
0000
0000
0000
,
1010
0000
0001
0000
1000
0000
0010
0000
0100
0000
0001
0000
0000
0000
1000
0100
,
1000
0000
0001
0000
0010
0000
0001
0000
0100
0000
0010
0000
0000
0000
1000
0100
,
1000
0000
0010
0000
0100
0000
0001
0000
1000
0000
0001
0000
0000
0000
0010
0100
,
0010
0000
0001
0000
0100
0000
0010
0000
1000
0000
0100
0000
0000
0000
1000
0001
,
1000
0010
0001
0100
0020
0000
2030
0000
,
3100
0000
0010
0000
0001
0000
1000
0001
2000
0000
0000
0000
3200
0000
0000
0000
,
0310
0000
0001
1000
0001
0000
0100
0000
0020
0000
0000
0000
2030
0000
0000
0000
,
3001
1000
0100
0010
0001
0110
1001
0110
,
1001
0010
0001
0100
1000
1100
0101
1100
,
0101
1000
0001
0010
0100
1000
0001
1010
,
0020
0000
0230
0000
0301
0010
0100
1000
,
1010
0101
1000
1000
0001
0001
0010
0100
,
1100
0011
0100
0100
0010
0010
1000
0001
,
0011
1010
0001
0001
1000
1000
0010
0100
,
0101
1100
0010
0010
0100
0100
0002
2003
,
3000
0000
2000
0000
0000
3001
0100
0000
0000
0000
0020
0000
0000
1030
0100
0000
,
0000
0000
0002
0000
0000
1003
0010
0000
0000
0000
0200
0000
0000
0301
1000
0000
,
0000
0000
0002
0000
0000
0013
0100
0000
0000
0000
2000
0000
0000
3001
0010
0000
,
0000
0000
0020
0000
0000
0130
1000
0000
0000
0000
0200
0000
0000
1300
0001
0000
,
0220
0000
0000
0000
0330
0000
1000
0001
1000
0000
0010
0000
0100
0000
0001
0000
,
0011
0000
0100
1000
0010
0100
0001
1000
,
1100
0000
1000
0010
1000
0100
0010
0001
,
0101
0000
0010
0100
0010
1000
0001
0100
,
1010
0000
0001
0010
1000
0100
0010
0001
,
1001
0000
0100
0001
1000
0001
0010
0100
,
0110
0000
0001
0100
0010
1000
0001
1000
,
1100
0000
0010
0001
1000
0010
1000
0100
,
0011
0000
1000
0010
0100
0001
0010
0100
,
1000
0000
0010
0000
0100
0000
0001
0000
0010
0000
0100
0000
1000
0001
0000
0000
,
1000
0010
1000
0000
0002
0000
0203
0000
0310
0000
1000
0000
0100
0000
0001
0000
,
0000
0000
1000
0001
1000
0000
0100
0000
0010
0000
0001
0000
0101
0000
1001
0000
,
0000
0000
0010
0100
0010
0000
1000
0000
0001
0000
0100
0000
0110
0000
1001
0000
,
0000
0000
0001
0010
0001
0000
0000
1000
0010
0000
0100
0000
1010
0000
0000
0000
,
0000
0000
0100
1000
0100
0000
0000
0010
0001
0000
1000
0000
0001
0000
0010
0000
,
1100
0000
0001
0000
0100
0000
0000
0000
0010
0000
0120
0000
2000
0030
0000
0000
,
3000
0000
0002
0000
0000
1003
0100
0000
0000
0000
0200
0000
0000
1300
0010
0000
,
0000
0000
0020
0000
0000
0130
0001
0000
0000
0000
2000
0000
0000
3001
0010
0000
,
0000
0000
0200
0000
0000
1300
0001
0000
0000
0000
0020
0000
0000
0031
1000
0000
,
0000
0000
2000
0000
0000
3010
0100
0000
0000
0000
0002
0000
0000
0103
0010
0000
,
2002
0000
0000
0000
3003
0000
0010
0001
0010
0000
0100
0000
1000
0000
0001
0000
,
0000
0000
0020
0000
0000
0031
1000
0000
0000
0000
0020
0000
0000
0130
0001
0000
,
0000
0000
0200
0000
0000
0301
1000
0000
0000
0000
0200
0000
0000
1300
0010
0000
,
0000
0000
2000
0000
0000
3100
0010
0000
0000
0000
0002
0000
0000
0013
0100
0000
,
0000
0000
2000
0000
0000
3001
0010
0000
0000
0000
0002
0000
0000
1003
0100
0000
,
1000
0000
0000
0000
0000
0000
0000
0000
0000
0000
0001
0000
0000
0000
0000
0000
0000
0000
0000
0000
0000
0000
0000
0000
0000
0000
0000
0000
0000
1000
0000
0000
0000
0000
0000
0000
0000
0000
0000
0000
0000
0000
0000
0000
0000
0000
0000
0000
1100
0000
0000
0000
0000
0000
0000
0000
0000
0000
0000
0000
0000
0000
0000
0000
0000
0000
0000
0000
0000
0000
0000
0000
0000
0000
0000
0000
0000
0000
0000
0000
0000
0000
0000
0000
0000
0000
0000
0000
0000
0000
0000
0000
0000
0000
0000
0000
0000
0000
0000
0000
0000
0000
0000
0000
0000
0000
0000
0000
0000
0000
0000
0000
0000
0000
0000
0000
0000
0000
0000
0000
0000
0000
0000
0000
0000
0000
0000
0000
0000
0000
0000
0000
0000
0000
0000
0000
0000
0000
0000
0000
0000
0000
0000
0000
0000
0000
0000
0000
0000
0000
0000
0000
0000
0000
0000
0000
0000
0000
0000
0000
0000
0000
0000
0000
0000
0000
0000
0000
0000
0000
0000
0000
0000
0000
0000
0000
0000
0000
0000
0000
0000
0000
0000
0000
0000
0000
0000
0000
0000
0000
0000
0000
;

//---------------dance-single - ----------------
#NOTES:
     dance-single:
     :
     Hard:
     14:
     0.633028,0.643463,0.256881,0.715596,0.821101,483.000000,455.000000,28.000000,78.000000,0.000000,0.000000,0.633028,0.643463,0.256881,0.715596,0.821101,483.000000,455.000000,28.000000,78.000000,0.000000,0.000000:
0000
0000
0000
0000
,
1010
0000
0001
0100
2000
0000
3020
0000
1030
0100
1000
0000
0010
0000
0001
0001
,
0001
0000
1000
0010
0200
0000
0320
0000
1030
0001
1000
0000
0100
0000
0010
0010
,
0010
0000
0100
1000
0002
0000
0203
0000
0301
1000
0001
0000
0010
0000
0100
0100
,
1000
0000
0001
1000
0020
0000
0230
0000
0301
0010
0001
0000
1000
0000
0100
0010
,
0001
0000
1000
0010
0200
0000
0302
0000
0023
0000
1000
0000
0130
0000
0001
0000
,
1001
0000
0010
1000
0100
1000
0010
0100
0002
0000
1000
0000
0013
0000
0001
0000
,
0100
0000
0001
0010
0100
1000
0010
0100
0002
0000
2003
0000
0010
0000
3001
0000
,
1000
0000
0001
0010
0100
0000
1000
0010
0100
0000
0110
0000
1001
0000
0110
0000
,
1001
0000
0010
1000
0001
1000
0100
0010
0001
0000
1100
0000
0101
0000
0010
0100
,
0010
0000
1000
0001
1000
0100
0010
0001
0100
0000
0101
0000
1010
0000
1100
0000
,
0012
0000
0000
0000
2003
0000
0000
0000
3010
0100
0001
1000
0010
0100
0001
1000
,
0100
0000
0010
0000
0001
0000
1000
1000
0001
0010
0100
1000
0001
0100
0010
1000
,
0001
0000
0010
0000
0100
0000
1000
0001
1000
0010
0100
0010
1000
0001
0010
0100
,
1000
0000
0001
0000
0100
0010
0100
0010
1000
0001
1000
0100
1000
0001
0100
0001
,
0010
0000
0100
0000
1000
0010
0100
0001
1000
0001
0100
0010
0110
0000
1010
0000
,
0000
0000
2000
0100
0000
0010
3010
0000
0000
0000
0002
1000
0000
0100
0103
0000
,
0000
0000
0200
0010
0000
0001
0301
0000
0000
0000
0020
0001
0000
1000
1030
0000
,
0000
0000
0020
1000
0000
0100
0130
0000
0000
0000
0002
0010
0000
1000
1003
0000
,
0000
0000
0200
0001
0000
1000
1300
0000
0000
0000
2000
0001
0000
0010
3010
0000
,
2100
0000
0000
0000
3002
0000
0010
0010
0013
0100
1000
0002
0000
1000
1003
0000
,
0011
0000
0000
0001
2000
0000
3020
0000
1030
0100
0010
0002
0000
0100
0103
0000
,
0110
0000
0000
0001
0020
0000
0230
0000
1300
0001
1000
0020
0000
0100
0130
0000
,
1010
0000
0000
1000
0200
0000
0320
0000
0130
1000
0001
0020
0000
0001
0031
0000
,
1001
0000
0000
0100
0002
0000
2003
0000
3100
0010
0001
2000
0000
0010
3010
0000
,
1100
0000
0000
1000
0002
0000
0023
0000
0031
0100
0010
2000
0000
0100
3100
0000
,
0110
0000
0000
0001
2000
0000
3200
0000
1300
0010
0100
0002
0000
0010
0013
0000
,
0011
0000
0000
1000
0002
0000
2003
0000
3100
0010
0001
0200
0000
0010
0310
0000
,
0101
0000
0000
0010
0200
0000
0320
0000
1030
0001
1000
0002
0000
0100
0103
0000
,
0001
0010
0001
0010
0100
1000
0100
1000
0020
0000
0130
0001
1000
0100
0000
0000
,
1000
0010
0100
0001
0010
0000
1100
0000
0001
1000
0000
1000
0020
0000
0230
0000
,
0310
0000
1000
0100
0001
0100
0010
1000
0010
0100
0010
0001
0100
0000
0010
0000
,
0000
0000
1000
0010
0001
0010
1000
0100
0001
0100
1000
0000
0110
0000
1001
0000
,
0000
1000
0100
0010
0001
0000
0100
0020
0000
1030
0100
0010
0001
0000
1010
0000
,
0000
0001
0100
0010
2000
0001
0000
3010
0100
0010
1000
0001
0200
0000
0302
0000
,
1003
0001
0010
0000
0100
0000
0000
0000
1000
0001
0100
0010
1000
0100
0010
0001
,
0000
0000
0200
0010
0000
0001
0301
0000
0000
0000
0020
0100
0000
1000
1030
0000
,
0000
0000
0002
1000
0000
0100
0103
0000
0000
0000
2000
0001
0000
0010
3010
0000
,
0000
0000
0002
0010
0000
0100
0103
0000
0000
0000
2000
0100
0000
0001
3001
0000
,
0000
0000
0020
1000
0000
0001
0031
0000
0000
0000
0200
1000
0000
0010
0310
0000
,
0102
0000
0000
0000
0023
0000
0100
0100
0130
1000
0001
2000
0000
0001
0002
0000
,
3003
0000
2000
0100
0000
0001
3001
0000
0000
0000
0020
1000
0000
0100
0130
0000
,
0000
0000
0002
0010
0000
0100
0103
0000
0000
0000
0200
1000
0000
0010
0310
0000
,
0000
0000
0002
0010
0000
1000
1003
0000
0000
0000
0020
0100
0000
0001
0031
0000
,
0000
0000
2000
0010
0000
0100
3100
0000
0000
0000
0200
0010
0000
0001
0301
0000
,
1000
0000
0000
0000
0000
0000
0000
0000
0000
0000
0001
0000
0000
0000
0000
0000
0000
0000
0000
1000
0000
0000
0000
0000
0000
0000
0000
0000
0000
0001
0000
0000
0000
0000
0000
0000
0000
0000
1000
0000
0000
0000
0000
0000
0000
0000
0000
0000
0100
0000
0000
0000
0000
0000
0000
0000
0000
0000
0000
0000
0000
0000
0000
0000
0000
0000
0000
0000
0000
0000
0000
0000
0000
0000
0000
0000
0000
0000
0000
0000
0000
0000
0000
0000
0000
0000
0000
0000
0000
0000
0000
0000
0000
0000
0000
0000
0000
0000
0000
0000
0000
0000
0000
0000
0000
0000
0000
0000
0000
0000
0000
0000
0000
0000
0000
0000
0000
0000
0000
0000
0000
0000
0000
0000
0000
0000
0000
0000
0000
0000
0000
0000
0000
0000
0000
0000
0000
0000
0000
0000
0000
0000
0000
0000
0000
0000
0000
0000
0000
0000
0000
0000
0000
0000
0000
0000
0000
0000
0000
0000
0000
0000
0000
0000
0000
0000
0000
0000
0000
0000
0000
0000
0000
0000
0000
0000
0000
0000
0000
0000
0000
0000
0000
0000
0000
0000
0000
0000
0000
0000
0000
0000
;

//---------------dance-single - ----------------
#NOTES:
     dance-single:
     :
     Easy:
     8:
     0.277851,0.290596,0.091743,0.366972,0.000000,212.000000,202.000000,10.000000,40.000000,0.000000,0.000000,0.277851,0.290596,0.091743,0.366972,0.000000,212.000000,202.000000,10.000000,40.000000,0.000000,0.000000:
0000
0000
0000
0000
,
0000
0010
0100
0000
0001
1000
0000
0000
,
0000
1000
0100
0000
0010
0001
0000
0000
,
0000
0100
0001
0000
1000
0010
0000
0000
,
0000
1000
0001
0000
0010
0100
0000
0000
,
0000
0000
0000
0000
1000
0000
0000
0000
0001
0000
0000
0000
0100
0000
0000
0000
0020
0000
0000
0000
0000
0000
0000
0000
0000
0000
0000
0000
0000
0030
0000
0000
,
0000
0000
0000
0000
0100
0000
0000
0000
0010
0000
0000
0000
1000
0000
0000
0000
0002
0000
0000
0000
0000
0000
0000
0000
0000
0000
0000
0000
0000
0003
0000
0000
,
0000
0000
0000
0000
0001
0000
0000
0000
0010
0000
0000
0000
0100
0000
0000
0000
2000
0000
0000
0000
0000
0000
0000
0000
0000
0000
0000
0000
0000
3000
0000
0000
,
0000
0010
1000
0001
0200
0010
0010
0310
,
0000
0000
0000
0000
1000
0000
0000
0000
0001
0000
0000
0000
1000
0000
0000
0000
0002
0000
0000
0000
0000
0000
0000
0000
0000
0000
0000
0000
0000
0003
0000
0000
,
0000
0100
0010
0100
0020
0000
0000
0030
,
1000
1100
0001
0101
,
0010
2000
0100
0000
0001
0000
3100
0000
,
1000
0002
0010
0000
0100
0000
0013
0000
,
0001
0200
1000
0000
0010
0000
1300
0000
,
0100
0020
1000
0000
0001
0000
1030
0000
,
0000
0002
0000
0013
0000
0200
0000
1300
,
0000
0020
0000
0130
0000
2000
0000
3001
,
0000
2000
0000
3001
0000
0200
0000
0310
,
0000
0020
0000
1030
0000
0002
0000
0103
,
0020
0000
0030
0000
1000
0001
0100
0000
,
1001
0000
0010
0000
1000
0100
0001
0000
,
0011
0000
0010
0000
0100
1000
0001
0000
,
0101
0000
0001
0000
0010
0100
1000
0000
,
1100
0000
0001
0000
1000
0010
0100
0000
,
1010
0000
0100
0000
1000
0010
0001
0000
,
0110
0000
1000
0000
0100
0010
0001
0000
,
0011
0000
0010
0000
0001
0100
1000
0000
,
1010
0000
1000
0000
0001
0100
0010
0000
,
1000
0001
0010
0000
0100
0010
0001
0000
,
1000
0100
0010
0000
0001
0100
1000
0000
,
0000
0010
0100
0000
0001
0000
1000
0100
,
0000
1000
0001
0000
0010
0000
0001
0100
,
0000
0001
0010
0000
1000
0100
1000
0000
,
0000
1000
0010
0000
0010
0100
0001
0000
,
2000
0000
0000
0000
0002
0000
0000
0000
0000
0000
0000
0000
0000
3003
0000
0000
0000
0000
0000
0000
0020
0000
0000
0000
0200
0000
0000
0000
0000
0330
0000
0000
,
0000
2000
0000
3100
0000
2000
0000
3001
,
0000
0020
0000
0031
0000
0020
0000
0130
,
0000
0200
0000
1300
0000
0200
0000
0310
,
0000
0002
0000
1003
0000
0002
0000
0103
,
0020
0000
0030
0000
1000
0001
0100
0000
,
0000
0020
0000
1030
0000
0020
0000
0130
,
0000
0200
0000
0301
0000
0200
0000
0310
,
0000
2000
0000
3001
0000
2000
0000
3100
,
0000
0002
0000
0013
0000
0002
0000
0103
,
1000
0001
0100
0000
0000
0000
0000
0000
;

//---------------dance-single - ----------------
#NOTES:
     dance-single:
     :
     Beginner:
     5:
     0.154653,0.166055,0.128440,0.000000,0.000000,118.000000,104.000000,14.000000,0.000000,0.000000,0.000000,0.154653,0.166055,0.128440,0.000000,0.000000,118.000000,104.000000,14.000000,0.000000,0.000000,0.000000:
// measure 0
0000
0000
0000
0000
,  // measure 1
0000
0010
0010
0000
,  // measure 2
0000
1000
1000
0000
,  // measure 3
0000
0001
0001
0000
,  // measure 4
0000
0100
0100
0000
,  // measure 5
0000
0001
0001
0000
,  // measure 6
0000
1000
1000
0000
,  // measure 7
0000
0100
0100
0000
,  // measure 8
1000
0000
0000
0000
0000
0010
0010
0010
,  // measure 9
0000
0100
0100
0000
,  // measure 10
0000
0010
0010
0000
,  // measure 11
1001
0000
0000
0000
0000
0000
0000
0010
,  // measure 12
1000
0001
0000
0000
0000
0000
0000
0100
,  // measure 13
0010
1000
0000
0000
0000
0000
0000
0001
,  // measure 14
0010
0100
0000
0000
0000
0000
0000
1000
,  // measure 15
0001
0100
0000
0000
0000
0000
0110
0000
,  // measure 16
0000
0010
0000
0000
0000
0010
0000
0000
,  // measure 17
0000
0100
0000
0000
0000
0100
0000
0000
,  // measure 18
0000
1000
0000
0000
0000
0001
0000
0000
,  // measure 19
0000
1000
0000
0000
0000
0001
0000
0000
,  // measure 20
1001
0000
0010
0000
,  // measure 21
1010
0000
1000
0000
,  // measure 22
1100
0000
0001
0000
,  // measure 23
0101
0000
0010
0000
,  // measure 24
0011
0000
0100
0000
,  // measure 25
0101
0000
1000
0000
,  // measure 26
1010
0000
0100
0000
,  // measure 27
1100
0000
0001
0000
,  // measure 28
0011
0000
0010
0000
,  // measure 29
1000
0100
1000
0001
,  // measure 30
0010
0100
0010
0001
,  // measure 31
0000
1000
0010
1000
,  // measure 32
0000
0001
0010
0001
,  // measure 33
0000
1000
0100
1000
,  // measure 34
0000
0001
0100
0001
,  // measure 35
1001
0000
0000
0110
,  // measure 36
0000
1000
0000
0000
0000
1000
0000
0000
,  // measure 37
0000
0100
0000
0000
0000
0100
0000
0000
,  // measure 38
0000
0010
0000
0000
0000
0010
0000
0000
,  // measure 39
0000
0001
0000
0000
0000
0001
0000
0000
,  // measure 40
0110
0000
1000
0000
,  // measure 41
0000
0001
0000
0000
0000
1000
0000
0000
,  // measure 42
0000
0010
0000
0000
0000
0100
0000
0000
,  // measure 43
0000
0001
0000
0000
0000
0010
0000
0000
,  // measure 44
0000
0100
0000
0000
0000
1000
0000
0000
,  // measure 45
0010
0010
0000
0000
;
