#TITLE:improvisation;
#SUBTITLE:(June 7th);
#ARTIST:silentroom;
#TITLETRANSLIT:;
#SUBTITLETRANSLIT:;
#ARTISTTRANSLIT:;
#GENRE:;
#CREDIT:;
#BANNER:improvisation (June 7th)-bn.png;
#BACKGROUND:improvisation (June 7th)-bg.png;
#LYRICSPATH:;
#CDTITLE:;
#MUSIC:improvisation (June 7th).ogg;
#OFFSET:0.000000;
#SAMPLESTART:43.796001;
#SAMPLELENGTH:20.000000;
#SELECTABLE:YES;
#DISPLAYBPM:137.000000;
#BPMS:0.000000=137.000000
;
#STOPS:
;
#BGCHANGES:;
#KEYSOUNDS:;
#ATTACKS:;

//---------------dance-single - ----------------
#NOTES:
     dance-single:
     :
     Hard:
     17:
     0.806319,0.878571,0.230083,0.417026,1.628559,785.000000,753.000000,32.000000,58.000000,0.000000,0.000000,0.806319,0.878571,0.230083,0.417026,1.628559,785.000000,753.000000,32.000000,58.000000,0.000000,0.000000:
0000
0000
0000
0000
,
0000
0000
0000
0000
,
0000
0000
0000
0000
,
0000
0000
0000
0000
,
0010
0000
0000
0000
0001
1000
0001
1000
0000
0000
0000
0000
0010
0100
0010
0100
,
0010
0000
0000
0000
1000
0001
1000
0001
0000
0000
0000
0000
0100
0010
0100
0010
,
0100
0000
0000
0001
0000
0000
0100
0000
0000
0001
0000
0000
0000
0000
0000
0000
0010
0000
0000
0000
0100
0000
0000
0000
1000
0000
0000
0001
0000
0000
1000
0000
0000
0001
0000
0000
1000
0000
0000
0010
0000
0000
1000
0000
0000
0010
0000
0000
,
0100
0000
0000
0000
0001
0000
0000
0000
1000
0000
0000
0000
0100
0000
0000
0010
0000
0000
0100
0000
0000
0010
0000
0000
0000
0000
0000
0001
0000
0000
0100
0000
0000
0001
0000
0000
1000
0000
0000
0100
0000
0000
0010
0000
0000
0001
0000
0000
,
1000
0100
1000
0001
0000
0100
0000
0010
0000
1000
0001
1000
0000
0010
0000
0100
,
0000
0001
0010
0001
0100
0010
1000
0100
0000
1000
0000
0001
0000
1000
0010
0000
,
1000
0100
0010
0100
0000
0010
0000
0001
0000
0100
0001
1000
0000
0001
0000
0010
,
0000
0000
0000
0000
0001
0000
0000
0000
0100
0000
0000
0000
0001
0000
0000
1000
0000
0000
0010
0000
0000
0100
0000
0000
0010
0000
0000
1000
0000
0000
0000
0000
0000
0001
0000
0000
0000
0000
0000
0000
0000
0000
1000
0000
0000
0010
0000
0000
,
0100
0000
0000
0000
0001
0010
0001
0010
0000
0000
0000
0000
0100
1000
0100
1000
,
0100
0000
0000
0000
1000
0010
1000
0010
0000
0000
0000
0000
0100
0001
0100
0001
,
1000
0000
0000
1000
0001
0100
0001
0010
0000
0000
0000
0010
0100
1000
0001
0100
,
0000
0000
0000
0010
0100
0010
1000
0001
0000
0001
1000
0100
0000
0000
0000
0000
,
1000
0000
0000
0010
1000
0100
0010
0002
0000
0000
0000
1003
0001
1000
0001
0100
,
0010
0000
0000
0010
0100
0001
1000
0200
0000
0000
0000
1300
0010
0100
0001
1000
,
0001
0000
0000
0010
0001
0100
0010
2000
0000
0000
0000
0000
0000
3100
1000
0001
,
1000
0100
1000
0100
0000
0010
0001
0100
0001
0010
0001
0010
0100
1000
0001
1000
,
0010
0000
0000
0010
0100
0001
1000
0002
0000
0000
0000
1003
0010
1000
0100
0010
,
0001
0000
0000
1000
0001
1000
0010
0200
0000
0000
0000
0310
0100
0010
1000
0001
,
0100
0000
0000
0000
0000
0000
0000
0000
0000
0100
0000
0000
0001
0000
0000
1000
0000
0000
0001
0000
0000
0020
0000
0000
0000
0000
0000
0000
0031
0000
0000
0000
1000
0000
0000
0000
0010
0000
0000
1000
0000
0000
0010
0000
0000
0100
0000
0000
,
0000
0110
0000
0110
0000
0110
0000
0110
0000
0110
0000
0110
0000
1000
0001
0000
,
0000
1001
0000
1001
0000
1001
0000
1001
0000
1001
0000
1001
0000
0010
0100
0000
,
0002
0000
0000
0013
0000
0100
1000
0002
0000
0000
0000
1003
0000
0010
0100
0020
,
0000
0000
0000
2030
0000
3100
1000
0001
1000
0010
1000
0010
0100
0001
0100
0001
,
2000
0000
0000
3010
0000
0100
0001
0020
0000
0000
0000
0031
0000
1000
0001
0200
,
0000
0000
0000
0320
0000
1030
0001
0100
0001
0010
0001
0010
0100
1000
0100
1000
,
0002
0000
0000
0103
0000
0001
1000
0200
0000
0000
0000
0310
0000
0100
1000
0020
,
0000
0000
0000
0000
1030
0001
1000
0020
0000
0000
0000
0000
0130
0010
0100
0001
,
2000
0000
0000
3100
0000
1000
0010
0200
0000
0000
0000
0301
0000
0001
1000
0010
,
0200
0000
0000
0000
0000
0000
0000
0000
0000
0310
0000
0000
0000
0000
0000
0000
1000
0000
0000
0000
0100
0000
0000
0000
1000
0000
0000
0000
0010
0000
0000
0000
0001
0000
0000
0000
1000
0000
0000
0000
0100
0000
0000
0000
0001
0000
0000
0000
,
0000
1010
0000
0001
0000
1000
0010
2000
0000
0000
0000
3100
0000
0010
0001
2000
,
0000
0000
0000
3002
0000
0013
0001
0100
0010
1000
0010
1000
0100
0010
0001
0100
,
0002
0000
0000
1003
0000
1000
0010
0200
0000
0000
0000
0301
0000
0010
0100
2000
,
0000
0000
0000
3002
0000
1003
0001
0100
0010
1000
0100
1000
0001
0010
0100
1000
,
0020
0000
0000
0130
0000
0001
1000
0020
0000
0000
0000
0130
0000
0001
1000
0200
,
0000
0000
0000
0310
0000
0001
1000
0002
0000
0000
0000
0013
0000
0001
1000
0200
,
0000
0000
0000
1300
0000
0001
1000
0002
0000
0000
0000
0013
0000
0100
0010
0200
,
0000
0000
0000
1300
0000
0010
1000
0002
0000
0000
0000
0013
0000
0001
0010
0200
,
0000
0000
0000
1300
0000
1000
0010
0200
0000
0000
0000
0301
0000
1000
0001
0020
,
0000
0000
0000
0031
0000
1000
0010
0100
0000
0001
1000
0002
0000
0000
0000
0000
,
0103
0000
0000
0000
0001
0010
0100
1000
0000
0000
0000
0000
0010
1000
0010
1000
,
0001
0000
0000
0000
1000
0010
0100
0001
0000
0000
0000
0000
0010
0100
0010
0100
,
1000
0010
1000
0010
0000
1000
0100
1000
0000
0001
0010
0100
1000
0100
0010
0001
,
0100
0010
0100
0010
0000
1000
0100
1000
0000
0001
0100
0002
0000
0000
0000
0000
,
1003
0000
0000
0000
0001
0100
0001
0100
0000
0000
0000
0000
0001
0010
0100
1000
,
0010
0000
0000
0000
0100
0010
0100
0010
0000
0000
0000
0000
1000
0001
0010
0100
,
1000
0000
0000
0001
0000
0000
1000
0000
0000
0001
0000
0000
0000
0000
0000
0000
0010
0000
0000
0000
0100
0000
0000
0000
1000
0000
0000
0001
0000
0000
0100
0000
0000
0010
0000
0000
1000
0000
0000
0100
0000
0000
0010
0000
0000
0001
0000
0000
,
0000
0110
0000
0110
0000
0110
0000
0110
0000
0110
0000
0110
0000
0001
1000
0000
,
0000
1001
0000
1001
0000
1001
0000
1001
0000
1001
0000
1001
0000
0010
0100
0000
,
0000
0000
0000
0000
0001
0000
0000
0000
0010
0000
0000
0000
0001
0000
0000
0000
0100
0000
0000
0000
1000
0000
0000
0000
0001
0000
0000
0000
0010
0000
0000
0000
1000
0000
0000
0000
0001
0000
0000
0100
0000
0000
0010
0000
0000
0100
0000
0000
,
0000
0000
0000
0000
0001
1000
0001
1000
0000
1000
0100
0020
0000
0000
0000
0000
,
0031
0000
0000
1000
0001
1000
0010
0100
0000
0000
0000
0001
0010
0001
0100
0010
,
1000
0000
0000
1000
0100
1000
0010
0100
0000
0000
0000
0001
0010
0001
0100
0001
,
0020
0000
0000
0000
0031
1000
0001
1000
0020
0000
0000
0000
1030
0001
1000
0001
,
0200
0000
0000
0000
0301
0100
0001
1000
0000
0010
1000
0010
1000
0100
0010
0001
,
1000
0000
0000
0001
1000
0001
1000
0100
0000
0000
0000
0100
1000
0010
0100
0001
,
0010
0000
0000
0010
0001
1000
0010
1000
0000
0000
0000
0100
0010
0001
0100
0001
,
2000
0000
0000
0000
3010
0100
0010
0100
0002
0000
0000
0000
0013
0100
0010
0100
,
2000
0000
0000
0002
0000
0000
0000
0000
0000
0000
0000
0000
3003
0000
0010
0100
,
0010
0000
0000
0001
1000
0100
1000
0001
0000
0000
0000
0010
0001
1000
0010
1000
,
0100
0000
0000
1000
0010
0100
0010
1000
0000
0000
0000
0001
1000
0001
0100
0001
,
0020
0000
0000
0000
0130
1000
0100
1000
0002
0000
0000
0000
0103
0010
0100
0010
,
2000
0000
0000
3100
0000
1000
0010
0100
0001
0000
0010
0100
0000
1000
0001
1000
,
0001
1000
0000
0001
0000
0010
0100
2000
0000
0000
0000
3010
0000
1000
0001
0200
,
0000
0000
0000
0310
0000
0100
0001
1000
0000
0000
0000
0000
0001
1000
0010
0100
,
0020
0000
0000
1030
0000
0001
0010
0200
0000
0000
0000
0310
0000
0001
0100
0001
,
2000
0000
0000
0000
0000
0000
0000
0000
0000
3002
0000
0000
0000
0000
0000
0000
1003
0000
0000
0000
0010
0000
0000
0000
1000
0000
0000
0000
0100
0000
0000
0000
0001
0000
0000
0000
1000
0000
0000
0000
0010
0000
0000
0000
0001
0000
0000
0000
,
0000
1100
0000
0000
0010
0100
0000
0001
0000
1000
0100
1000
0000
0010
0000
0100
,
0000
0001
0010
0100
0010
0100
1000
0001
0000
1000
0000
0010
0000
1000
0100
0000
,
0010
0001
0010
0001
0000
0100
0000
0010
0000
1000
0100
1000
0000
0001
0000
1000
,
0000
0000
0000
0000
0001
0000
0000
0000
0100
0000
0000
0000
0010
0000
0000
1000
0000
0000
0010
0000
0000
1000
0000
0000
0100
0000
0000
0010
0000
0000
0000
0000
0000
0001
0000
0000
0000
0000
0000
1000
0000
0000
0100
0000
0000
1000
0000
0000
,
0001
0000
0000
0000
0010
0100
0010
0100
0000
0000
0000
0000
1000
0001
1000
0001
,
1000
0000
0000
0000
0010
0100
0010
0100
0000
0000
0000
0000
0001
1000
0001
1000
,
0001
0000
0000
0010
0000
0000
0100
0000
0000
1000
0000
0000
0000
0000
0000
0000
0001
0000
0000
0000
1000
0000
0000
0000
0010
0000
0000
0100
0000
0000
0010
0000
0000
0100
0000
0000
0001
0000
0000
1000
0000
0000
0001
0000
0000
1000
0000
0000
,
0000
1001
0000
1001
0000
1001
0000
1001
0000
1001
0000
1001
0000
0010
0100
0000
,
0000
0001
0100
0010
1000
0100
1000
0010
0100
0001
1000
0000
;

//---------------dance-single - ----------------
#NOTES:
     dance-single:
     :
     Medium:
     13:
     0.579317,0.736866,0.373886,0.388266,0.650705,564.000000,512.000000,52.000000,54.000000,0.000000,0.000000,0.579317,0.736866,0.373886,0.388266,0.650705,564.000000,512.000000,52.000000,54.000000,0.000000,0.000000:
0000
0000
0000
0000
,
0000
0000
0000
0000
,
0000
0000
0000
0000
,
0000
0000
0000
0000
,
0010
0000
0000
0000
1000
0001
1000
0001
0000
0000
0000
0000
0000
0000
0000
0000
,
0010
0000
0000
0000
0001
1000
0001
1000
0000
0000
0000
0000
0000
0000
0000
0000
,
0010
0100
0010
0100
0000
0000
0001
0000
1000
0000
0010
0000
1000
0000
0001
0000
,
0010
0100
1000
0001
0100
0010
0100
0010
,
1000
0000
0000
0001
0000
0010
0000
0001
0000
0000
0000
1000
0000
0010
0000
1000
,
0000
0010
1000
0001
1000
0100
0010
0001
,
0100
0000
0000
0001
0000
1000
0000
0001
0000
0000
0000
1000
0000
0100
0000
1000
,
0000
0001
1000
0010
1000
0100
0010
0001
,
0100
0000
0000
0000
0001
0010
0001
0010
0000
0000
0000
0000
0100
0000
1000
0000
,
0001
0000
0000
0000
0100
0010
0100
0010
0000
0000
0000
0000
1000
0000
0001
0000
,
1000
0000
0000
0000
0010
0100
0010
0100
0000
0000
0000
0000
0001
1000
0001
1000
,
0000
0000
0000
0000
0100
0010
0100
0010
0000
0001
0000
1000
0000
0000
0000
0000
,
0010
0000
0000
0000
1000
0001
1000
0002
0000
0000
0000
0000
0003
0000
0000
0000
,
0010
0000
0000
0000
0100
1000
0100
2000
0000
0000
0000
0000
3000
0000
0000
0000
,
0001
0000
0000
0000
0100
0010
0100
0020
0000
0000
0000
0000
0030
0000
1000
0001
,
1000
0010
0100
0001
0010
0100
1000
0001
,
1000
0000
0000
0000
0001
0100
0001
0200
0000
0000
0000
0000
0300
0000
0000
0000
,
0010
0000
0000
0000
1000
0010
1000
0020
0000
0000
0000
0000
0030
0000
0000
0000
,
0100
0000
0000
0000
0001
1000
0001
1000
0000
0000
0010
0000
0100
0000
0001
0000
,
0000
0110
0000
0110
0000
0110
0000
0110
0000
0110
0000
0110
0000
0000
0000
0000
,
0000
1001
0000
1001
0000
1001
0000
1001
0000
1001
0000
1001
0000
0000
0000
0000
,
0002
0000
0000
0013
0000
0000
0100
0000
2000
0000
0000
3010
0000
0000
0100
0000
,
0002
0000
0000
2003
0000
0000
3010
0000
1000
0000
0100
0000
0010
0000
0001
0000
,
0200
0000
0000
0301
0000
0000
1000
0000
0020
0000
0000
1030
0000
0000
0100
0000
,
0020
0000
0000
0032
0000
0000
1003
0000
0001
0000
0010
0000
0100
0000
1000
0000
,
0200
0000
0000
0310
0000
0000
0001
0000
2000
0000
0000
3001
0000
0000
0100
0000
,
0010
0000
0000
0000
1000
0001
1000
0002
0000
0000
0000
0000
0013
0000
0100
0000
,
2000
0000
0000
3001
0000
0000
0010
0000
0002
0000
0000
0103
0000
0000
1000
0000
,
0020
0000
0000
0130
0000
0000
0001
0000
1000
0000
0100
0000
1000
0000
0001
0000
,
0000
0101
0000
1000
0000
0000
0010
0000
2000
0000
0000
3100
0000
0000
0001
0000
,
2000
0000
0000
3020
0000
0000
1030
0000
0100
0000
0010
0000
0001
0000
0100
0000
,
0002
0000
0000
0013
0000
0000
0001
0000
0200
0000
0000
0310
0000
0000
1000
0000
,
0200
0000
0000
2300
0000
0000
3001
0000
1000
0000
0010
0000
0100
0000
0001
0000
,
2000
0000
0000
3001
0000
0000
0100
0000
0020
0000
0000
0130
0000
0000
0001
0000
,
0020
0000
0000
0130
0000
0000
1000
0000
0002
0000
0000
1003
0000
0000
0100
0000
,
0002
0000
0000
0013
0000
0000
0100
0000
0020
0000
0000
0031
0000
0000
1000
0000
,
0200
0000
0000
0310
0000
0000
0100
0000
0020
0000
0000
0031
0000
0000
0100
0000
,
0020
0000
0000
1030
0000
0000
0001
0000
2000
0000
0000
3100
0000
0000
0010
0000
,
0002
0000
0000
2003
0000
0000
3001
0100
0000
0000
0010
1000
0000
0000
0000
0000
,
1000
0000
0000
0000
0001
0100
0001
0100
0000
0000
0000
0000
0001
0000
0010
0000
,
0100
0000
0000
0000
0010
0001
0010
0001
0000
0000
0000
0000
1000
0000
0010
0000
,
1000
0100
1000
0010
0100
1000
0100
0001
,
0010
0100
0010
0001
0100
1000
0100
0000
,
0001
0000
0000
0000
1000
0010
1000
0010
0000
0000
0000
0000
0100
0000
0001
0000
,
1000
0000
0000
0000
0100
0010
0100
0010
0000
0000
0000
0000
0001
0000
1000
0000
,
0001
0100
0010
1000
0100
0010
0001
1000
,
0000
0110
0000
0110
0000
0110
0000
0110
0000
0110
0000
0110
0000
0000
0000
0000
,
0000
1001
0000
1001
0000
1001
0000
1001
0000
1001
0000
1001
0000
0000
0000
0000
,
0000
0011
0000
0011
0000
0011
0000
0011
0000
0011
0000
0000
1000
0001
1000
0001
,
0000
0000
0000
0000
1000
0100
1000
0100
0000
0000
0010
0001
0000
0000
0000
0000
,
1010
0000
0000
0000
1000
0100
1000
0100
0000
0000
0000
0000
0001
0000
0010
0000
,
0110
0000
0000
0000
0001
1000
0001
1000
0000
0000
0000
0000
0010
0000
0100
0000
,
0102
0000
1003
0001
2100
0000
3010
0100
,
1001
0000
0001
1000
0010
0001
0010
1000
,
1100
0000
0000
0000
0001
0100
0001
0100
0000
0000
0000
0000
0010
0000
1000
0000
,
1010
0000
0000
0000
1000
0001
1000
0001
0000
0000
0000
0000
0010
0000
0100
0000
,
0012
0000
0103
0001
2001
0000
3010
1000
,
0210
0000
0000
0002
0000
0000
0000
0000
0303
0000
0000
0000
1000
0001
1000
0001
,
1000
0000
0000
0000
0001
0010
0001
0010
0000
0000
0000
0000
0100
1000
0100
1000
,
0100
0000
0000
0000
1000
0001
1000
0001
0000
0000
0000
0000
0100
0010
0100
0010
,
0200
0000
0301
1000
0200
0000
1300
0001
,
0020
0000
0000
0032
0000
0000
1003
0000
0001
0000
0100
0000
0010
0000
1000
0000
,
0100
0010
0000
0100
0000
0000
1000
0000
0002
0000
0000
0013
0000
0000
0100
0000
,
2000
0000
0000
0000
3001
0100
0001
0100
0000
0000
0000
0000
0010
1000
0010
1000
,
0020
0000
0000
0130
0000
0000
0001
0000
2000
0000
0000
3100
0000
0000
0010
0000
,
0002
0000
0000
2003
0000
0000
3010
0000
1000
0000
0100
0000
0010
0000
0001
0000
,
0000
1100
0000
0000
0001
1000
0000
0001
0000
0000
0000
0100
0000
0010
0000
0100
,
0000
0001
1000
0100
1000
0010
0100
0001
,
0011
0000
0000
1000
0000
0010
0000
0100
0000
0000
0000
0001
0000
1000
0000
0010
,
0000
1000
0100
0010
0001
0100
0010
1000
,
0001
0000
0000
0000
1000
0010
1000
0010
0000
0000
0000
0000
0100
0001
0100
0001
,
0100
0000
0000
0000
0001
0010
0001
0010
0000
0000
0000
0000
0100
1000
0100
1000
,
0100
0010
0100
1000
0001
1000
0001
0010
,
0000
0110
0000
0110
0000
0110
0000
0110
0000
0110
0000
0110
0000
0000
0000
0000
,
0000
0000
0000
1001
0000
0000
0000
0000
0000
1001
0000
0000
0000
0000
0000
1001
0000
0000
0000
0000
0000
1001
0000
0000
0000
0000
0000
0000
0001
0000
0000
0000
1000
0000
0000
0000
0001
0000
0000
0000
1000
0000
0000
0000
0000
0000
0000
0000
;

//---------------dance-single - ----------------
#NOTES:
     dance-single:
     :
     Easy:
     10:
     0.411890,0.424666,0.172563,0.316365,0.003595,401.000000,377.000000,24.000000,44.000000,0.000000,0.000000,0.411890,0.424666,0.172563,0.316365,0.003595,401.000000,377.000000,24.000000,44.000000,0.000000,0.000000:
0000
0000
0000
0000
,
0000
0000
0000
0000
,
0000
0000
0000
0000
,
0000
0000
0000
0000
,
0010
0000
0001
0100
1000
0000
0000
0000
,
0010
0000
1000
0100
0001
0000
0000
0000
,
1000
0001
1000
0000
0101
0000
1100
0000
,
0101
0000
0001
1000
0100
0000
1001
0000
,
0010
0000
1000
0100
1000
0000
0001
0100
,
0001
0000
0010
0000
0100
1000
0001
0000
,
0010
0000
0001
0100
0001
0000
1000
0100
,
1000
0000
0010
0000
1000
0001
0100
0000
,
0010
0000
0100
0001
1000
0000
1100
0000
,
0010
0000
1000
0001
0100
0000
0101
0000
,
0001
0000
1000
0010
1000
0000
0100
0010
,
0001
0000
0100
0001
1000
0001
0100
0000
,
0010
0000
1000
0100
0002
0000
0003
0000
,
0010
0000
0001
0100
2000
0000
3000
0000
,
0001
0000
1000
0010
0200
0000
0300
0000
,
0001
1000
0000
0010
1000
0100
0010
0001
,
0100
0000
0001
0010
2000
0000
3000
0000
,
0100
0000
1000
0010
0002
0000
0003
0000
,
1000
0000
0010
0100
0001
0010
0100
1000
,
0000
0000
0001
0100
1000
0100
0001
0000
,
0000
0000
1000
0100
0001
0100
1000
0000
,
0020
1030
0200
0301
,
2000
0000
3001
0000
0100
0010
1000
0001
,
0020
0130
2000
3001
,
0200
0000
0301
0000
1000
0010
1000
0100
,
0020
0031
2000
3100
,
2000
0000
3001
1000
0020
0000
0130
0000
,
0002
0013
0002
0103
,
2000
0000
3001
0000
1000
0010
0100
0001
,
0000
1100
0001
0000
0020
0000
0130
0000
,
2000
0000
3001
0000
0010
0001
1000
0100
,
2000
3010
0200
0310
,
0200
0000
0301
0000
1000
0001
0010
0100
,
2000
3010
2000
3100
,
0020
0031
0200
0301
,
0020
0031
2000
3010
,
0200
0310
2000
3100
,
0002
1003
0020
0130
,
0002
0000
1003
0000
0010
0100
0001
0000
,
1000
0000
0001
0100
0010
0000
0000
0000
,
1000
0000
0001
0010
0100
0000
0000
0000
,
1000
0001
0010
0000
0001
0100
0010
0000
,
0100
0010
1000
0000
0001
0100
1000
0000
,
0010
0000
1000
0100
0001
0000
1010
0000
,
0010
0000
0001
0100
1000
0000
0101
0000
,
0010
1000
0100
0000
0010
0001
1000
0100
,
0000
0000
1000
0010
0001
0010
1000
0000
,
0000
0000
0001
0010
1000
0010
0001
0000
,
0000
0000
0100
0010
0100
0010
1000
0001
,
0100
0000
0001
0010
0001
1000
0100
0000
,
1001
0000
0001
0100
1000
0000
0010
0100
,
0001
0000
1000
0010
0001
0000
0100
0010
,
1000
1100
0001
0101
,
1000
1010
0001
0011
,
0100
0000
0001
1000
0010
0000
1000
0100
,
1000
0000
0010
0001
0100
0000
0001
0010
,
0100
0110
0001
1001
,
2000
0000
0000
0002
0000
0000
0000
0000
0000
0000
0000
0000
3003
0000
0000
0000
,
0110
0000
0001
1000
0100
0000
0010
0001
,
0100
0000
0001
1000
0010
0000
1000
0010
,
0100
0101
0010
1100
,
0001
0000
1010
0000
0010
1000
0001
0100
,
0002
1003
0200
0310
,
0200
1300
0020
0130
,
0002
0013
2000
3100
,
0020
0000
0032
0000
0103
0010
1000
0001
,
0000
1100
0001
1000
0100
0000
1000
0001
,
0010
0000
0001
0100
0010
1000
0001
0000
,
0010
0000
0100
1000
0001
0000
1000
0010
,
0100
0000
1001
0000
0010
1000
0001
0000
,
0010
0000
0001
0100
1000
0000
0011
0000
,
0010
0000
1000
0100
0001
0000
1010
0000
,
0001
0100
1000
0000
0010
0100
0010
1000
,
0000
0000
0001
0100
1000
0100
0001
0000
,
0000
0000
1000
0010
0001
0010
1000
0000
;

//---------------dance-single - ----------------
#NOTES:
     dance-single:
     :
     Beginner:
     6:
     0.241382,0.283110,0.100661,0.000000,0.000000,235.000000,221.000000,14.000000,0.000000,0.000000,0.000000,0.241382,0.283110,0.100661,0.000000,0.000000,235.000000,221.000000,14.000000,0.000000,0.000000,0.000000:
0000
0000
0000
0000
,
0000
0000
0000
0000
,
0000
0000
0000
0000
,
0000
0000
0000
0000
,
0010
0000
0010
0000
,
0100
0000
0100
0000
,
0001
0000
1000
0000
,
0001
0000
0000
0000
,
0100
0001
0001
0000
,
1000
0001
0100
0000
,
0010
1000
1000
0000
,
0100
0010
0001
0000
,
1000
1000
1000
0000
,
0001
0001
0001
0000
,
0010
0000
0100
0000
,
0010
0000
1000
0001
,
1000
0100
0010
0000
,
0001
0100
0010
0000
,
1000
0001
0010
0000
,
0001
0000
0100
0010
,
1000
0001
0010
0000
,
0001
1000
0010
0000
,
1000
0100
0001
0000
,
0000
0010
0010
0010
,
0000
0100
0100
0100
,
0001
0010
0001
0010
,
1000
0001
0000
0000
,
1000
0100
1000
0100
,
0001
1000
0000
0000
,
0010
0100
0010
1000
,
0100
1000
0010
0100
,
0001
0010
0001
1000
,
0010
0100
0010
0010
,
0000
1001
0001
1000
,
0010
0100
0000
0000
,
0010
1000
0010
1000
,
0100
0010
0000
0000
,
0001
1000
0001
0010
,
0100
1000
0001
0000
,
1000
0000
0010
0000
,
0100
0000
0001
0000
,
0010
0000
0100
0000
,
1000
0000
0001
1000
,
0010
0010
0010
0000
,
1000
1000
1000
0000
,
0001
0000
0010
0000
,
0100
0000
1000
0001
,
0100
0100
0100
0000
,
0001
0001
0001
0000
,
0010
0001
0100
1000
,
0000
0001
0001
0001
,
0000
1000
1000
1000
,
0000
0001
0010
0100
,
1000
0001
1000
0010
,
1000
0100
0001
0000
,
0010
0001
0100
0000
,
0110
0000
1001
0000
,
0110
0000
0001
1000
,
0001
0010
1000
0000
,
0100
0010
0001
0000
,
1001
0000
0110
0000
,
1001
0000
0000
0000
,
0001
1000
0001
0100
,
0010
1000
0100
0000
,
0110
0000
1001
0000
,
0110
0000
0010
0100
,
0010
1000
0100
0001
,
0010
0100
1000
0000
,
1001
0000
0110
0000
,
1001
0000
0001
0100
,
0000
0110
1000
0001
,
0010
0100
1000
0001
,
1000
0010
0100
0001
,
0010
0001
1000
0100
,
0001
0001
0001
0000
,
0010
0010
0010
0000
,
0001
0100
1000
0010
,
0000
0100
0100
0100
,
0000
1000
1000
1000
;

//---------------dance-single - ----------------
#NOTES:
     dance-single:
     :
     Challenge:
     19:
     1.048728,1.020276,0.546448,0.143802,1.894593,1021.000000,945.000000,76.000000,20.000000,0.000000,0.000000,1.048728,1.020276,0.546448,0.143802,1.894593,1021.000000,945.000000,76.000000,20.000000,0.000000,0.000000:
// measure 0
0000
0000
0000
0000
,  // measure 1
0000
0000
0000
0000
,  // measure 2
0000
0000
0000
0000
,  // measure 3
0000
0000
0000
0000
,  // measure 4
0020
0000
0000
0000
1030
0100
0010
0001
0000
0100
0001
0010
0100
0010
0001
0100
,  // measure 5
2000
0000
0000
0000
3010
0100
0001
1000
0000
0010
0001
1000
0100
0010
0001
0100
,  // measure 6
0010
0000
0000
1000
0000
0000
0100
0000
0000
0001
0000
0000
0000
0000
0000
0000
0100
0000
0000
0000
0010
0000
0000
0000
1000
0000
0100
0000
1000
0000
0010
0000
0100
0000
0001
0000
1000
0000
0001
0000
1000
0000
0010
0000
0100
0000
0001
0000
,  // measure 7
1000
0000
0000
0000
0010
0000
0000
0000
0100
0000
0000
0000
0001
0000
0010
0000
0001
0000
1000
0000
0010
0000
0100
0000
0000
0000
0000
0001
0000
0000
0010
0000
0000
0100
0000
0000
1000
0000
0000
0100
0000
0000
0010
0000
0000
0001
0000
0000
,  // measure 8
1000
0010
0100
0001
0000
0011
0000
1100
0000
0010
1000
0100
0000
0110
0000
1001
,  // measure 9
0000
1000
0010
0100
0001
0010
0100
1000
0000
1100
0000
0101
0000
1000
0010
0000
,  // measure 10
0100
0001
1000
0001
0000
1001
0000
1100
0000
1000
0010
0100
0000
0101
0000
1010
,  // measure 11
0000
0000
0000
0000
0001
0000
0000
0000
1000
0000
0000
0000
0010
0000
1000
0000
0001
0000
1000
0000
0100
0000
0010
0000
0001
0000
0000
0100
0000
0000
0000
0000
0000
1000
0000
0000
0000
0000
0000
0001
0000
0000
1000
0000
0000
0100
0000
0000
,  // measure 12
0010
0001
1000
0001
0100
0010
1000
0100
0000
1000
0010
0100
0001
0010
0100
1000
,  // measure 13
0010
0100
0001
1000
0001
0010
0100
1000
0000
0001
0100
0010
1000
0001
1000
0100
,  // measure 14
0010
0001
1000
0001
0100
0001
0010
0100
0000
1000
0010
1000
0100
0010
0001
0100
,  // measure 15
0000
0001
0010
0100
1000
0001
0100
0010
0000
1000
0001
2000
0000
0100
3100
0000
,  // measure 16
1001
0000
1000
0001
1000
0100
0010
0002
0000
1000
1003
0001
1000
0010
0100
0001
,  // measure 17
0011
0000
0001
0100
0001
0010
0100
2000
0000
0010
3010
1000
0100
0010
0001
1000
,  // measure 18
1100
0000
1000
0010
0100
0010
1000
0002
0000
0100
0103
0001
0010
0100
1000
0001
,  // measure 19
1000
0010
0100
0110
0000
0001
0010
0100
1000
1000
0010
0010
0100
0100
0001
0001
,  // measure 20
0101
0000
1000
0100
0001
0010
0100
2000
0000
0001
3001
0010
0001
0100
0010
1000
,  // measure 21
1010
0000
0010
0100
0010
1000
0100
0020
0000
0001
0031
1000
0010
1000
0100
0010
,  // measure 22
0110
0000
0000
0000
0000
0000
0100
0000
0000
1000
0000
0000
0001
0000
0000
0100
0000
0000
0001
0000
0000
2000
0000
0000
0000
0000
0000
0000
3001
0000
0000
0000
1000
0000
0000
0000
0100
0000
0010
0000
0100
0000
1000
0000
0001
0000
0100
0000
,  // measure 23
0010
0110
0000
0101
0000
0011
0000
1100
0000
1010
0000
1001
0000
0010
0100
0000
,  // measure 24
0001
0011
0000
0110
0000
1100
0000
1010
0000
1001
0000
0101
0000
1000
0100
0000
,  // measure 25
0010
0000
0001
0100
0000
0001
1000
0010
0000
0000
0010
1000
0000
1000
0100
0010
,  // measure 26
0000
0000
0001
0100
0000
0001
0010
0001
0100
0010
0100
0001
1000
0100
1000
0001
,  // measure 27
1000
0000
0100
0001
0000
0010
1000
0100
0000
0000
0010
0100
0000
0010
0100
1000
,  // measure 28
0000
0000
0001
0010
0000
0001
1000
0010
1000
0001
0100
0001
0010
0100
0001
0100
,  // measure 29
1000
0000
1000
0010
0000
1000
0001
0100
0010
0000
1000
0100
0000
1000
0010
0100
,  // measure 30
0001
0000
1000
0000
0010
1000
0100
0001
1000
0000
0010
0000
0100
1000
0001
0010
,  // measure 31
0100
0000
0100
0010
0000
0001
0010
0100
1000
0000
1000
0001
0000
0010
0001
0100
,  // measure 32
2000
0000
0000
0000
0000
0000
0000
0000
0000
3001
0000
0000
0000
0000
0000
0000
0010
0000
0000
0000
0100
0000
0000
0000
1000
0000
0000
0000
1000
0000
0000
0000
1000
0000
0000
0000
0001
0000
0000
0000
0001
0000
0000
0000
0001
0000
0000
0000
,  // measure 33
0000
2100
0000
3010
0000
0001
1000
0100
0000
0000
0010
0100
0000
1000
0100
0001
,  // measure 34
0000
0000
0010
0100
0000
0001
1000
0010
1000
0001
0100
0001
0010
0100
0001
0100
,  // measure 35
1000
0000
1000
0001
0000
0010
0001
0100
0000
0000
0010
1000
0000
0001
1000
0010
,  // measure 36
0000
0000
0001
0100
0000
0001
0100
0010
1000
0100
0001
1000
0001
0100
0010
1000
,  // measure 37
0001
0000
0100
0010
0000
1000
0010
1000
0100
0000
0001
0010
0000
0001
1000
0001
,  // measure 38
0100
0000
0010
0100
0000
0001
1000
0100
1000
0000
0100
0010
0000
0100
0001
1000
,  // measure 39
0100
0000
1000
0001
0000
0001
0010
0100
1000
0000
0001
1000
0000
1000
0100
0010
,  // measure 40
0001
0000
0001
0100
0000
0001
0010
0001
0100
0000
0100
0010
0000
0010
1000
0100
,  // measure 41
0010
0000
1000
0010
0000
0001
0100
0010
1000
0000
0010
1000
0000
1000
0001
0100
,  // measure 42
0010
0000
1000
0100
0000
1000
0001
1000
0000
0001
0100
0002
0000
0010
0013
0000
,  // measure 43
0201
0000
0000
0000
0301
0010
0100
1000
0000
0001
0010
1000
0100
0010
0100
1000
,  // measure 44
2100
0000
0000
0000
3010
1000
0100
0010
0000
0001
0010
0001
0100
1000
0010
0100
,  // measure 45
0001
0010
0100
1000
0000
0010
0100
0001
0000
1000
0100
0001
1000
0010
0100
0001
,  // measure 46
0010
0100
1000
0010
0000
1000
0001
0100
0000
0001
0010
0200
0000
1000
1300
0000
,  // measure 47
0021
0000
0000
0000
0031
0100
1000
0001
0000
1000
0010
0100
0010
0001
0010
1000
,  // measure 48
2010
0000
0000
0000
3100
0010
0100
1000
0000
0001
0010
0001
0100
1000
0010
0001
,  // measure 49
1000
0000
0000
0010
0000
0000
0100
0000
0000
0002
0000
0000
0000
0000
0000
0000
0013
0000
0000
0000
0100
0000
0000
0000
1000
0000
0001
0000
1000
0000
0001
0000
0010
0000
0100
0000
1000
0000
0010
0000
0100
0000
0001
0000
1000
0000
0001
0000
,  // measure 50
0100
0101
0000
1100
0000
0011
0000
1010
0000
0110
0000
1001
0000
1000
0001
0000
,  // measure 51
0010
0110
0000
1100
0000
0011
0000
0101
0000
1010
0000
1001
0000
0001
0100
0000
,  // measure 52
0010
0000
0000
0000
1000
0000
0000
0000
1000
0000
0000
0000
0001
0000
0000
0000
0100
0000
0000
0000
0100
0000
0000
0000
0001
0000
0000
0000
0010
0000
0000
0000
1000
0000
0000
0000
0001
0000
0000
0100
0000
0000
0010
0000
0000
1000
0000
0000
,  // measure 53
0000
0001
0100
0001
0010
0100
1000
0001
0000
1000
0010
0100
0000
0001
1000
0000
,  // measure 54
0010
0000
1000
0001
0010
0100
1000
0001
0100
0000
0000
0001
0100
1000
0010
0100
,  // measure 55
0001
0000
0010
0100
1000
0001
1000
0010
0100
0000
0000
0001
0010
0100
1000
0010
,  // measure 56
1001
0000
0000
0000
1000
0010
0100
0001
1001
0000
0000
0000
0001
0010
0100
1000
,  // measure 57
1001
0000
0000
0000
0010
1000
0100
0010
0000
0001
0100
0001
1000
0010
0001
0100
,  // measure 58
1000
0000
0010
0100
0001
0010
0100
1000
0001
0000
1000
0001
1000
0010
0001
0100
,  // measure 59
1000
0000
0001
0010
0001
0100
1000
0001
0100
0000
0010
0100
0010
0100
0001
0010
,  // measure 60
0110
1000
0001
1000
0010
0100
0001
1000
0110
0100
0010
0100
0001
0010
0100
1000
,  // measure 61
0110
0100
1000
0001
0000
1000
0010
0100
0001
0001
0010
0010
0100
0100
1000
1000
,  // measure 62
0010
0000
1000
0001
1000
0100
0010
0001
0100
0000
0001
0010
0001
1000
0100
0001
,  // measure 63
1000
0000
0010
0100
0001
0010
0100
1000
0010
0000
0000
0010
0100
0001
0010
1000
,  // measure 64
1100
0000
0000
0000
0001
1000
0010
0100
0101
0000
0000
0000
1000
0010
0100
0001
,  // measure 65
0011
0000
0000
1010
0000
1000
0100
0001
0010
0000
0100
1000
0000
0001
1000
0010
,  // measure 66
0100
0110
0000
1001
0001
1000
0100
0010
0001
0000
0100
0010
0000
0010
1000
0100
,  // measure 67
0010
0000
0001
0000
1000
0001
0100
1000
0010
0000
0100
0000
0010
1000
0100
0010
,  // measure 68
0001
0000
0010
0001
0000
0100
0001
1000
0100
0000
0010
0100
0000
1000
0010
0001
,  // measure 69
0101
0000
0000
0000
0000
0000
0000
0000
0000
1010
0000
0000
0000
0000
0000
0000
0001
0000
0000
0000
1000
0000
0000
0000
0010
0000
0000
0000
0010
0000
0000
0000
0010
0000
0000
0000
0100
0000
0000
0000
0100
0000
0000
0000
0100
0000
0000
0000
,  // measure 70
0001
2100
0000
3010
1000
0100
0010
0001
0000
0100
0010
2000
0000
3001
0000
0110
,  // measure 71
0000
0001
0100
1000
0010
1000
0100
0010
0000
0011
0000
1100
0000
0010
0100
0000
,  // measure 72
0001
1000
0001
0010
0000
1100
0000
0101
0000
0010
1000
0100
0000
1010
0000
0011
,  // measure 73
0000
0000
0000
0000
1000
0000
0000
0000
0001
0000
0000
0000
0010
0000
0100
0000
0010
0000
0001
0000
0100
0000
1000
0000
0010
0000
0000
0110
0000
0000
0000
0000
0000
0101
0000
0000
0000
0000
0000
1000
0000
0000
0100
0000
0000
0010
0000
0000
,  // measure 74
0001
0100
0001
0100
0010
1000
0100
0010
0000
0001
1000
0001
1000
0010
0100
0001
,  // measure 75
0010
0100
1000
0010
1000
0001
1000
0100
0000
0010
0100
1000
0010
0100
0001
1000
,  // measure 76
0001
0000
0000
0010
0000
0000
0100
0000
0000
1000
0000
0000
0000
0000
0000
0000
0010
0000
0000
0000
0100
0000
0000
0000
0010
0000
1000
0000
0100
0000
1000
0000
0001
0000
1000
0000
0010
0000
0100
0000
0001
0000
0010
0000
0100
0000
1000
0000
,  // measure 77
0001
0011
0000
0101
0000
1001
0000
1010
0000
1100
0000
0110
0000
0100
1000
0000
,  // measure 78
0001
1000
0001
0010
0100
1000
0010
0100
0001
1000
1000
0000
;
