#TITLE:hahaha;
#SUBTITLE:;
#ARTIST:2hollis;
#TITLETRANSLIT:;
#SUBTITLETRANSLIT:;
#ARTISTTRANSLIT:;
#GENRE:;
#CREDIT:;
#BANNER:hahaha-bn.png;
#BACKGROUND:hahaha-bg.png;
#LYRICSPATH:;
#CDTITLE:;
#MUSIC:hahaha.ogg;
#OFFSET:0.000000;
#SAMPLESTART:13.714000;
#SAMPLELENGTH:20.000000;
#SELECTABLE:YES;
#DISPLAYBPM:140.000000;
#BPMS:0.000000=140.000000
;
#STOPS:
;
#BGCHANGES:;
#KEYSOUNDS:;
#ATTACKS:;

//---------------dance-single - ----------------
#NOTES:
     dance-single:
     :
     Hard:
     14:
     0.640627,0.611903,0.309897,0.473960,0.341798,492.000000,458.000000,34.000000,52.000000,0.000000,0.000000,0.640627,0.611903,0.309897,0.473960,0.341798,492.000000,458.000000,34.000000,52.000000,0.000000,0.000000:
0000
0000
0000
0000
,
0000
0000
0000
0000
,
0000
0000
0000
0000
,
0000
0000
0000
0000
,
1000
0010
0001
0100
0010
0100
1000
0001
,
0010
1000
0100
0001
1000
0010
0100
0001
,
0010
1000
0100
0001
0010
0100
1000
0001
,
0010
0001
1000
0100
1000
0010
0001
0100
,
0010
1000
0000
0000
0100
0000
0010
0001
0000
0000
1000
0000
0002
0100
0000
0000
,
2003
0001
0000
0000
3020
0100
0000
0000
1030
0000
0110
0000
0110
0000
0000
0000
,
0010
1000
0000
0000
0001
0000
0010
0100
0000
0000
1000
0000
0002
0100
0000
0000
,
2003
0001
0000
0000
3020
0100
0000
0000
1030
0000
0101
0000
0101
0000
0000
0000
,
0001
0010
0000
0000
0100
0000
1000
0010
0000
0000
1000
0000
0002
0100
0000
0000
,
0023
0001
0000
0000
0230
0010
0000
0000
2300
0001
0000
0000
3200
1000
0000
0000
,
0310
0100
0000
0000
1000
0000
0001
0010
0000
0000
0001
0000
2000
0100
0000
0000
,
3002
0010
0000
0000
0023
0100
0000
0000
0031
0000
1100
0000
1100
0000
0000
0000
,
0001
0000
0001
0000
0010
0100
1000
0000
0020
0000
0000
0000
0130
0000
0001
0000
,
0010
0001
0100
0000
1001
0000
0000
0000
0001
0000
0011
0000
0011
0000
1000
0000
,
0010
1000
0001
0000
0010
0000
0100
0000
1000
0000
0001
0000
0100
0000
0100
0000
,
0010
1000
0101
0000
0001
1010
1010
0100
,
0020
1000
0000
0000
0130
0000
0001
0000
0020
0100
0000
0000
0031
0000
1000
0000
,
0002
0100
0000
0000
1003
0000
0000
0000
0100
0000
1001
0000
1001
0000
0000
0000
,
0001
1000
0100
0000
0010
0000
0001
0000
0100
0000
0010
0000
1000
0000
0100
0000
,
1000
0001
0011
0000
0100
0110
0110
0000
,
0001
0100
1000
0100
0002
0000
0013
1000
,
0010
0100
0020
0001
0031
1000
0001
0100
,
0010
1000
0100
0001
0200
0000
1300
0001
,
0100
0010
2000
0000
3001
1001
0000
0000
,
0010
0100
1000
0100
0002
0000
1003
0010
,
0001
0010
2000
0000
3100
0010
0001
0000
,
1000
0010
0001
0010
2000
0000
3100
0010
,
1000
0010
0002
0000
0013
0100
1000
0001
,
1000
0100
0010
1000
0020
0032
0103
0010
,
1000
0000
1000
0000
2000
0000
0001
0000
3002
0000
0100
0000
0013
0001
0000
0000
,
0100
0010
0100
1000
0100
0001
0010
0001
,
2000
0100
0000
0000
3001
0000
0000
0000
0010
0000
0100
0000
0011
0000
1000
0000
,
0010
0000
1000
0000
0100
0010
0100
0000
0001
0000
0100
0000
1000
0000
0010
0000
,
0100
0001
1010
0002
1003
0010
0100
0100
,
0001
0000
0010
0000
0100
0000
1000
0000
0020
0100
0000
0000
1030
0000
0001
0000
,
1001
0110
1001
0000
0010
0101
0101
0000
,
2000
0001
0001
0000
0000
0000
3010
0100
,
0110
0001
0100
0010
1000
0100
0010
0001
,
0200
1000
1000
0000
0000
0000
0301
0100
,
1010
0001
0010
0100
0001
0100
1000
0010
,
0100
0010
0001
0010
0000
0000
1000
0001
,
0011
0100
0000
1020
1030
0000
0001
0010
,
1002
0000
0203
0010
0000
1000
1000
0301
,
0010
0000
0001
0000
0100
0000
0010
0000
1000
0000
0100
0000
1000
0001
0000
0000
,
0010
0000
0010
0000
0001
0100
0000
0000
0010
0000
1000
0000
1000
0100
0000
0000
,
1000
0010
0100
0010
1000
0000
0000
0000
0001
0010
0100
0010
0001
0000
1000
0000
,
0100
0100
0010
0010
0001
0001
1000
1000
,
0010
1000
0001
1000
0010
0000
0000
0000
0100
0000
0001
0000
1000
0000
0100
0000
,
0010
0001
0010
0000
0100
0000
1000
0000
0001
0000
0001
0000
1000
0000
0100
0000
,
0010
1000
0010
0001
0010
0000
0000
0000
0001
0000
0100
0000
0100
0000
0100
0000
,
0010
1000
0000
0000
0100
0000
0010
0000
0001
0000
0001
0000
1000
0000
1000
0000
,
0010
0100
0001
0100
0010
0000
0000
0000
1000
0001
0010
0001
1000
0000
0000
0000
,
0100
1000
0000
0000
0010
0000
1000
0001
0000
0000
0100
0000
0002
0010
0000
0000
,
0203
1000
0000
0000
0320
1000
0000
0000
0130
0000
1001
0000
1001
0000
0000
0000
,
0001
0010
0000
0000
1000
0000
0100
0010
0000
0000
0100
0000
2000
0001
0000
0000
,
3200
0001
0000
0000
0320
0100
0000
0000
0031
0000
0110
0000
0110
0000
0000
0000
,
0100
0001
0000
0000
0100
0000
1000
0010
0000
0000
0010
0000
2000
0001
0000
0000
,
3020
1000
0000
0000
0230
0010
0000
0000
0302
0010
0000
0000
2003
0100
0000
0000
,
3001
1000
0000
0000
0010
0000
0100
0001
0000
0000
0100
0000
0020
1000
0000
0000
,
2030
0100
0000
0000
3002
0100
0000
0000
0013
0001
0000
0000
1000
0100
0010
0001
;

//---------------dance-single - ----------------
#NOTES:
     dance-single:
     :
     Medium:
     10:
     0.468751,0.465756,0.200521,0.364584,0.013672,360.000000,338.000000,22.000000,40.000000,0.000000,0.000000,0.468751,0.465756,0.200521,0.364584,0.013672,360.000000,338.000000,22.000000,40.000000,0.000000,0.000000:
0000
0000
0000
0000
,
0000
0000
0000
0000
,
0000
0000
0000
0000
,
0000
0000
0000
0000
,
1000
0010
0100
0000
0001
0100
1000
0000
,
0001
0010
1000
0000
0100
1000
0010
0000
,
0001
0001
0100
0000
0001
0010
1000
0000
,
0100
1000
0001
0000
0010
0100
0010
0000
,
0001
0000
1000
0100
0010
0001
0200
0000
,
0320
0000
2030
0000
3001
1001
1001
0000
,
0100
0000
0010
0001
1000
0001
0200
0000
,
0302
0000
2003
0000
3100
0110
0110
0000
,
0010
0000
0001
1000
0010
1000
0200
0000
,
2300
3020
0230
0302
,
0013
0000
0100
1000
0001
0010
0200
0000
,
0320
0000
0032
0000
1003
1100
1100
0000
,
0001
1000
0100
0010
0001
0000
0100
0010
,
1000
0001
0100
0000
0000
0000
0010
1000
,
0001
0010
0100
1000
0010
0100
0001
1000
,
0100
0010
0010
0000
0000
0000
0001
1000
,
0002
0000
0103
0010
2000
0000
3100
0010
,
0002
0000
2003
0000
3010
0101
0101
0000
,
1000
0001
0010
0001
1000
0000
0100
0010
,
0200
0000
2300
0000
3001
0011
0011
0000
,
1000
0001
0010
0100
1000
0000
0010
0100
,
0010
1000
0001
0000
0000
0000
0000
0000
,
0010
0100
0010
0001
1000
0000
0001
1000
,
0100
0010
0001
0000
0000
0000
0000
0000
,
0010
1000
0100
0010
0001
0000
0001
0100
,
1000
0010
0100
0000
0000
0000
0110
0000
,
0001
0010
0100
1000
0001
0100
0010
1000
,
0001
0010
1000
0000
0000
0000
1001
0000
,
0100
0010
0100
1000
0001
0001
1000
0001
,
0100
0000
0010
0000
1000
0000
0000
0000
0000
0000
0000
0000
0001
0010
0000
0000
,
0001
0100
0100
0010
1000
0001
1000
0100
,
0010
0000
0010
0000
0010
0000
0000
0000
0000
0000
0000
0000
0001
1000
0001
0000
,
0100
0010
2010
0000
3001
1000
0001
0010
,
0100
1000
0110
0000
0000
0000
0001
0001
,
1000
0100
0010
0001
0100
0000
0010
1000
,
0001
0001
0001
0000
0000
0000
0000
0000
,
1000
0100
0001
0000
0000
0000
0010
0100
,
1000
0001
0000
0000
0000
0000
0100
0001
,
0010
0100
1000
0000
0000
0000
1000
0100
,
0010
0001
0000
0000
0000
0000
1000
0001
,
1000
0010
0100
0000
0000
0000
0001
0010
,
0100
0010
0000
0000
0000
0000
0001
1000
,
1002
0000
0203
0000
0000
0010
0310
1000
,
0001
0000
0001
0000
0000
0000
0000
0000
0000
0000
0000
0000
0100
0010
0000
0000
,
0100
0001
0010
0100
1000
0001
1000
0010
,
1000
0100
0001
0000
0000
0000
0010
0100
,
1000
0001
1000
0100
0010
0100
0010
0001
,
0100
0001
1000
0000
0000
0010
0010
0100
,
1001
0000
0100
0010
1000
0001
1000
0100
,
0002
0010
0013
0000
0000
0100
1000
0100
,
0010
0000
0010
0001
1000
0001
1000
0100
,
0010
0001
1000
0000
0000
1010
1010
0000
,
0001
0000
0010
0100
0010
0001
2000
0000
,
3020
0000
0230
0000
0301
0011
0011
0000
,
0100
0000
0010
0001
1000
0100
2000
0000
,
3002
0000
0023
0000
0130
1100
1100
0000
,
0002
0000
1003
0100
1000
0100
0020
0000
,
0032
0203
0320
2030
,
3100
0000
1000
0001
0010
0100
2000
0000
,
3002
0000
0023
0000
0230
0000
1300
0001
;

//---------------dance-single - ----------------
#NOTES:
     dance-single:
     :
     Easy:
     8:
     0.300782,0.378427,0.091146,0.273438,0.000000,231.000000,221.000000,10.000000,30.000000,0.000000,0.000000,0.300782,0.378427,0.091146,0.273438,0.000000,231.000000,221.000000,10.000000,30.000000,0.000000,0.000000:
0000
0000
0000
0000
,
0000
0000
0000
0000
,
0000
0000
0000
0000
,
0000
0000
0000
0000
,
1000
0010
0001
0100
,
1000
0010
0001
0100
,
0010
1000
0001
0100
,
0001
1000
0010
0100
,
0001
0000
0000
1000
0000
0000
0020
0000
,
2030
0000
3002
0000
0000
0100
0103
0000
,
0010
0000
0000
0100
0000
0000
0002
0000
,
2003
0000
3200
0000
0000
0010
0310
0000
,
0001
0000
0000
0010
0000
0000
0200
0000
,
2300
3002
2003
3002
,
0103
0000
0000
0001
0000
0000
2000
0000
,
3200
0000
0320
0000
0000
0001
0031
0000
,
1000
0000
0000
0001
0000
0000
0010
0000
,
0000
0000
0000
0000
0000
0001
0001
0000
,
0100
0000
0000
0010
0000
0000
1000
0000
,
0000
0100
0100
0000
0000
0010
0010
0000
,
0001
0000
0000
0100
0000
0000
1000
0000
,
0000
0010
0010
0100
0001
1000
1000
0000
,
0010
0000
0000
1000
0000
0000
0001
0000
,
0000
1000
1000
0000
0000
0100
0100
0000
,
0010
0000
0000
0001
0000
0000
0100
0000
,
0000
0000
0000
0000
0000
2000
0000
0000
,
3100
0000
0000
0010
0000
0000
0001
0000
,
0000
1000
1000
0000
0000
0001
0000
0000
,
1000
0000
0000
0001
0000
0000
1000
0000
,
0000
0010
0010
0100
0001
1000
1000
0000
,
0100
0000
0000
0010
0000
0000
0001
0000
,
0000
0010
0010
0000
0000
0100
0100
0000
,
1000
0010
1000
0001
,
0010
0100
1000
0001
,
0010
0001
0100
0010
,
1000
0100
0010
0001
,
0100
1001
0010
0100
,
0001
0110
1000
0001
,
1000
0100
0010
0001
,
0100
0100
0100
0000
0000
0001
0001
0000
,
1000
0000
0000
0100
0000
0000
1000
0000
,
0000
0000
0000
0000
0000
0001
0001
0000
,
0010
0000
0000
0100
0000
0000
1000
0000
,
0000
0001
0001
0000
0000
0200
0000
0000
,
0310
0000
0000
1000
0000
0000
0010
0000
,
0000
1000
1000
0001
0100
0000
0010
0010
,
1000
0000
0000
0100
0000
0000
0001
0000
,
0000
1000
1000
0000
0000
0010
0010
0000
,
1000
0100
0010
0001
,
0101
0000
1100
0000
0000
0000
0010
0100
,
0001
0010
1000
0100
,
1010
0000
0011
0000
0000
0100
0100
0010
,
0100
1000
0010
0001
,
0101
0000
1010
0000
0000
1000
1000
0001
,
0010
0001
0100
1000
,
1100
0000
0011
0000
0000
0010
0010
0000
,
0001
0000
0000
1000
0000
0000
0002
0000
,
0023
0000
0230
0000
0000
1000
1300
0000
,
0001
0000
0000
0010
0000
0000
0200
0000
,
2300
0000
3020
0000
0000
0100
0130
0000
,
0001
0000
0000
1000
0000
0000
0020
0000
,
2030
3002
2003
3002
,
0013
0000
0000
0001
0000
0000
0200
0000
,
0302
0000
2003
0000
3010
0000
1000
0001
;

//---------------dance-single - ----------------
#NOTES:
     dance-single:
     :
     Beginner:
     4:
     0.164063,0.172950,0.000000,0.000000,0.000000,126.000000,126.000000,0.000000,0.000000,0.000000,0.000000,0.164063,0.172950,0.000000,0.000000,0.000000,126.000000,126.000000,0.000000,0.000000,0.000000,0.000000:
0000
0000
0000
0000
,
0000
0000
0000
0000
,
0000
0000
0000
0000
,
0000
0000
0000
0000
,
1000
0000
0000
0000
,
0100
0000
0000
0000
,
0010
0000
0000
0000
,
0001
0000
0000
0000
,
0100
0000
0000
0010
,
0010
0010
0000
0000
,
0100
0000
0000
0001
,
0001
0001
0000
0000
,
0010
0000
0000
0100
,
0100
0100
0000
0000
,
0001
0000
0000
1000
,
1000
1000
0000
0000
,
0010
0000
0100
0000
,
0001
0001
0000
1000
,
1000
0000
0001
0000
,
0100
0100
0000
0010
,
0010
0000
0010
0000
,
0100
0100
0000
0000
,
0001
0000
0010
0000
,
1000
1000
0000
0000
,
0010
0000
1000
0000
,
0001
0001
0000
0000
,
0010
0000
0100
0000
,
1000
1000
0000
0000
,
0001
0000
1000
0000
,
0010
0010
0000
0000
,
0001
0000
0010
0000
,
0100
0100
0000
0000
,
1000
0000
0010
0000
,
1000
1000
0000
0100
,
0100
0000
0010
0000
,
0001
0001
0000
0010
,
0010
0000
0001
0000
,
0100
0100
0000
0010
,
0010
0000
0100
0000
,
1000
1000
0000
0000
,
0001
0001
0000
0001
,
0001
0000
0000
0000
,
1000
1000
0000
1000
,
1000
0000
0000
0000
,
0010
0010
0000
0010
,
0010
0000
0000
0000
,
0100
0100
0000
0100
,
0100
0000
0000
0001
,
0001
0000
1000
0000
,
0010
0100
0000
0001
,
1000
0000
0001
0000
,
1000
0100
0000
0010
,
0001
0000
1000
0000
,
0010
1000
0000
0001
,
0100
0000
0001
0000
,
1000
0001
0000
0010
,
0100
0000
0000
1000
,
1000
1000
0000
0000
,
0010
0000
0000
0100
,
0100
0100
0000
0000
,
0001
0000
0000
0010
,
0010
0010
0000
0000
,
1000
0000
0000
0001
,
0001
0001
0000
0000
;

//---------------dance-single - ----------------
#NOTES:
     dance-single:
     :
     Challenge:
     19:
     1.042971,0.961563,0.473960,0.291667,1.276045,801.000000,749.000000,52.000000,32.000000,0.000000,0.000000,1.042971,0.961563,0.473960,0.291667,1.276045,801.000000,749.000000,52.000000,32.000000,0.000000,0.000000:
// measure 0
0000
0000
0000
0000
,  // measure 1
0000
0000
0000
0000
,  // measure 2
0000
0000
0000
0000
,  // measure 3
0000
0000
0000
0000
,  // measure 4
1000
0001
0100
0010
0001
0100
0010
0100
0001
0010
1000
0001
1000
0010
0100
1000
,  // measure 5
0010
0001
0100
1000
0001
1000
0001
0100
0010
0001
1000
0100
0010
1000
0100
0010
,  // measure 6
0001
0100
1000
0010
0001
0100
0010
1000
0100
0010
0001
1000
0001
1000
0010
0100
,  // measure 7
1000
0100
0010
0001
0100
0010
0100
1000
0001
1000
0010
0001
0010
0001
0100
1000
,  // measure 8
0001
0010
0100
0000
1000
0000
0010
0100
0001
0000
1000
0000
0100
0010
0001
0000
,  // measure 9
0100
0010
1000
0000
0100
0010
0001
0000
1000
0000
0110
0000
1001
0000
0010
0000
,  // measure 10
1000
0100
0010
0000
0001
0000
1000
0001
0010
0000
0100
0000
1000
0001
0100
0000
,  // measure 11
0001
1000
0100
0000
1000
0001
0100
0000
0010
0000
1010
0000
0101
0000
1000
0000
,  // measure 12
0001
0010
1000
0010
0001
0000
0100
1000
0100
0001
0100
0000
0010
1000
0100
0000
,  // measure 13
0010
0001
0100
0000
0010
1000
0100
0000
0010
0001
0100
0000
0010
1000
0100
0000
,  // measure 14
1000
0010
0001
0010
1000
0000
0100
0001
0100
1000
0100
0000
0010
0001
1000
0000
,  // measure 15
0010
1000
0001
0000
0010
0001
1000
0000
0100
0000
0011
0000
1100
0000
0001
0000
,  // measure 16
1000
0010
0100
0001
0100
0001
0100
0010
0100
0001
0010
1000
0001
1000
0010
1000
,  // measure 17
0100
0010
0100
1000
0001
0000
0000
0000
0010
0000
1001
0000
0110
0000
1000
0000
,  // measure 18
0001
0100
0010
1000
1000
0010
0100
0010
0001
0100
0001
1000
1000
0100
0010
0001
,  // measure 19
0010
0001
0100
0010
1000
0000
0000
0000
0001
0000
0011
0000
1010
1000
0001
0000
,  // measure 20
0010
0010
0010
0010
0001
0000
1100
0000
0010
0010
0010
0010
1000
0000
0101
0000
,  // measure 21
1000
0100
0001
1000
0010
0000
0210
0000
0301
0000
1100
0000
0011
0000
2000
0000
,  // measure 22
3010
0001
0001
0010
1000
1000
0010
0100
0100
0010
0001
1000
1000
0100
0100
0001
,  // measure 23
0010
0100
1000
0001
0100
0000
0010
1000
0100
0000
1001
0000
0101
0000
0011
0000
,  // measure 24
2000
3020
0230
0302
0023
0230
2300
3001
,  // measure 25
1001
1010
1100
0001
0100
0010
2000
0000
,  // measure 26
3200
0320
0032
0203
0302
2003
3200
0310
,  // measure 27
0011
0110
1100
0001
1000
0020
0100
0000
,  // measure 28
1030
0100
1000
0100
1000
0100
1000
0100
1000
0100
1000
0100
1000
0100
1000
0100
,  // measure 29
0010
0001
0010
0001
0010
0001
0010
0001
0010
0001
0010
0001
0010
0001
0010
0001
,  // measure 30
0100
0010
0100
0010
0100
0010
0100
0010
0100
0010
0100
0010
0100
0010
0100
0010
,  // measure 31
1000
0001
1000
0001
1000
0001
1000
0001
1000
0001
1000
0001
1000
0001
1000
0001
,  // measure 32
0010
0100
1000
0100
0010
0001
1000
0001
0100
0010
1000
0100
0010
0001
1000
0100
,  // measure 33
0010
0001
0100
0001
1000
0000
0010
0000
0100
0000
0001
0000
0010
0100
1000
0000
,  // measure 34
0010
1000
0001
0010
0100
0010
0001
0100
0010
1000
0001
1000
0100
0010
0100
1000
,  // measure 35
0010
1000
0100
0010
0001
0000
0100
0000
0010
0000
1000
0000
0100
0010
0001
0100
,  // measure 36
0010
1000
0001
0100
0010
0010
0010
1000
0100
0010
0001
0100
0010
1000
0001
0010
,  // measure 37
0100
1000
0001
0100
0010
0010
0010
0000
0100
0000
0001
0000
1000
0100
0001
0000
,  // measure 38
0010
0001
1000
1000
0010
0001
0100
0001
0010
1000
0100
0100
0010
0001
0100
1000
,  // measure 39
0010
0100
0001
1000
0100
0000
0010
0000
0001
0000
0110
0000
1001
0000
0100
0000
,  // measure 40
1100
1001
0101
0010
0000
0000
0011
1001
,  // measure 41
0110
1010
0200
0320
0230
0320
0031
1000
,  // measure 42
1001
1010
1100
0001
0000
0000
0110
1001
,  // measure 43
1010
0000
1100
0000
0002
0000
2003
0000
3001
0010
2000
0000
3200
0000
0310
0000
,  // measure 44
0110
1100
0011
2000
3010
0100
0101
1001
,  // measure 45
0011
0000
0110
0000
1000
0010
0200
0301
0010
0000
0100
0000
1000
0000
0001
0000
,  // measure 46
0010
0001
0100
0001
1000
0010
0100
0000
0001
0000
0011
0000
0110
0000
1100
0000
,  // measure 47
1001
0000
0101
0000
1000
0100
0010
0001
0100
0010
1000
0000
0001
0001
0000
0000
,  // measure 48
0100
1000
0010
1000
0001
0010
0001
0010
0100
1000
0100
0001
1000
0010
0001
0100
,  // measure 49
0010
1000
0100
0010
0002
0000
0000
0000
0103
0001
0010
0100
1000
0001
1000
0000
,  // measure 50
0100
0010
1000
0010
1000
0001
0001
0010
0100
1000
0010
0001
1000
0100
0001
0100
,  // measure 51
1000
0010
0001
0100
2000
0000
0000
0000
3100
0010
0001
0100
0010
0000
1000
0000
,  // measure 52
0001
0100
0010
1000
0100
1000
0100
0001
0010
0001
0010
1000
0010
0001
1000
0100
,  // measure 53
0001
0010
0100
1000
0020
0000
0100
0000
0230
0000
0001
0000
0310
1000
0001
0000
,  // measure 54
0010
0001
1000
0100
0001
0001
0010
1000
0010
0100
1000
0100
0100
0001
0010
1000
,  // measure 55
0100
0010
0001
0100
1000
0001
0010
0001
0100
0010
1000
0100
1000
0010
0100
0001
,  // measure 56
0010
1000
0010
0100
0010
0000
0001
0100
1000
0100
0001
0000
1000
0100
0001
0000
,  // measure 57
1000
0010
0001
0000
1000
0100
0001
0000
1000
0010
0100
0001
0010
0100
1000
0000
,  // measure 58
0010
0100
0001
0010
0100
0000
1000
0001
1000
0010
1000
0000
0100
0010
0001
0000
,  // measure 59
0100
0010
1000
0000
0100
0010
0001
0000
1000
0001
0010
0001
0010
0100
1000
0000
,  // measure 60
0010
0001
0010
1000
0100
0000
0001
0100
0010
0001
1000
0000
0001
0100
1000
0000
,  // measure 61
1000
0100
0001
0000
0001
0100
1000
0000
1000
0100
0001
0000
0001
0100
1000
0000
,  // measure 62
0010
0100
1000
0100
0010
0010
0100
0001
0100
0010
0001
0100
1000
0010
0010
0100
,  // measure 63
1000
0001
1000
1000
0001
0001
0100
1000
0001
0010
0001
0100
1000
1000
0010
0001
;
