#VERSION:0.83;
#TITLE:gentle stress (AMD SEXUAL MIX);
#SUBTITLE:;
#ARTIST:MR.DOG feat. DJ SWAN;
#TITLETRANSLIT:;
#SUBTITLETRANSLIT:;
#ARTISTTRANSLIT:;
#GENRE:;
#ORIGIN:;
#CREDIT:;
#BANNER:gentle stress (AMD SEXUAL MIX).png;
#BACKGROUND:gentle stress (AMD SEXUAL MIX)-bg.png;
#PREVIEWVID:;
#JACKET:gentle stress (AMD SEXUAL MIX)-jacket.png;
#CDIMAGE:;
#DISCIMAGE:;
#LYRICSPATH:;
#CDTITLE:;
#MUSIC:gentle stress (AMD SEXUAL MIX).ogg;
#OFFSET:0.000000;
#SAMPLESTART:61.500000;
#SAMPLELENGTH:15.000000;
#SELECTABLE:YES;
#DISPLAYBPM:160.000000;
#BPMS:0.000=160.001;
#STOPS:;
#DELAYS:;
#WARPS:;
#TIMESIGNATURES:0.000=4=4;
#TICKCOUNTS:0.000=4;
#COMBOS:0.000=1;
#SPEEDS:0.000=1.000=0.000=0;
#SCROLLS:0.000=1.000;
#FAKES:;
#LABELS:0.000=Song Start;
#BGCHANGES:;
#KEYSOUNDS:;
#ATTACKS:
;

//---------------dance-single - ----------------
#NOTEDATA:;
#CHARTNAME:;
#STEPSTYPE:dance-single;
#DESCRIPTION:;
#CHARTSTYLE:;
#DIFFICULTY:Beginner;
#METER:3;
#RADARVALUES:0.186579,0.353178,0.185024,0.000000,0.000000,120.000000,103.000000,17.000000,0.000000,0.000000,0.000000,0.000000,0.000000,0.000000,0.186579,0.353178,0.185024,0.000000,0.000000,120.000000,103.000000,17.000000,0.000000,0.000000,0.000000,0.000000,0.000000,0.000000;
#CREDIT:;
#DISPLAYBPM:160.000000;
#NOTES:
0000
0000
0000
0000
,
0000
0000
0000
0000
,
0000
0000
0000
0000
,
0000
0000
0000
0000
,
0000
0000
0000
0000
,
1001
0000
0000
0000
,
0000
0000
0000
0000
,
1001
0000
0000
0000
,
0000
0000
0000
0000
,
0001
0000
0010
0000
,
0001
0000
0010
0000
,
0001
0000
0001
0000
,
1001
0000
1001
0000
,
1000
0000
0010
0000
,
1000
0000
0010
0000
,
1000
0000
1000
0000
,
1001
0000
0000
0000
,
0001
0000
0010
0000
,
0001
0000
0010
0000
,
0001
0000
0001
0000
,
1001
0000
1001
0000
,
1000
0000
0010
0000
,
1000
0000
0010
0000
,
1000
0000
1000
0000
,
1001
0000
0000
0000
,
1000
0000
1000
0000
,
1000
0000
0000
0000
,
0001
0000
0001
0000
,
0001
0000
0000
0000
,
0010
0000
1000
0000
,
0100
0000
0001
0000
,
1000
0000
1000
0000
,
1001
0000
0000
0000
,
1000
0000
1000
0000
,
1000
0000
0000
0000
,
0001
0000
0001
0000
,
0001
0000
0000
0000
,
0010
0000
1000
0000
,
0100
0000
0001
0000
,
0100
0100
0100
0100
,
0100
0100
0100
0000
,
0010
0000
0010
0000
,
1000
0000
0010
0000
,
0010
0000
1000
0000
,
1001
0000
1001
0000
,
0010
0000
0010
0000
,
0100
0000
0100
0000
,
0001
0001
0001
0000
,
1000
1000
1000
0000
,
1000
0000
1000
0000
,
1000
0000
0000
0000
,
0001
0000
0001
0000
,
0001
0000
0000
0000
,
0010
0000
1000
0000
,
0100
0000
0001
0000
,
1000
1000
1000
0000
,
0110
0110
0110
0000
,
0001
0001
0001
0000
,
1001
1001
1001
0000
,
0100
0000
0000
0000
;

//---------------dance-single - ----------------
#NOTEDATA:;
#CHARTNAME:;
#STEPSTYPE:dance-single;
#DESCRIPTION:;
#CHARTSTYLE:;
#DIFFICULTY:Easy;
#METER:7;
#RADARVALUES:0.296971,0.385285,0.217675,0.000000,0.000000,191.000000,171.000000,20.000000,0.000000,0.000000,0.000000,0.000000,0.000000,0.000000,0.296971,0.385285,0.217675,0.000000,0.000000,191.000000,171.000000,20.000000,0.000000,0.000000,0.000000,0.000000,0.000000,0.000000;
#CREDIT:;
#DISPLAYBPM:160.000000;
#NOTES:
0000
0000
0000
0000
,
0000
0000
0000
0000
,
0000
0000
0000
0000
,
0000
0000
0000
0000
,
0000
0000
0000
0000
,
0010
0010
1000
0100
,
0001
0100
1000
0100
,
0010
0010
0001
0100
,
0010
0000
0000
0000
,
1001
0100
0010
1000
,
0100
0100
0001
0010
,
1000
1000
0001
0100
,
0010
0000
1000
0000
0000
0001
0000
0000
,
1001
0100
0010
0001
,
0100
0100
1000
0010
,
0001
0001
1000
0100
,
0010
0000
0000
0000
,
1001
0100
0010
0001
,
0100
0100
1000
0010
,
0001
0001
1000
0100
,
0010
0000
0001
0000
0000
1000
0000
0000
,
1001
0100
0010
1000
,
0100
0100
0001
0010
,
1000
1000
0001
0100
,
0010
0000
0000
0000
,
1001
0000
1000
0000
,
0100
0000
0000
0100
,
1000
0000
0001
0000
,
0100
0000
0000
0100
,
1000
0010
0001
0100
,
1000
0100
0001
0010
,
1000
0000
0000
0100
,
0110
0000
0000
0000
,
1001
0000
0001
0000
,
1000
0000
0000
0100
,
0001
0000
1000
0000
,
0001
0000
0000
0100
,
0001
0010
1000
0100
,
0001
0100
1000
0010
,
1000
1000
1000
1000
,
1000
1000
1000
0100
,
1001
0100
0010
0001
,
0100
0100
1000
0010
,
1000
1000
0001
0100
,
0010
0000
0001
0000
0000
0100
0000
0000
,
1001
0100
0010
1000
,
0100
0100
0001
0010
,
0001
0001
1000
0100
,
0100
0000
0000
0000
,
1001
0000
1001
0000
,
0110
0000
0000
0100
,
1001
0000
1001
0000
,
0110
0000
0000
0010
,
1000
0000
0010
0000
0000
0001
0000
0000
,
1000
0000
0000
0010
0000
0000
0100
0000
,
1001
0000
0010
0000
0010
0000
0010
0010
,
0010
0000
0010
0000
0010
0000
0010
0010
,
0010
0000
0100
0000
,
1001
1001
1001
0100
,
0110
0000
0000
0000
;

//---------------dance-single - ----------------
#NOTEDATA:;
#CHARTNAME:;
#STEPSTYPE:dance-single;
#DESCRIPTION:;
#CHARTSTYLE:;
#DIFFICULTY:Medium;
#METER:9;
#RADARVALUES:0.404254,0.481606,0.282978,0.000000,0.000000,260.000000,234.000000,26.000000,0.000000,0.000000,0.000000,0.000000,0.000000,0.000000,0.404254,0.481606,0.282978,0.000000,0.000000,260.000000,234.000000,26.000000,0.000000,0.000000,0.000000,0.000000,0.000000,0.000000;
#CREDIT:;
#DISPLAYBPM:160.000000;
#NOTES:
0000
0000
0000
0000
,
0000
0000
0000
0000
,
0000
0000
0000
0000
,
0000
0000
0000
0000
,
0000
0000
0000
0000
,
0010
0001
0100
0000
0010
1000
0100
0000
,
0001
0000
0100
0000
0010
0001
0100
0000
,
0010
1000
0100
0000
0010
0001
0100
0000
,
0010
0000
0000
0000
,
1001
0000
0100
0000
0001
1000
0100
0000
,
0010
0000
0001
0000
1000
0010
0100
0000
,
0001
0000
0100
0000
0010
1000
0100
0000
,
0010
0000
0101
0000
0000
1100
0000
0000
,
0011
0000
0100
0000
1000
0001
0100
0000
,
0010
0000
1000
0000
0001
0010
0100
0000
,
1000
0000
0100
0000
0010
0001
0100
0000
,
0010
0000
0000
0000
,
1001
0000
0100
0000
1000
0001
0100
0000
,
0010
0000
1000
0000
0001
0010
0100
0000
,
1000
0000
0100
0000
0010
0001
0100
0000
,
0010
0000
1100
0000
0000
0101
0000
0000
,
1010
0000
0100
0000
0001
1000
0100
0000
,
0010
0000
0001
0000
1000
0010
0100
0000
,
0001
0000
0100
0000
0010
1000
0100
0010
,
0000
0000
0000
0000
,
1000
0100
0010
0001
0000
0000
0100
0000
,
1000
0100
0010
0001
0000
0000
0010
0000
,
0001
0010
0100
1000
0000
0000
0100
0000
,
0001
0010
0100
1000
0000
0000
0100
0000
,
0010
0000
0001
0000
0000
0100
0000
0000
,
0010
0000
0000
1000
0000
0000
0100
0000
,
0010
0001
1000
0100
0000
0000
0000
0100
,
0100
0000
0000
0000
,
0001
0010
0100
1000
0000
0000
0100
0000
,
0001
0010
0100
1000
0000
0000
0010
0000
,
1000
0100
0010
0001
0000
0000
0100
0000
,
1000
0100
0010
0001
0000
0000
0100
0000
,
0010
0000
1000
0000
0000
0100
0000
0000
,
0010
0000
0000
0001
0000
0000
0100
0000
,
1000
0100
1000
0000
0001
0010
0001
0000
,
1000
0100
1000
0000
0010
0000
0100
0000
,
0011
0000
0100
0000
1000
0100
0001
0000
,
0001
0100
1000
0000
1000
0100
0001
0000
,
1000
0100
0001
0000
0001
0000
0100
0000
,
0010
0000
1100
0000
0000
0101
0000
0000
,
1010
0000
0100
0000
0001
0100
1000
0000
,
1000
0100
0001
0000
0001
0100
1000
0000
,
0001
0100
1000
0000
0001
0100
0000
0100
,
0000
0000
0000
0000
,
1000
0100
0010
0001
0000
0000
0100
0000
,
0001
0010
0100
1000
0000
0000
0010
0000
,
1000
0100
0010
0001
0000
0000
0100
0000
,
0001
0010
0100
1000
0000
0000
0100
0000
,
1100
0000
0011
0000
0000
0101
0000
0000
,
1100
0000
0000
0011
0000
0000
1100
0000
,
0011
0100
0100
0100
,
0101
0100
0100
0100
,
1100
0100
0101
0100
,
1100
0101
1100
0100
,
0011
0000
0000
0000
;

//---------------dance-single - ----------------
#NOTEDATA:;
#CHARTNAME:;
#STEPSTYPE:dance-single;
#DESCRIPTION:;
#CHARTSTYLE:;
#DIFFICULTY:Hard;
#METER:12;
#RADARVALUES:0.505318,0.610035,0.348280,0.000000,0.125163,325.000000,293.000000,32.000000,0.000000,0.000000,0.000000,0.000000,0.000000,0.000000,0.505318,0.610035,0.348280,0.000000,0.125163,325.000000,293.000000,32.000000,0.000000,0.000000,0.000000,0.000000,0.000000,0.000000;
#CREDIT:;
#DISPLAYBPM:160.000000;
#NOTES:
0000
0000
0000
0000
,
0000
0000
0000
0000
,
0000
0000
0000
0000
,
0000
0000
0000
0000
,
0000
0000
0000
0000
,
1000
0000
0010
0000
0001
1000
0100
0000
,
0100
0000
0001
0010
0000
1000
0010
0000
,
0000
0000
0010
0000
0001
1000
0000
0100
,
0011
0000
0000
0000
,
1001
0000
0010
0000
1000
0001
0100
0000
,
0100
0000
1000
0010
0000
0001
0010
0000
,
0000
0000
0010
0000
0001
1000
0100
0000
,
0100
0000
0011
0100
0000
1010
0100
0000
,
1001
0000
0010
0000
0001
1000
0100
0000
,
0100
0000
0001
0010
0000
1000
0010
0000
,
0000
0000
0010
0000
0001
1000
0000
0100
,
0011
0000
0000
0000
,
1001
0000
0000
0000
0100
0000
0000
0010
0001
0000
1000
0000
0000
0000
0100
0000
,
0001
0000
1000
0010
0000
0001
0100
0000
,
0010
0000
0000
0000
0100
0000
0000
0010
1000
0000
0001
0000
0000
0000
0100
0000
,
1000
0000
0001
0010
0000
1000
0100
0000
,
1001
0000
0000
0000
0100
0000
0000
0010
0001
0000
1000
0000
0000
0000
0100
0000
,
0001
0000
1000
0010
0000
0001
0100
0000
,
0010
0000
0000
0000
1000
0000
0000
0010
0001
0000
0100
0000
0000
0000
0100
0000
,
1010
0000
0000
0000
,
1001
0100
0010
0001
1000
0100
0010
0001
,
1000
0100
0010
0001
0000
0100
1000
0000
,
0001
0010
0100
1000
0001
0010
0100
1000
,
0001
0010
0100
1000
0000
0100
0001
0000
,
0011
0000
1100
0000
0000
0110
0000
0000
,
1010
0000
0000
0101
0000
0000
1100
0000
,
0001
0010
0100
1000
0001
0010
0100
1000
,
0011
0000
0100
0000
0000
0100
0000
0010
,
1001
0100
0010
1000
0001
0100
0010
1000
,
0001
0100
0010
1000
0000
0001
0010
0100
,
1000
0010
0100
0001
1000
0010
0100
0001
,
1000
0010
0100
0001
0000
0010
0001
0100
,
1010
0000
0101
0000
0000
0110
0000
0000
,
0011
0000
0000
1100
0000
0000
0101
0000
,
0010
1000
0100
0001
0010
0100
1000
0100
,
0010
0001
0010
0100
1000
0000
0010
0000
,
1100
0000
0000
0000
0000
0000
0000
0010
0001
0000
0000
0100
0000
0000
1000
0000
,
0001
0000
0000
0010
0000
0000
0100
0000
1000
0000
0000
0100
0000
0000
0001
0000
,
1000
0000
0100
0001
0000
0000
0000
0000
,
0000
0000
0000
0000
0000
0000
0010
0001
0010
0000
0000
0100
0000
0000
1000
0000
,
0010
0001
0000
0000
,
1000
0000
0100
0000
0001
0000
0010
0000
0100
0000
1000
0000
,
0001
0010
0001
0010
0100
0010
0100
1000
0100
1000
0100
1000
,
0001
0000
0000
0000
,
0010
0001
1000
0100
0100
1000
0001
0010
,
1000
0100
0010
0001
0000
0100
0100
0000
,
0010
1000
0001
0100
0100
0001
1000
0010
,
0001
0000
0100
0000
0010
0000
1000
0000
0000
0000
0100
0000
0001
1000
0001
0000
,
0100
0000
0011
0000
0000
1010
0000
0000
,
0101
0000
0000
1010
0000
0000
0101
0000
,
1010
0010
0010
0010
0010
0010
0010
1000
,
0100
0010
0010
0010
0010
0010
0010
0001
,
0100
0010
0010
0010
1000
0010
0010
0010
,
0001
0100
1000
0100
0001
0100
0100
0000
,
1010
0000
0000
0000
;

//---------------dance-double - ----------------
#NOTEDATA:;
#CHARTNAME:;
#STEPSTYPE:dance-double;
#DESCRIPTION:;
#CHARTSTYLE:;
#DIFFICULTY:Easy;
#METER:7;
#RADARVALUES:0.377822,0.481606,0.544188,0.000000,0.000000,243.000000,193.000000,50.000000,0.000000,0.000000,0.000000,0.000000,0.000000,0.000000,0.377822,0.481606,0.544188,0.000000,0.000000,243.000000,193.000000,50.000000,0.000000,0.000000,0.000000,0.000000,0.000000,0.000000;
#CREDIT:;
#DISPLAYBPM:160.000000;
#NOTES:
00000000
00000000
00000000
00000000
,
00000000
00000000
00000000
00000000
,
00000000
00000000
00000000
00000000
,
00000000
00000000
00000000
00000000
,
00000000
00000000
00000000
00000000
,
10000000
01000000
00100000
00010000
,
01000000
00010000
00100000
00001000
,
00000010
00000001
00001000
00000100
,
00010000
00000000
00000000
00000000
,
00001001
00000100
00010000
00001000
,
00100000
00010000
01000000
00001000
,
00010000
00000010
00001000
00000100
,
00010000
00000000
00001001
00000000
00000000
00011000
00000000
00000000
,
10010000
01000000
00001000
00010000
,
00000010
00001000
00000100
00010000
,
00001000
00100000
00010000
01000000
,
00001000
00000000
00000000
00000000
,
00001001
00000100
00010000
00001000
,
00100000
00010000
01000000
00001000
,
00010000
00000010
00001000
00000100
,
00010000
00000000
00001001
00000000
00000000
00011000
00000000
00000000
,
10010000
01000000
00001000
00010000
,
00000010
00001000
00000100
00010000
,
00001000
00100000
00010000
01000000
,
00010000
00000000
00000000
00000000
,
10100000
01000000
01010000
00100000
,
00011000
00000100
00001000
00000000
,
00000011
00000100
00001100
00000010
,
00011000
01000000
00010000
00000000
,
00100000
00000000
00001000
00010000
00001000
00000000
00000000
00000000
,
00010000
00001000
00010000
00000000
00000000
00000000
00000100
00000000
,
00110000
00110000
00001100
00001100
,
00000100
00000000
00000000
00000000
,
00000011
00000100
00001100
00000010
,
00011000
01000000
00010000
00000000
,
10100000
01000000
01010000
00100000
,
00011000
00000100
00001000
00000000
,
00000010
00000000
00010000
00001000
00010000
00000000
00000000
00000000
,
00001000
00010000
00001000
00000000
00000000
00000000
01000000
00000000
,
00100000
10000000
01000000
00010000
,
00001000
00000010
00000001
00000100
,
00001010
00000000
00011000
00000000
00100000
00010000
10000000
00000000
,
01100000
10010000
01000000
00010000
,
00011000
00000000
00001100
00000000
00000010
00001000
00000100
00000000
,
00000010
00000000
00001100
00000000
00000000
00011000
00000000
00000000
,
00110000
00000000
00011000
00000000
00000010
00001000
00000001
00000000
,
00000110
00001001
00000100
00001000
,
00011000
00000000
01010000
00000000
00100000
00010000
01000000
00000000
,
01000000
00000000
00000000
00000000
,
10100000
01000000
01010000
00100000
,
00011000
00000100
00001000
00000000
,
00000011
00000100
00001100
00000010
,
00011000
01000000
00010000
00000000
,
00100000
00000000
00001000
00000000
00000000
00000100
00000000
00000000
,
00010000
00000000
00000000
01000000
00000000
00000000
00001000
00000000
,
00000010
00000001
00000100
00001000
,
00010000
00100000
10000000
01000000
,
00110000
00000000
01100000
00000000
,
00110000
00011000
00001100
00000010
,
00000101
00000000
00000000
00000000
;

//---------------dance-double - ----------------
#NOTEDATA:;
#CHARTNAME:;
#STEPSTYPE:dance-double;
#DESCRIPTION:;
#CHARTSTYLE:;
#DIFFICULTY:Medium;
#METER:9;
#RADARVALUES:0.419802,0.481606,0.315629,0.000000,0.000000,270.000000,241.000000,29.000000,0.000000,0.000000,0.000000,0.000000,0.000000,0.000000,0.419802,0.481606,0.315629,0.000000,0.000000,270.000000,241.000000,29.000000,0.000000,0.000000,0.000000,0.000000,0.000000,0.000000;
#CREDIT:;
#DISPLAYBPM:160.000000;
#NOTES:
00000000
00000000
00000000
00000000
,
00000000
00000000
00000000
00000000
,
00000000
00000000
00000000
00000000
,
00000000
00000000
00000000
00000000
,
00000000
00000000
00000000
00000000
,
00001000
00000000
00010000
00000000
00001000
00010000
00000100
00000000
,
00010000
00000000
00001000
00000000
00010000
00001000
01000000
00000000
,
00001000
00000000
00010000
00000000
00001000
00010000
00001000
00000000
,
00011000
00000000
00000000
00000000
,
00001001
00000000
00000100
00000010
00000000
00001000
00000000
00000000
,
00000010
00000000
00001000
00000100
00000000
00010000
00001000
00000000
,
00100000
00000000
00001000
01000000
00000000
00010000
00000000
10000000
,
01000000
00000000
00110000
00000000
00000000
00011000
00000000
00000000
,
10010000
00000000
01000000
00100000
00000000
00010000
01000000
00000000
,
00100000
00000000
00010000
01000000
00000000
00001000
00010000
00000000
,
00000010
00000000
00010000
00000100
00000000
00001000
00000100
00000000
,
00010000
00000000
00000000
00000000
,
10010000
00000000
01000000
00100000
00000000
00010000
00000000
00000000
,
00100000
00000000
00010000
01000000
00000000
00001000
00010000
00000000
,
00000010
00000000
00010000
00000100
00000000
00001000
00000000
00000001
,
00000100
00000000
00001010
00000000
00000000
00011000
00000000
00000000
,
00001001
00000000
00000100
00000010
00000000
00001000
00000100
00000000
,
00000010
00000000
00001000
00000100
00000000
00010000
00001000
00000000
,
00100000
00000000
00001000
01000000
00000000
00010000
01000000
00000000
,
00001000
00000000
00000000
00000000
,
00100000
00001000
00010000
00000100
00000000
00001000
00000000
00000000
,
00000100
00010000
00001000
00100000
00000000
00001000
00010000
00000000
,
00000100
00010000
00001000
00100000
00000000
00010000
00000000
00000000
,
00100000
00001000
00010000
00000100
00000000
00001000
00000000
00000000
,
00100000
00000000
00001000
00000000
00000000
01000000
00000000
00000000
,
00100000
00000000
00000000
01000000
00000000
00000000
00001000
00000000
,
00100000
00001000
00010000
00000100
00000000
00010000
00000000
00001000
,
00010000
00000000
00000000
00000000
,
00000010
00010000
00001000
01000000
00000000
00010000
00000000
00000000
,
01000000
00001000
00010000
00000010
00000000
00010000
00001000
00000000
,
01000000
00001000
00010000
00000010
00000000
00001000
00000000
00000000
,
00000010
00010000
00001000
01000000
00000000
00010000
00000000
00000000
,
00000010
00000000
00010000
00000000
00000000
00000100
00000000
00000000
,
00000010
00000000
00000000
00000100
00000000
00000000
00010000
00000000
,
00001000
00000000
00010000
00001000
01000000
00000000
00001000
00010000
,
00000100
00000000
00010000
00001000
01000000
00000000
00100000
00000000
,
11000000
00000000
00100000
00000000
10000000
00010000
01000000
00000000
,
00100000
01000000
00001000
00000000
00010000
00001000
01000000
00000000
,
00010000
00100000
00001000
00000000
00110000
00000000
00011000
00000000
,
00000100
00000000
00011000
00000000
00000000
00001010
00000000
00000000
,
00000101
00000000
00000010
00000000
00000001
00001000
00000100
00000000
,
00000010
00000100
00010000
00000000
00001000
00010000
00000100
00000000
,
00001000
00000010
00010000
00000000
00001010
00000000
00011000
00000000
,
01000000
00000000
00000000
00000000
,
10000000
01000000
00100000
00010000
00000000
00000010
00000100
00000000
,
00000001
00000010
00000100
00001000
00000000
00100000
01000000
00000000
,
10000000
01000000
00100000
00010000
00000000
00000010
00000100
00000000
,
00000001
00000010
00000100
00001000
00000000
00100000
01000000
00000000
,
10010000
00000000
01100000
00000000
00000000
00110000
00000000
00000000
,
00001100
00000000
00000000
00000110
00000000
00000000
00001001
00000000
,
00000010
00001000
00000100
00000000
00001000
00000100
00010000
00000000
,
00001000
00100000
00010000
00000000
10000000
00100000
01000000
00000000
,
00110000
10000000
11000000
00100000
,
00011000
00001100
00000011
00000100
,
00011000
00000000
00000000
00000000
;

//---------------dance-double - ----------------
#NOTEDATA:;
#CHARTNAME:;
#STEPSTYPE:dance-double;
#DESCRIPTION:;
#CHARTSTYLE:;
#DIFFICULTY:Hard;
#METER:12;
#RADARVALUES:0.562846,0.706356,0.370048,0.000000,0.076186,362.000000,328.000000,34.000000,0.000000,0.000000,0.000000,0.000000,0.000000,0.000000,0.562846,0.706356,0.370048,0.000000,0.076186,362.000000,328.000000,34.000000,0.000000,0.000000,0.000000,0.000000,0.000000,0.000000;
#CREDIT:;
#DISPLAYBPM:160.000000;
#NOTES:
00000000
00000000
00000000
00000000
,
00000000
00000000
00000000
00000000
,
00000000
00000000
00000000
00000000
,
00000000
00000000
00000000
00000000
,
00000000
00000000
00000000
00000000
,
00100000
00000000
10000000
00000000
00001000
00010000
00000100
00000000
,
00000010
00000001
00000100
00000100
00001000
00000100
00000100
00000000
,
00010000
00001000
00000100
00000000
00000100
00000100
00000000
00010000
,
00011000
00000000
00000000
00000000
,
00110000
00000000
01000000
10000000
00000000
00010000
00000000
00000000
,
00100000
00000000
00000000
00000000
10000000
00000000
00100000
00000000
00000000
00000000
00000000
00000000
00010000
00100000
00010000
00100000
,
00001000
00000000
00010000
00000010
00000000
00000100
00000000
00000001
,
00000001
00000000
00001100
00000010
00000000
00000101
00000010
00000000
,
00001000
00000000
00000001
00000010
00000000
00010000
00000100
00010000
,
00001000
00000000
00001000
00010000
00001000
00000000
01000000
00100000
,
10000000
00000000
00100000
01000000
00000000
00001000
00010000
00000010
,
00000100
00000000
00010000
00000010
00000000
00000100
00000000
00000000
,
00001010
00000000
00000100
00000001
00000000
00001000
00000000
00000000
,
00000010
00000000
00000000
00000000
00000001
00000000
00000010
00000000
00000000
00000000
00000000
00000000
00001000
00000010
00001000
00000010
,
00010000
00000000
00001000
00100000
00000000
01000000
00000000
10000000
,
10000000
00000000
01010000
00100000
00000000
11000000
00100000
00000000
,
00010000
00000000
10000000
00100000
00000000
10000000
10000000
00010000
,
00001000
00000000
00010000
00001000
00010000
00000100
00000010
00000000
,
00000001
00000000
00000010
00000100
00010000
00010000
00001000
00100000
,
01000000
00000000
00000000
00000000
,
10000000
01000000
00100000
00010000
00100000
00010000
00001000
00000100
,
00001000
00000100
00000010
00000001
00000000
00001000
00000100
00000100
,
00000001
00000010
00000100
00001000
00000100
00001000
00010000
00100000
,
00010000
00100000
01000000
10000000
00000000
01000000
10000000
10000000
,
10000000
00000000
00110000
00000000
00000000
00011000
00000000
00000000
,
00000110
00000000
00000000
00000011
00000000
00000000
00001100
00000000
,
00000001
00000010
00000100
00001000
00000010
00010000
00000100
00000010
,
00000000
00000000
00000010
00000000
00000000
00000100
00000000
00000100
,
00000001
00000010
00000100
00001000
00000100
00001000
00010000
00100000
,
00010000
00100000
01000000
10000000
00000000
00010000
01000000
01000000
,
10000000
01000000
00100000
00010000
00100000
00010000
00001000
00000100
,
00001000
00000100
00000010
00000001
00000000
00000100
00000001
00000001
,
00000001
00000000
00001010
00000000
00000000
00011000
00000000
00000000
,
01100000
00000000
00000000
10100000
00000000
00000000
01010000
00000000
,
00100000
10000000
00010000
01000000
00001000
00000010
00000001
00000100
,
00010000
01000000
00100000
10000000
00010000
00000000
10100000
00000000
,
01010000
00100000
00001000
00010000
00001000
01000000
00010000
00000010
,
00000001
00001000
00000100
00000010
00000001
00000100
00000010
00000000
,
00001000
00000010
00010000
00001000
00010000
00000100
00001000
00100000
,
10000000
00010000
01000000
00100000
10000000
01000000
00100000
00000000
,
10010000
00100000
01000000
00010000
00000100
00000010
00000001
00000000
,
00000100
00000010
00001000
00000000
00000110
00000000
00000101
00000000
,
00000010
00001000
00000100
00010000
00001000
01000000
00100000
10000000
00010000
01000000
00100000
10000000
,
01000000
00000000
00000000
00000000
,
00010000
00100000
01000000
10000000
00100000
00010000
00001000
00000100
,
00000001
00000010
00000100
00001000
00000000
00000001
00000100
00000100
,
00001000
00000100
00000010
00000001
00000100
00001000
00010000
00100000
,
10000000
00000000
01000000
00000000
00100000
00000000
00010000
00000000
00000000
00000000
01000000
00000000
00001000
00010000
00001000
00010000
,
00001000
00000000
00110000
00100000
00000000
00011000
00010000
00000000
,
00000110
00000100
00000000
00000011
00000001
00000000
00001100
00000000
,
00100000
10000000
00010000
01000000
00001000
00000010
00000001
00000100
,
00010000
01000000
00100000
10000000
00010000
01000000
00100000
10000000
,
01010000
01000000
00100000
00001000
00011000
00010000
00000100
00010000
,
00011000
00010000
00001010
00001000
00000101
00000000
00001010
00000000
,
00000101
00000000
00000000
00000000
;

//---------------dance-couple - ----------------
#NOTEDATA:;
#CHARTNAME:;
#STEPSTYPE:dance-couple;
#DESCRIPTION:;
#CHARTSTYLE:;
#DIFFICULTY:Medium;
#METER:8;
#RADARVALUES:0.331177,0.481606,0.206791,0.000000,0.000000,213.000000,194.000000,19.000000,0.000000,0.000000,0.000000,0.000000,0.000000,0.000000,0.331177,0.481606,0.206791,0.000000,0.000000,213.000000,194.000000,19.000000,0.000000,0.000000,0.000000,0.000000,0.000000,0.000000;
#CREDIT:;
#DISPLAYBPM:160.000000;
#NOTES:
00000000
00000000
00000000
00000000
,
00000000
00000000
00000000
00000000
,
00000000
00000000
00000000
00000000
,
00000000
00000000
00000000
00000000
,
00000000
00000000
00000000
00000000
,
00100010
00010001
01000100
00000000
00100010
10001000
01000100
00000000
,
00010001
00000000
01000100
00000000
00100010
00010001
01000100
00000000
,
00100010
10001000
01000100
00000000
00100010
00010001
01000100
00000000
,
00100010
00000000
00000000
00000000
,
10010000
00000000
01000001
00000000
00010000
10000000
01000001
00000000
,
00100000
00000000
00010001
00000000
10000000
00100000
01000001
00000000
,
00010000
00000000
01000001
00000000
00100000
10000000
01000001
00000000
,
00100000
00000000
01010001
00000000
00000000
11000000
00000001
00000000
,
00110000
00000000
01000001
00000000
10000000
00010000
01000001
00000000
,
00100000
00000000
10000001
00000000
00010000
00100000
01000001
00000000
,
10000000
00000000
01000001
00000000
00100000
00010000
01000001
00000000
,
00100000
00000000
00000000
00000000
,
00001001
00000000
10000100
00000000
00000001
00001000
10000100
00000000
,
00000010
00000000
10000001
00000000
00001000
00000010
10000100
00000000
,
00000001
00000000
10000100
00000000
00000010
00001000
10000100
00000000
,
00000010
00000000
10000101
00000000
00000000
00001100
10000000
00000000
,
00000011
00000000
10000100
00000000
00001000
00000001
10000100
00000000
,
00000010
00000000
10001000
00000000
00000001
00000010
10000100
00000000
,
00001000
00000000
10000100
00000000
00000010
00000001
10000100
00000000
,
00000010
00000000
00000000
00000000
,
00010001
00100000
01000000
10000000
00010001
00100000
01000000
10000000
,
00010001
00100000
01000000
10000000
00000000
00000000
00000000
00000000
,
10000001
00000010
00000100
00001000
10000001
00000010
00000100
00001000
,
10000001
00000010
00000100
00001000
00000000
00000000
00000000
00000000
,
00111010
00000000
11000101
00000000
00000000
01100110
00000000
00000000
,
10100011
00000000
00000000
01011100
00000000
00000000
11000101
00000000
,
00010000
00100000
01000000
10000000
00000001
00000010
00000100
00001000
,
10101010
00000000
00000000
00000000
,
10001000
00000010
00000100
00000001
10001000
00000010
00000100
00000001
,
10001000
00000010
00000100
00000001
00000000
00000000
00000000
00000000
,
10000001
00100000
01000000
00010000
10000001
00100000
01000000
00010000
,
10000001
00100000
01000000
00010000
00000000
00000000
00000000
00000000
,
00100010
00000000
10001000
00000000
00000000
01000100
00000000
00000000
,
00100010
00000000
00000000
00010001
00000000
00000000
01000100
00000000
,
10001000
01000100
10001000
00000000
00010001
00100010
00010001
00000000
,
10001000
01000100
10001000
00000000
00100010
00000000
01000100
00000000
,
00110011
10001000
01000100
01000100
,
10001000
00010001
01000100
01000100
,
10001000
01000100
00010001
00000000
00010001
00000000
01000100
00000000
,
00100010
00000000
11001100
00000000
00000000
01010101
00000000
00000000
,
10101010
00000000
01000100
00000000
00010001
01000100
10001000
00000000
,
10001000
01000100
00010001
00000000
00010001
01000100
10001000
00000000
,
00010001
10001000
00010001
01000100
,
01000100
00000000
00000000
00000000
,
10000010
00000001
00001000
00000100
10000100
00001000
00000001
00000010
,
10001000
00000100
00000010
00000001
00000000
00000100
00000100
00000000
,
00100001
00010000
10000000
01000000
01000001
10000000
00010000
00100000
,
10000001
01000000
00100000
00010000
00000000
01000000
01000000
00000000
,
10001000
00000000
00100010
00000000
00000000
00010001
00000000
00000000
,
10001000
00000000
00000000
00100010
00000000
00000000
01000100
00000000
,
10011001
00000000
00100010
00000000
00100010
00000000
00100010
00100010
,
00100010
00000000
00100010
00000000
00100010
00000000
00100010
00100010
,
00100010
00000000
01000100
00000000
,
10010000
00001001
10010000
00001001
,
01100110
00000000
00000000
00000000
;

//---------------dance-solo - ----------------
#NOTEDATA:;
#CHARTNAME:;
#STEPSTYPE:dance-solo;
#DESCRIPTION:;
#CHARTSTYLE:;
#DIFFICULTY:Easy;
#METER:7;
#RADARVALUES:0.293862,0.385285,0.206791,0.000000,0.000000,189.000000,170.000000,19.000000,0.000000,0.000000,0.000000,0.000000,0.000000,0.000000,0.293862,0.385285,0.206791,0.000000,0.000000,189.000000,170.000000,19.000000,0.000000,0.000000,0.000000,0.000000,0.000000,0.000000;
#CREDIT:;
#DISPLAYBPM:160.000000;
#NOTES:
000000
000000
000000
000000
,
000000
000000
000000
000000
,
000000
000000
000000
000000
,
000000
000000
000000
000000
,
000000
000000
000000
000000
,
001000
000000
000010
100000
,
000001
010000
000100
001000
,
000100
000100
100000
001000
,
000100
000000
000000
000000
,
100001
000100
001000
010000
,
001000
001000
000010
000100
,
000001
000001
010000
001000
,
100000
000000
000100
000000
000000
001000
000000
000000
,
100001
001000
000100
010000
,
000001
000001
010000
000100
,
100000
100000
000010
001000
,
000001
000000
000000
000000
,
001100
001000
000001
010000
,
000100
000100
100000
000010
,
001000
001000
000001
000100
,
001000
000000
100000
000000
000000
000010
000000
000000
,
100001
000100
001000
010000
,
000001
000001
001000
000100
,
100000
100000
000010
001000
,
000100
000000
000000
000000
,
100001
000000
100000
000000
,
010000
000000
000000
010000
,
001000
000000
000001
000000
,
000010
000000
000010
000000
,
100000
000100
001000
000001
,
000100
001000
000010
001000
,
010000
000000
000000
000100
,
001100
000000
000000
000000
,
100010
000000
000010
000000
,
010000
000000
000000
000001
,
000100
000000
100000
000000
,
000010
000000
000000
001000
,
000001
100000
000100
001000
,
000010
001000
000001
001000
,
010000
010000
010000
010000
,
010000
010000
010000
001000
,
000001
100000
000010
010000
,
001000
001000
000100
001000
,
000001
000001
100000
001000
,
000100
000000
000001
000000
000000
001000
000000
000000
,
100001
000100
001000
000010
,
001000
001000
000010
000100
,
100000
100000
000001
001000
,
001000
000000
000000
000000
,
100001
000000
100001
000000
,
001100
000000
000000
010000
,
100001
000000
100001
000000
,
001100
000000
000000
000010
,
100000
000000
000100
000000
000000
010000
000000
000000
,
000001
000000
000000
000010
000000
000000
001000
000000
,
100001
000000
001000
000000
001000
000000
001000
001000
,
001000
000000
001000
000000
001000
000000
001000
001000
,
001000
000000
000100
000000
,
100001
100001
100001
010000
,
010010
000000
000000
000000
;

//---------------dance-solo - ----------------
#NOTEDATA:;
#CHARTNAME:;
#STEPSTYPE:dance-solo;
#DESCRIPTION:;
#CHARTSTYLE:;
#DIFFICULTY:Medium;
#METER:9;
#RADARVALUES:0.404254,0.481606,0.282978,0.000000,0.000000,260.000000,234.000000,26.000000,0.000000,0.000000,0.000000,0.000000,0.000000,0.000000,0.404254,0.481606,0.282978,0.000000,0.000000,260.000000,234.000000,26.000000,0.000000,0.000000,0.000000,0.000000,0.000000,0.000000;
#CREDIT:;
#DISPLAYBPM:160.000000;
#NOTES:
000000
000000
000000
000000
,
000000
000000
000000
000000
,
000000
000000
000000
000000
,
000000
000000
000000
000000
,
000000
000000
000000
000000
,
010000
010000
000001
000000
100000
100000
000001
000000
,
000100
000000
001000
000000
000001
010000
001000
000000
,
100000
000001
100000
000000
010000
001000
010000
000000
,
000100
000000
000000
000000
,
100001
000000
001000
000000
000010
001000
000010
000000
,
100000
000000
000100
000000
001000
000010
100000
000000
,
000001
000000
001000
000000
000100
010000
001000
000000
,
000010
000000
100010
000000
000000
010001
000000
000000
,
000110
000000
000010
000000
010000
000100
001000
000000
,
100000
000000
000100
000000
000010
001000
000010
000000
,
100000
000000
000100
000000
001000
000001
001000
000000
,
010000
000000
000000
000000
,
100000
000000
100010
000000
000001
010000
000001
000000
,
000100
000000
100000
000000
000010
001000
000010
000000
,
100000
000000
001000
000000
000100
001000
000100
000000
,
000001
000000
000011
000000
000000
001100
000000
000000
,
011000
000000
100000
000000
000010
001000
000010
000000
,
001000
000000
000100
000000
100000
000001
001000
000000
,
000010
000000
001000
000000
000010
100000
000100
001000
,
000000
000000
000000
000000
,
010000
100000
000010
000001
000000
000000
000100
000000
,
010000
100000
000010
000001
000000
000000
001000
000000
,
000010
000001
010000
100000
000000
000000
001000
000000
,
000010
000001
010000
100000
000000
000000
000100
000000
,
000001
000000
100000
000000
000000
001000
000000
000000
,
000010
000000
000000
001000
000000
000000
000100
000000
,
000010
000001
000010
001000
000000
000000
000000
001000
,
001000
000000
000000
000000
,
000001
000100
001000
100000
000000
000000
000010
000000
,
000001
000100
001000
100000
000000
000000
010000
000000
,
100000
001000
000100
000001
000000
000000
010000
000000
,
100000
001000
000100
000001
000000
000000
000010
000000
,
001000
000000
000001
000000
000000
010000
000000
000000
,
000100
000000
000000
000001
000000
000000
001000
000000
,
010000
001000
010000
000000
000010
001000
000010
000000
,
100000
001000
100000
000000
000010
000000
000001
000000
,
010001
000000
000001
000000
100000
001000
000001
000000
,
000001
001000
100000
000000
100000
001000
000001
000000
,
100000
001000
000001
000000
000100
000000
001000
000000
,
100000
000000
100010
000000
000000
010001
000000
000000
,
001010
000000
001000
000000
000001
001000
100000
000000
,
100000
001000
000001
000000
000001
001000
100000
000000
,
000001
001000
100000
000000
000010
001000
000000
001000
,
000000
000000
000000
000000
,
010000
001000
000010
001000
000000
000000
100000
000000
,
000010
000100
001000
000100
000000
000000
000001
000000
,
010000
001000
100000
001000
000000
000000
000001
000000
,
000010
001000
000001
001000
000000
000000
100000
000000
,
100010
000000
010001
000000
000000
010100
000000
000000
,
011000
000000
000000
001010
000000
000000
011000
000000
,
001010
100000
100000
100000
,
100100
100000
100000
100000
,
110000
100000
100100
100000
,
110000
100100
110000
100000
,
010001
000000
000000
000000
;

//---------------dance-solo - ----------------
#NOTEDATA:;
#CHARTNAME:;
#STEPSTYPE:dance-solo;
#DESCRIPTION:;
#CHARTSTYLE:;
#DIFFICULTY:Hard;
#METER:12;
#RADARVALUES:0.489769,0.610035,0.261210,0.000000,0.125163,315.000000,291.000000,24.000000,0.000000,0.000000,0.000000,0.000000,0.000000,0.000000,0.489769,0.610035,0.261210,0.000000,0.125163,315.000000,291.000000,24.000000,0.000000,0.000000,0.000000,0.000000,0.000000,0.000000;
#CREDIT:;
#DISPLAYBPM:160.000000;
#NOTES:
000000
000000
000000
000000
,
000000
000000
000000
000000
,
000000
000000
000000
000000
,
000000
000000
000000
000000
,
000000
000000
000000
000000
,
010000
000000
000100
000000
100000
000001
001000
000000
,
001000
000000
000010
100000
000000
000001
010000
000000
,
000000
000000
000100
000000
000001
010000
000000
001000
,
010000
000000
000000
000000
,
100001
000000
000010
000000
100000
000010
001000
000000
,
001000
000000
000010
100000
000000
000001
001000
000000
,
000000
000000
000100
000000
010000
000001
001000
000000
,
001000
000000
000010
001000
000000
010000
100000
000000
,
000101
000000
000100
000000
010000
000001
001000
000000
,
001000
000000
000010
100000
000000
000010
001000
000000
,
000000
000000
000100
000000
000001
010000
000000
010000
,
001000
000000
000000
000000
,
100001
000000
000000
000000
001000
000000
000000
000100
001000
000000
000001
000000
000000
000000
100000
000000
,
000100
000000
001000
000010
000000
100000
000001
000000
,
010000
000000
000000
000000
000001
000000
000000
000100
000010
000000
000100
000000
000000
000000
000001
000000
,
100000
000000
000010
010000
000000
000100
001000
000000
,
100001
000000
000000
000000
001000
000000
000000
000010
001000
000000
000001
000000
000000
000000
100000
000000
,
000100
000000
001000
000010
000000
100000
001000
000000
,
000100
000000
000000
000000
000010
000000
000000
100000
000010
000000
100000
000000
000000
000000
001000
000000
,
000101
000000
000000
000000
,
100000
000001
001000
000100
100000
000010
001000
000100
,
100000
000001
001000
000100
000000
010000
010000
000000
,
000001
000100
001000
100000
000001
000100
001000
100000
,
000001
000100
001000
100000
000000
001000
010000
000000
,
010001
000000
100010
000000
000000
001100
000000
000000
,
000101
000000
000000
001010
000000
000000
100001
000000
,
000100
001000
000010
001000
000100
001000
000010
001000
,
000001
000000
001000
000000
000000
001000
000000
000100
,
100000
000001
001000
000100
100000
000001
001000
000100
,
100000
000001
001000
000100
000000
100000
000001
001000
,
000100
100000
000001
001000
000100
100000
000001
001000
,
000100
100000
000000
010000
000000
100000
000100
001000
,
000010
000000
100000
000000
000000
010001
000000
000000
,
000110
000000
000000
010100
000000
000000
001010
000000
,
000100
100000
001000
010000
000100
001000
000100
001000
,
000010
000001
000010
100000
001000
000000
000100
000000
,
000101
000000
000000
000000
000000
000000
000000
100000
001000
000000
000000
010000
000000
000000
000001
000000
,
001000
000000
000000
000100
000000
000000
100000
000000
000010
000000
000000
000100
000000
000000
000010
000000
,
100000
000000
001000
000100
000000
000000
000000
000000
,
000000
000000
000000
000000
000000
000000
001000
010000
001000
000000
000000
100000
000000
000000
000001
000000
,
000100
001000
000000
000000
,
010000
000000
001000
000000
100000
000000
000100
000000
001000
000000
000001
000000
,
100000
010000
100000
001000
000100
001000
000100
000010
000100
000001
000010
000001
,
000100
000000
000000
000000
,
000100
000001
010000
000010
100000
000001
001000
000100
,
100000
001000
010000
000001
000000
001000
001000
000000
,
000010
100000
000010
001000
001000
000001
001000
000001
,
100000
000000
000100
000000
001000
000000
000010
000000
000000
000000
001000
000000
000001
001000
000001
000000
,
001000
000000
001001
000000
000000
100010
000000
000000
,
010001
000000
000000
100010
000000
000000
010001
000000
,
100100
000100
000100
000100
000100
000100
000100
100000
,
000010
000100
000100
000100
000100
000100
000100
000001
,
001000
000100
000100
000100
010000
000100
000100
000100
,
100000
001000
010000
001000
000000
001000
001001
000000
,
100010
000000
000000
000000
;

//---------------dance-single - ----------------
#NOTEDATA:;
#CHARTNAME:;
#STEPSTYPE:dance-single;
#DESCRIPTION:;
#CHARTSTYLE:;
#DIFFICULTY:Challenge;
#METER:14;
#RADARVALUES:0.713664,0.834785,0.642142,0.511537,0.304745,459.000000,400.000000,59.000000,47.000000,0.000000,0.000000,0.000000,0.000000,0.000000,0.713664,0.834785,0.642142,0.511537,0.304745,459.000000,400.000000,59.000000,47.000000,0.000000,0.000000,0.000000,0.000000,0.000000;
#CREDIT:;
#DISPLAYBPM:160.000000;
#NOTES:
// measure 0
0000
0000
0000
0000
,  // measure 1
0000
0000
0000
0000
,  // measure 2
0000
0000
0000
0000
,  // measure 3
0000
0000
0000
0000
,  // measure 4
0000
0000
0000
0000
,  // measure 5
1000
0000
0010
0000
0200
0000
0000
0302
0000
0000
2003
0000
0000
0000
3100
0000
,  // measure 6
1100
0000
0000
1000
0001
0000
0101
0000
0000
0000
0100
0000
0110
0000
0000
0000
,  // measure 7
0100
0000
0001
0000
0020
0000
0000
0230
0000
0000
2300
0000
0000
0000
3001
0000
,  // measure 8
2002
0000
0000
3003
,  // measure 9
1001
0000
1000
0000
0010
0000
0100
0001
0000
0100
0001
0000
0010
0000
0100
0000
,  // measure 10
1100
0000
0000
1000
0010
0000
1010
0000
0000
0000
0100
0000
0001
1000
0001
1000
,  // measure 11
0001
0000
0000
0000
0010
0000
0001
0100
0000
0001
0100
0000
0010
0000
1000
0000
,  // measure 12
1100
0001
0011
0100
0010
1010
1000
0001
,  // measure 13
1001
0000
1000
0000
0100
0000
0010
0001
0000
0010
0001
0000
1000
0000
0010
0000
,  // measure 14
0110
0000
0010
1010
1000
0001
0101
0100
,  // measure 15
0001
0010
0001
0000
1000
0000
0010
0100
0000
0010
0100
0000
0001
0000
1000
0000
,  // measure 16
1002
0000
0000
0000
0100
0000
0000
0100
0000
0000
0200
0000
0303
0000
0000
0000
,  // measure 17
1001
0000
0010
0000
1000
0000
0100
0010
0000
0001
0100
0000
0001
0000
1000
0000
,  // measure 18
1010
0000
0010
0000
0100
0000
0101
0000
0000
0000
0001
0000
1000
0100
1000
0100
,  // measure 19
1000
0000
0001
0000
0100
0000
0001
0010
0000
0001
1000
0000
0010
0000
0100
0000
,  // measure 20
0110
0010
1010
1000
0100
0110
0010
0001
,  // measure 21
0101
0000
0100
0000
0010
0000
1000
0100
0000
1000
0001
0000
0010
0000
0001
0000
,  // measure 22
0011
0001
1000
1100
1000
0010
0110
0100
,  // measure 23
0001
1000
0001
0000
0100
0000
0010
1000
0000
1000
0010
0000
0100
0000
0001
0000
,  // measure 24
2002
0000
0000
3003
,  // measure 25
1000
1000
0010
0010
0100
0100
0001
0001
,  // measure 26
0010
0010
0100
0100
0000
2000
3002
2003
,  // measure 27
3001
0001
0100
0100
0010
0010
1000
1000
,  // measure 28
0001
0000
0001
0000
1000
0000
1000
0000
0000
0000
0020
0000
0130
0001
0100
0001
,  // measure 29
0100
0000
1002
1003
0000
2100
3100
0000
,  // measure 30
0210
0310
0000
0021
0031
0000
1010
0000
,  // measure 31
1000
1000
0100
0100
0010
0010
0001
0001
,  // measure 32
1001
0000
0100
0000
1000
0000
0010
0000
0100
0000
0001
0000
,  // measure 33
0010
0010
0100
0100
1000
1000
0001
0001
,  // measure 34
1000
1000
0010
0010
0000
0200
0320
0230
,  // measure 35
0301
0001
1000
1000
0100
0100
0010
0010
,  // measure 36
0001
0000
0001
0000
0100
0000
0100
0000
0000
0000
0002
0000
1003
0000
0100
0010
,  // measure 37
0001
0000
0012
0013
0000
0120
0130
0000
,  // measure 38
1200
1300
0000
2001
3001
0000
0101
0000
,  // measure 39
1000
1000
0100
0100
0010
0010
0001
0001
,  // measure 40
0100
0100
0010
0010
1000
0000
1100
0000
,  // measure 41
0102
0000
1000
0000
0103
0000
0000
0000
0001
1000
0010
0000
1000
0000
0100
0000
,  // measure 42
0020
0000
0000
0032
0000
0000
2003
0000
3020
0000
0000
0230
0000
0000
0302
0000
,  // measure 43
2003
0010
3100
1002
0000
1000
0103
0000
,  // measure 44
0001
1000
1010
0010
0100
0101
0001
1000
,  // measure 45
1100
0100
0010
0001
1000
0010
0100
0001
,  // measure 46
0020
0000
0000
0230
0000
0000
2300
0000
3020
0000
0000
0230
0000
0000
0302
0000
,  // measure 47
1003
0100
1000
0001
0100
0001
1000
0100
1000
0001
0100
0001
,  // measure 48
1000
0010
1000
0010
0100
0000
0100
0000
0001
1000
0001
1000
0001
0010
0100
0000
,  // measure 49
1000
1000
0010
0010
0100
0100
0001
0001
,  // measure 50
0010
0000
0010
0000
0001
0000
0001
0000
0000
0000
1000
0010
0100
0000
0000
0000
,  // measure 51
0010
0010
1000
1000
0001
0001
0100
0100
,  // measure 52
1000
0000
1000
0000
0100
0000
0100
0000
0000
0000
0001
0010
0001
0100
0010
1000
,  // measure 53
0001
0000
0201
0310
0000
1020
0130
0000
,  // measure 54
2100
3001
0000
0012
1003
0000
0110
0000
,  // measure 55
1001
0001
0001
1000
1000
0010
0010
0110
,  // measure 56
1001
1000
1000
0100
0100
0010
0010
0110
,  // measure 57
1001
0001
0100
0010
1010
1000
0100
0010
,  // measure 58
0011
0001
0101
0100
0110
0010
1010
1000
,  // measure 59
1001
0000
0000
0000
;
