#TITLE:flowtech;
#SUBTITLE:;
#ARTIST:Sigrev2;
#TITLETRANSLIT:;
#SUBTITLETRANSLIT:;
#ARTISTTRANSLIT:;
#GENRE:;
#CREDIT:;
#BANNER:flowtech-bn.png;
#BACKGROUND:flowtech-bg.png;
#LYRICSPATH:;
#CDTITLE:;
#MUSIC:flowtech.ogg;
#OFFSET:-0.250000;
#SAMPLESTART:48.196430;
#SAMPLELENGTH:20.000000;
#SELECTABLE:YES;
#BPMS:0.000000=140.000000
;
#STOPS:14.000000=0.375000
;
#BGCHANGES:;
#KEYSOUNDS:;
#ATTACKS:;

//---------------dance-single - ----------------
#NOTES:
     dance-single:
     :
     Hard:
     16:
     0.758047,0.873698,0.310994,0.573394,1.035026,546.000000,514.000000,32.000000,59.000000,0.000000,0.000000,0.758047,0.873698,0.310994,0.573394,1.035026,546.000000,514.000000,32.000000,59.000000,0.000000,0.000000:
0000
0000
0000
0000
,
0000
0000
0000
0000
,
0000
0000
0000
0000
,
0000
0000
0000
0000
0000
0000
0000
0000
0000
0000
0000
0000
0010
1000
0000
0010
,
1000
0000
0100
0000
0000
0000
1000
0001
0200
0000
0000
0000
0301
0010
0000
0001
,
0010
0000
0100
0000
0000
0000
1000
0001
0200
0000
0000
0000
0310
0100
0000
0010
,
0100
0000
0001
0000
1000
0100
0000
1000
0100
0000
0010
0000
0001
1000
0000
0001
,
1000
0000
0010
0000
0000
0000
0100
0001
0020
0000
0000
0000
0031
0100
0000
0100
,
0001
0000
1000
0000
0000
0000
0010
1000
0200
0000
0000
0000
1300
0100
0000
1000
,
0100
0000
0010
0000
0000
0000
0001
1000
0020
0000
0000
0000
1030
0010
0000
1000
,
0010
0000
0100
0000
0001
0010
0000
0001
0010
0000
0100
0000
0010
0100
0000
0010
,
0100
0000
1000
0000
0000
0000
0010
1000
0002
0000
0000
0000
2003
3100
0000
0000
,
0002
0103
0000
0000
0200
0310
0000
0000
0020
1030
0000
0000
0002
1003
0000
0000
,
0010
0100
0000
0100
0001
0000
0001
0000
0001
0010
0100
1000
0020
1030
0000
0000
,
0002
1003
0000
0000
2000
3100
0000
0000
0200
0310
0000
0000
0020
0031
0000
0000
,
0001
0100
0000
0010
1000
0000
1000
0000
1000
0001
0100
0010
0200
0301
0000
0000
,
0020
0031
0000
0000
2000
3100
0000
0000
0002
1003
0000
0000
0002
0103
0000
0000
,
0001
0010
0000
0001
1000
0000
1000
0000
0010
1000
0100
0010
0002
0103
0000
0000
,
0200
0310
0000
0000
2000
3010
0000
0000
0020
1030
0000
0000
2000
3100
0000
0000
,
0010
0001
0000
0001
0100
0000
0100
0000
0001
1000
0100
1000
0001
0000
0000
0101
,
0000
0000
0101
0000
0000
0000
0010
0100
2000
0000
0000
0000
3100
0000
0000
1100
,
0000
0000
1100
0000
0000
0000
1000
0001
0200
0000
0000
0000
0310
0000
0000
0110
,
0000
0000
0110
0000
0100
0010
0001
0100
0020
0000
0000
0000
1030
0000
0000
1010
,
0000
0000
1010
0000
0010
0100
0010
0100
0001
0100
0001
0100
0010
0000
0000
1010
,
0000
0000
1010
0000
0000
0000
1000
0100
0020
0000
0000
0000
0031
0000
0000
0011
,
0000
0000
0011
0000
0000
0000
0010
0001
2000
0000
0000
0000
3100
0000
0000
1100
,
0000
0000
1100
0000
0100
1000
0001
0100
0020
0000
0000
0000
1030
0000
0000
1001
,
0000
0000
1001
0000
0001
0010
0001
0010
0100
0010
0100
0010
0001
0100
0001
0100
,
0001
0100
0000
0000
0010
1000
0010
1000
0010
1000
0000
0000
0001
1000
0001
1000
,
0100
0010
0100
0010
0100
1000
0001
0000
0101
0000
0000
0000
0010
0100
0010
0100
,
0010
0100
0000
0000
0001
1000
0001
1000
0001
1000
0000
0000
0100
1000
0100
1000
,
0001
0100
0001
0100
0010
1000
0010
1000
0001
0010
0001
0010
0001
0100
0001
0100
,
0010
1000
0100
0000
1000
0010
1000
0010
0100
0001
1000
0000
0001
0010
0001
1000
,
0010
0100
0010
0000
1000
0100
1000
0001
0100
0010
1000
0000
0001
1000
0001
1000
,
0001
0010
0100
0000
1000
0010
0100
0001
0010
0100
1000
0000
0010
0100
0010
0100
,
0010
1000
0001
0000
1000
0100
0010
0001
1000
0010
0100
0001
2000
3001
0000
0000
,
0020
0031
0000
0000
0200
0310
0000
0000
0002
0013
0000
0000
0200
1300
0000
0000
,
0010
1000
0000
0001
1000
0000
1000
0000
1000
0001
0010
0100
2000
3010
0000
0000
,
0200
0301
0000
0000
0020
0130
0000
0000
0002
0013
0000
0000
2000
3010
0000
0000
,
0001
1000
0000
0100
0010
0000
0010
0000
0010
0001
0100
0001
2000
3001
0000
0000
,
0002
0103
0000
0000
0200
0310
0000
0000
0020
1030
0000
0000
0020
0130
0000
0000
,
0100
0001
0000
1000
0100
0000
0100
0000
0100
1000
0010
0100
0002
0013
0000
0000
,
2000
3100
0000
0000
0020
1030
0000
0000
0200
0301
0000
0000
0200
0310
0000
0000
,
0010
1000
0000
1000
0100
0000
0100
0000
0100
0010
0001
0100
0001
0000
0010
0100
,
1000
0000
0010
0100
0001
0000
1000
0001
1000
0000
0001
1000
0001
0000
1000
0100
,
0010
0000
0100
0010
0001
0000
0101
0000
1001
0000
0000
0000
0010
0000
1000
0001
,
0010
0000
0100
1000
0001
0000
0100
0010
0100
0000
0010
0100
0010
0000
1000
0100
,
1000
0000
0001
0010
0100
0000
1100
0000
1001
0000
0000
0000
0010
0000
1000
0001
,
1000
0000
0100
0010
0001
0000
0010
0001
1000
0000
0010
1000
0100
0000
0010
0001
,
0010
0000
0100
1000
0001
0000
0011
0000
1001
0000
0000
0000
0100
0000
0001
1000
,
0001
0000
0010
0100
1000
0000
0010
1000
0001
0000
0100
0010
0100
0001
0010
0001
,
0010
0100
1000
0001
1000
0001
1000
0100
1000
0100
0010
0100
1000
0000
0000
1010
,
0000
0000
0101
0000
0000
0000
0010
0001
0200
0000
0000
0000
0301
0000
0000
0011
,
0000
0000
1100
0000
0000
0000
0100
1000
0020
0000
0000
0000
0130
0000
0000
0110
,
0000
0000
1001
0000
0000
0000
0010
1000
0002
0000
0000
0000
0013
0000
0000
0011
,
0000
0000
0110
0000
1000
0100
0010
0001
0100
0010
1000
0001
0200
0000
0000
0000
,
0000
0000
0000
0020
,
0000
0000
0330
0220
,
0330
0000
0000
0000
;

//---------------dance-single - ----------------
#NOTES:
     dance-single:
     :
     Medium:
     10:
     0.503976,0.507308,0.349868,0.242964,0.184652,363.000000,327.000000,36.000000,25.000000,0.000000,0.000000,0.503976,0.507308,0.349868,0.242964,0.184652,363.000000,327.000000,36.000000,25.000000,0.000000,0.000000:
0000
0000
0000
0000
,
0000
0000
0000
0000
,
0000
0000
0000
0000
,
0000
0000
0000
0000
0000
0000
0000
0000
0000
0000
0000
0000
0010
0000
0000
0100
,
0000
0000
0001
0000
0000
0000
1000
0000
2000
0000
0000
0000
3001
0000
0000
1000
,
0000
0000
0010
0000
0000
0000
0100
0000
0200
0000
0000
0000
0310
0000
0000
1000
,
0000
0000
0001
0000
0010
0000
0000
0100
0000
0000
1000
0000
0001
0000
0000
0100
,
0000
0000
0001
0000
0000
0000
0010
0000
0020
0000
0000
0000
0031
0000
0000
1000
,
0000
0000
0100
0000
0000
0000
0010
0000
0020
0000
0000
0000
0130
0000
0000
1000
,
0000
0000
0001
0000
0000
0000
0100
0000
0200
0000
0000
0000
0310
0000
0000
0100
,
0000
0000
0001
0000
1000
0000
0000
0100
0000
0000
0010
0000
0100
0000
0000
1000
,
0000
0001
0000
1000
2000
0000
3001
0000
,
0011
1100
0101
1001
,
0010
1000
0000
0010
1000
0000
0001
0000
0001
0000
0100
0000
0010
0000
0000
0000
,
1010
1100
0011
0110
,
1000
0100
0000
1000
0100
0000
0010
0000
0010
0000
0001
0000
0100
0000
0000
0000
,
0101
0110
1010
0011
,
0100
1000
0000
0100
1000
0000
0001
0000
0001
0000
0100
0000
0001
0000
0000
0000
,
1001
0110
1100
0101
,
0010
1000
0000
0010
1000
0000
0100
0000
0100
0000
0010
0000
0001
0000
0000
0001
,
0000
0000
0001
0000
0000
0000
1000
0000
0020
0000
0000
0000
0130
0000
0000
0100
,
0000
0000
0100
0000
0000
0000
0001
0000
2000
0000
0000
0000
3010
0000
0000
0010
,
0000
0000
0010
0000
0000
0000
0100
0000
0002
0000
0000
0000
1003
0000
0000
1000
,
0000
0000
1000
0000
0000
0000
0001
0000
0020
0000
0000
0000
0031
0000
0000
0001
,
0000
0000
0001
0000
0000
0000
1000
0000
0200
0000
0000
0000
1300
0000
0000
1000
,
0000
0000
1000
0000
0000
0000
0100
0000
0020
0000
0000
0000
0130
0000
0000
0100
,
0000
0000
0100
0000
0000
0000
0010
0000
0002
0000
0000
0000
0013
0000
0000
0010
,
0000
0010
0000
0001
2000
0000
3001
0100
,
0010
1000
0001
0010
0100
1000
0010
1000
,
0010
1000
0001
0100
0001
0100
0001
0010
,
0001
1000
0100
0010
0100
1000
0100
1000
,
0010
0100
0001
1000
0001
0010
0100
0010
,
0100
1000
0001
0010
0001
1000
0001
0100
,
0010
1000
0100
1000
0001
0010
0100
1000
,
0010
1000
0001
0100
0001
0010
0001
1000
,
0100
1000
0010
0100
0001
0010
0001
0000
,
0110
1100
1001
0011
,
1000
0001
0000
1000
0010
0000
0100
0000
0100
0000
0001
0000
1000
0000
0000
0000
,
0101
0011
1001
1100
,
0100
1000
0000
0010
0100
0000
0001
0000
0001
0000
1000
0000
0001
0000
0000
0000
,
1010
0110
1100
0011
,
0100
0001
0000
1000
0001
0000
0010
0000
0010
0000
0100
0000
1000
0000
0000
0000
,
0011
1100
0110
1001
,
0010
0100
0000
0010
1000
0000
0001
0000
0001
0000
0100
0000
0001
0000
1000
0000
,
0100
0010
0100
0010
0100
1000
0010
1000
,
0001
0010
0001
1000
0100
0000
1000
0010
,
1000
0001
0010
0100
0010
0100
0010
0001
,
0100
0001
1000
0100
0010
0000
0001
1000
,
0001
0100
0010
1000
0100
0010
0100
0010
,
0100
0010
0001
0100
1000
0000
0001
1000
,
0010
1000
0100
0010
0001
0100
0010
1000
,
0100
0000
0010
0000
0001
0000
1000
0000
0001
0000
0100
0000
0020
0000
0000
0100
,
0000
0000
1030
0000
0000
0000
0001
0000
0201
0000
0000
0000
0302
0000
0000
1000
,
0000
0000
0103
0000
0000
0000
0010
0000
2010
0000
0000
0000
3200
0000
0000
0001
,
0000
0000
0310
0000
0000
0000
1000
0000
1002
0000
0000
0000
2003
0000
0000
0001
,
0000
3100
0000
0001
1000
0010
0200
0000
,
0000
0000
0000
0020
,
0000
0000
0330
0220
,
0330
0000
0000
0000
;

//---------------dance-single - ----------------
#NOTES:
     dance-single:
     :
     Easy:
     7:
     0.302663,0.338206,0.184652,0.038874,0.000000,218.000000,199.000000,19.000000,4.000000,0.000000,0.000000,0.302663,0.338206,0.184652,0.038874,0.000000,218.000000,199.000000,19.000000,4.000000,0.000000,0.000000:
0000
0000
0000
0000
,
0000
0000
0000
0000
,
0000
0000
0000
0000
,
0000
0000
0000
0010
,
0010
1000
0001
0100
,
0100
0001
1000
0001
,
0010
0100
1000
0010
,
1000
0001
0100
0001
,
0001
1000
0100
1000
,
1000
0010
0001
0100
,
0010
1000
0100
0010
,
0001
1000
0001
1000
,
1000
1000
1000
1000
,
0001
0010
0100
0010
,
0010
0010
0010
0010
,
0100
1000
0001
0100
,
0100
0100
0100
0100
,
0001
0010
1000
0001
,
0001
0001
0001
0001
,
1000
0010
0100
0001
,
1001
1000
0000
0010
,
0110
0100
0000
0001
,
0011
0010
0000
0100
,
1100
1000
0000
0010
,
1010
1000
0000
0001
,
0101
0100
0000
0010
,
0100
1000
0000
0010
,
0100
0001
0000
1000
,
1000
0001
0001
1000
,
0100
0010
0001
0100
,
0100
0010
0010
0100
,
0001
0010
1000
0001
,
0001
0010
0010
0100
,
0100
1000
1000
0010
,
1000
0100
0001
1000
,
0010
0100
0001
0100
,
0100
0100
0100
0100
,
0001
0010
1000
0010
,
0010
0010
0010
0010
,
1000
0001
0100
1000
,
1000
1000
1000
1000
,
0001
0100
0010
0001
,
0001
0001
0001
0001
,
1000
0001
0100
0010
,
1100
0010
0101
0010
,
0100
1000
0001
0100
,
0011
0100
1010
0001
,
1000
0010
0100
0001
,
1100
0001
1010
0100
,
1000
0001
0010
1000
,
0011
1000
0101
0010
,
0100
1000
0001
0100
,
1001
0010
0000
1000
,
1001
0001
0000
0010
,
0110
0100
0000
1000
,
0110
0001
0000
0200
,
0000
0000
0300
0020
,
0000
0000
0030
0220
,
0330
0000
0000
0000
;

//---------------dance-single - ----------------
#NOTES:
     dance-single:
     :
     Beginner:
     2:
     0.104127,0.140312,0.009719,0.000000,0.000000,75.000000,74.000000,1.000000,0.000000,0.000000,0.000000,0.104127,0.140312,0.009719,0.000000,0.000000,75.000000,74.000000,1.000000,0.000000,0.000000,0.000000:
// measure 0
0000
0000
0000
0000
,  // measure 1
0000
0000
0000
0000
,  // measure 2
0000
0000
0000
0000
,  // measure 3
0000
0000
0000
0010
,  // measure 4
0000
0000
0000
1000
,  // measure 5
0000
0000
0000
0100
,  // measure 6
0000
0000
0000
0001
,  // measure 7
0000
0000
0000
1000
,  // measure 8
0000
0000
0000
0010
,  // measure 9
0000
0000
0000
0100
,  // measure 10
0000
0000
0000
0001
,  // measure 11
0000
0000
0000
1000
,  // measure 12
0000
1000
0000
1000
,  // measure 13
0000
0000
0000
0100
,  // measure 14
0000
0100
0000
0100
,  // measure 15
0000
0000
0000
0010
,  // measure 16
0000
0010
0000
0010
,  // measure 17
0000
0000
0000
0001
,  // measure 18
0000
0001
0000
0001
,  // measure 19
0000
0000
0000
0100
,  // measure 20
0000
0000
0000
0001
,  // measure 21
0000
0000
0000
1000
,  // measure 22
0000
0000
0000
0010
,  // measure 23
0000
0000
0000
0001
,  // measure 24
0000
0000
0000
1000
,  // measure 25
0000
0000
0000
0010
,  // measure 26
0000
0000
0000
0100
,  // measure 27
0000
0000
0000
0001
,  // measure 28
0000
1000
0000
0001
,  // measure 29
0000
0000
0000
0100
,  // measure 30
0000
0010
0000
0100
,  // measure 31
0000
0000
0000
0010
,  // measure 32
0000
0100
0000
0010
,  // measure 33
0000
0000
0000
1000
,  // measure 34
0000
0001
0000
1000
,  // measure 35
0000
0000
0000
0001
,  // measure 36
0000
0001
0000
0001
,  // measure 37
0000
0000
0000
0100
,  // measure 38
0000
0100
0000
0100
,  // measure 39
0000
0000
0000
0010
,  // measure 40
0000
0010
0000
0010
,  // measure 41
0000
0000
0000
1000
,  // measure 42
0000
1000
0000
1000
,  // measure 43
0000
0000
0000
0001
,  // measure 44
0000
0010
0000
0100
,  // measure 45
0000
1000
0000
0010
,  // measure 46
0000
1000
0000
0001
,  // measure 47
0000
0100
0000
0010
,  // measure 48
0000
0100
0000
0001
,  // measure 49
0000
1000
0000
0100
,  // measure 50
0000
1000
0000
0001
,  // measure 51
0000
0010
0000
0001
,  // measure 52
0000
0000
0000
1000
,  // measure 53
0000
0000
0000
0100
,  // measure 54
0000
0000
0000
0010
,  // measure 55
0000
0000
0000
0100
,  // measure 56
0000
0000
0000
0000
,  // measure 57
0000
0000
0000
0110
;
