#TITLE:feeling of love;
#SUBTITLE:;
#ARTIST:youhei shimizu;
#TITLETRANSLIT:;
#SUBTITLETRANSLIT:;
#ARTISTTRANSLIT:;
#GENRE:;
#CREDIT:;
#BANNER:feeling of love.png;
#BACKGROUND:feeling of love-bg.png;
#LYRICSPATH:;
#CDTITLE:;
#MUSIC:feeling of love.ogg;
#OFFSET:0.000000;
#SAMPLESTART:47.471001;
#SAMPLELENGTH:20.000000;
#SELECTABLE:YES;
#DISPLAYBPM:136.000000;
#BPMS:0.000000=136.000000
,4.000000=136.210999
;
#STOPS:
;
#BGCHANGES:;
#KEYSOUNDS:;
#ATTACKS:;

//---------------dance-single - ----------------
#NOTES:
     dance-single:
     :
     Beginner:
     3:
     0.165024,0.215101,0.159334,0.000000,0.000000,116.000000,100.000000,16.000000,0.000000,0.000000,0.000000,0.165024,0.215101,0.159334,0.000000,0.000000,116.000000,100.000000,16.000000,0.000000,0.000000,0.000000:
0000
0000
0000
0000
,
0000
0000
0000
0000
,
0000
0000
0000
0000
,
1000
0000
1000
0000
,
1000
0000
1000
0000
,
0001
0000
0000
0000
,
1000
0000
0000
0000
,
0001
0000
0001
0000
,
0001
0000
0001
0000
,
1000
0000
0000
0000
,
0001
0000
0000
0000
,
0010
0000
0100
0000
,
1001
0000
1001
0000
,
0010
0000
0100
0000
,
1001
0000
0100
0000
,
0010
0000
0100
0000
,
1001
0000
1001
0000
,
0010
0000
0100
0000
,
0100
0100
0100
0000
,
0010
0000
0100
0000
,
0110
0000
1001
0000
,
0001
0000
1000
0000
,
0110
0000
1001
0000
,
0010
0000
0100
0000
,
0010
0010
0010
0000
,
0100
0100
0100
0000
,
0100
0000
0100
0000
,
0001
0000
0000
0000
,
1000
0000
0000
0000
,
0001
0000
0001
0000
,
1000
0000
1000
0000
,
0001
0000
0000
0000
,
1000
0000
0000
0000
,
0001
0001
0001
0000
,
1000
1000
1000
0000
,
0001
0000
0000
0000
,
1000
0000
0000
0000
,
0100
0000
0100
0000
,
0110
0000
0110
0000
,
0100
0000
0100
0000
,
0110
0000
0100
0000
,
0100
0000
0100
0000
,
0110
0000
0110
0000
,
0100
0000
0100
0000
,
0100
0000
0000
0000
,
1000
0000
1000
0000
,
0110
0000
0001
0000
,
0001
0000
0001
0000
,
1000
0000
0001
0000
,
1000
0000
1000
0000
,
0110
0000
0001
0000
,
0001
0001
0001
0001
,
0001
0000
0001
0000
,
1000
1000
1000
0000
,
1000
0000
0000
0000
;

//---------------dance-single - ----------------
#NOTES:
     dance-single:
     :
     Easy:
     6:
     0.270299,0.327133,0.209126,0.089625,0.000000,190.000000,169.000000,21.000000,9.000000,0.000000,0.000000,0.270299,0.327133,0.209126,0.089625,0.000000,190.000000,169.000000,21.000000,9.000000,0.000000,0.000000:
0000
0000
0000
0000
,
0000
0000
0000
0000
,
0000
0000
0000
0000
,
1000
1000
0100
0100
,
0001
0000
0001
0001
,
0001
0000
1000
0000
,
0001
0000
1000
0000
,
0001
0001
0100
0100
,
1000
0000
1000
1000
,
2000
0000
0000
0000
,
0002
0000
0000
3003
,
0010
0001
0100
0001
,
1001
0100
1001
0100
,
0010
0001
1000
0010
,
1001
0100
0100
0100
,
0010
1000
0100
1000
,
1001
0100
1001
0100
,
0010
1000
0001
0010
,
1001
0100
0100
0100
,
0010
1000
0100
0001
,
0110
0001
0110
0001
,
0010
1000
0100
0001
,
0110
0001
0001
0001
,
0010
1000
0100
0001
,
0110
0100
0100
0100
,
0002
0000
0000
0000
,
2000
0000
0000
3003
,
0010
0010
0100
0100
,
0010
0010
0100
0100
,
0001
0100
1000
0100
,
0001
0100
1000
0100
,
0010
0010
0100
0100
,
0010
0010
0100
0100
,
0001
0100
1000
0100
,
0001
0100
1000
0100
,
0002
0000
0000
0000
,
2000
0000
0000
3003
,
0100
0001
1000
0100
,
1001
0100
1001
0100
,
0100
1000
0001
0100
,
0110
0100
0100
0100
,
0100
0001
1000
0100
,
1001
0100
1001
0100
,
0100
0001
1000
0100
,
0110
0010
0020
0030
,
0010
0001
0100
0010
,
0110
0001
0110
1000
,
0010
1000
0100
0010
,
1001
0100
0100
0100
,
0010
1000
0100
0010
,
0110
1000
0110
0001
,
2000
0000
0000
0000
,
0000
0000
0000
0000
,
0002
0000
0000
0000
,
0000
0000
0000
3003
,
0000
0000
0000
0000
;

//---------------dance-single - ----------------
#NOTES:
     dance-single:
     :
     Medium:
     8:
     0.347120,0.381655,0.278834,0.109542,0.024896,244.000000,216.000000,28.000000,11.000000,0.000000,0.000000,0.347120,0.381655,0.278834,0.109542,0.024896,244.000000,216.000000,28.000000,11.000000,0.000000,0.000000:
0000
0000
0000
0000
,
0000
0000
0000
0000
,
0000
0000
0000
0000
,
0001
0100
1000
0100
,
0001
0100
1000
0100
,
0001
0000
1100
0000
0001
1000
0100
0000
,
0010
0000
1100
0000
1000
0001
0100
0000
,
0010
0000
0101
0000
0001
1000
0100
0000
,
0001
0000
1100
0000
0010
0001
1000
0001
,
0020
0000
0000
0000
,
0200
0300
0100
0130
,
1000
1100
0010
0100
,
0001
0100
1000
0000
0001
0100
1000
0000
,
0001
0101
0010
0100
,
1000
0001
0100
0000
1001
0000
0100
0000
,
1000
1100
0010
0100
,
0001
0100
1000
0000
0010
1000
0001
0000
,
0001
0101
0010
0100
,
0010
0001
1000
0000
1100
0000
0001
0000
,
1002
0100
1000
0103
,
1000
0100
0000
0001
0100
0000
1000
0000
,
0102
0100
0010
0013
,
1000
0100
0000
1000
0001
0000
0010
0000
,
2100
0010
0010
3100
,
0010
0100
0000
0100
0010
0000
0101
0000
,
1000
0000
0000
0001
0000
0000
0100
0000
0000
0000
0001
0000
0000
2000
0000
0000
,
0200
0000
0000
3300
,
0010
0000
0100
0000
0010
1000
0100
0000
,
0010
0000
0100
0000
0010
0001
0100
0000
,
1001
0100
0101
1000
,
1100
0001
0101
1000
,
0010
0000
0100
0000
0010
1000
0100
0000
,
0010
0000
0100
0000
0010
0001
0100
0000
,
0010
1000
0100
0001
,
0010
1000
0100
0001
,
0010
0000
0000
0001
0000
0000
0100
0000
0000
0000
0001
0000
0000
0010
0000
0000
,
0001
0000
0000
2000
0000
0000
0200
0000
0000
0000
0000
0000
3300
0000
0000
0000
,
0001
0101
1000
0100
,
0001
1000
0100
0000
0100
1000
0001
0000
,
1000
1100
0001
0100
,
0010
0100
0001
0000
1001
0000
0100
0000
,
0001
0101
1000
0100
,
0100
1000
0010
0000
0010
1000
0100
0000
,
1000
1100
0001
0100
,
0010
1001
0100
1000
,
0010
0101
0010
0100
,
1000
0001
0010
0000
0001
1000
0100
0000
,
0010
1100
0010
0100
,
0010
0001
0100
0000
0011
0000
1000
0000
,
0010
0101
0010
0100
,
0010
0001
0100
0000
0010
1000
0100
0000
,
0002
0000
0000
0000
,
0000
0000
0000
0000
,
2000
0000
0000
0000
,
0000
0000
0000
3003
,
0000
0000
0000
0000
;

//---------------dance-single - ----------------
#NOTES:
     dance-single:
     :
     Hard:
     10:
     0.479425,0.517960,0.298751,0.189209,0.129459,337.000000,307.000000,30.000000,19.000000,0.000000,0.000000,0.479425,0.517960,0.298751,0.189209,0.129459,337.000000,307.000000,30.000000,19.000000,0.000000,0.000000:
0000
0000
0000
0000
,
0000
0000
0000
0000
,
0000
0000
0000
0000
,
1000
0000
0100
0000
0001
0100
1000
0000
,
0001
0000
0100
0000
1000
0100
0001
0000
,
1100
0000
1001
0000
0010
0001
0100
0000
,
1001
0000
0101
0000
0010
1000
0100
0000
,
0001
0100
0101
0000
1000
0100
1100
0000
,
1000
0100
0010
0001
0010
0100
1000
0000
,
1000
0000
0000
0100
0000
0000
0001
0000
0000
0000
0010
0000
0000
1000
0000
0000
,
0001
0000
0000
1000
0000
0000
0020
0000
0000
0000
0000
0000
0030
0000
0000
0000
,
0010
1000
1100
0100
0010
0001
0100
1000
,
0100
0000
0000
0001
0000
0000
0100
0000
1000
0000
0100
0000
0001
0000
0000
0000
,
0010
0100
0110
0010
0001
0100
1000
0100
,
0001
0000
0000
0010
0000
0000
1000
0000
0010
0000
0001
0000
1000
0000
0000
0000
,
0010
0001
0101
0100
0010
1000
0100
0001
,
0100
0000
0000
1000
0000
0000
0100
0000
0001
0000
0100
0000
1000
0000
0000
0000
,
2002
0000
3000
1003
0001
0000
1001
0000
,
0010
1000
0001
0010
0100
1000
0001
0100
,
0010
1000
1100
0100
0010
0100
1000
0010
,
0100
0000
0000
0001
0000
0000
1000
0000
0100
0000
1000
0000
0100
0000
0000
0000
,
0010
0100
0101
0001
0010
1000
0010
0100
,
1000
0000
0000
0100
0000
0000
0001
0000
0100
0000
0010
0000
0001
0000
0000
0000
,
1000
0100
0110
0010
0001
0100
1000
0000
,
1000
0100
0001
0010
,
1000
0000
0000
0100
0000
0000
0001
0000
0000
0000
0010
0000
0000
2000
0000
0000
,
0002
0000
0000
3003
,
2200
0000
3300
0001
0100
1000
0100
0000
,
0202
0000
0303
1000
0100
0001
0100
0000
,
1000
0100
0010
1000
0100
0010
1000
0000
,
0001
0100
0010
0001
0100
0010
0001
0000
,
2020
0000
3030
0001
0010
1000
0010
0000
,
0022
0000
0033
1000
0010
0001
0010
0000
,
0010
1000
0010
1000
0010
0001
0010
0001
,
0100
0001
0100
1000
0100
1000
0100
0000
,
1000
0000
0000
0100
0000
0000
0001
0000
0000
0000
1000
0000
0000
0010
0000
0000
,
0001
0000
0000
0020
0000
0000
2000
0000
0000
0000
0000
0000
3030
0000
0000
0000
,
1000
0100
0110
0100
1000
0100
1000
0100
,
0001
0000
0000
0100
0000
0000
1000
0000
0100
0000
1000
0000
0100
0000
0000
0000
,
0010
0000
0000
0001
0000
0000
0100
0000
0010
0000
0100
0000
0001
0000
0010
0000
,
0100
0000
0000
1000
0000
0000
0010
0000
0100
0000
0010
0000
1000
0000
0000
0000
,
0001
0100
0110
0100
0001
0100
0001
0100
,
1000
0000
0000
0100
0000
0000
0001
0000
0100
0000
0001
0000
0100
0000
0000
0000
,
0010
0000
0000
1000
0000
0000
0100
0000
0110
0000
0000
0000
1100
0000
0000
0000
,
0110
0101
0110
1100
,
0010
0100
0101
0100
0001
0010
0001
0100
,
1000
0000
0000
0100
0000
0000
0001
0000
0010
0000
0001
0000
0100
0000
0000
0000
,
0010
0100
0110
0100
0010
1000
0100
0010
,
0001
0000
0000
1000
0000
0000
0001
0000
0010
0000
0100
0000
1000
0000
0000
0000
,
0001
1000
1001
1000
0001
0100
0001
1000
,
1000
0100
1100
0100
0010
0001
0100
1000
,
1000
0000
0000
0100
0000
0000
0001
0000
0000
0000
1000
0000
0000
0010
0000
0000
,
0001
0000
0000
0020
0000
0000
2000
0000
0000
0000
0000
0000
3030
0000
0000
0000
,
0001
0000
0000
0100
0000
0000
1000
0000
0000
0000
0001
0000
0000
0010
0000
0000
,
1000
0000
0000
0020
0000
0000
0002
0000
0000
0000
0000
0000
0033
0000
0000
0000
;

//---------------dance-double - ----------------
#NOTES:
     dance-double:
     :
     Easy:
     5:
     0.193477,0.245349,0.029875,0.139417,0.000000,136.000000,133.000000,3.000000,14.000000,0.000000,0.000000,0.193477,0.245349,0.029875,0.139417,0.000000,136.000000,133.000000,3.000000,14.000000,0.000000,0.000000:
00000000
00000000
00000000
00000000
,
00000000
00000000
00000000
00000000
,
00000000
00000000
00000000
00000000
,
10000000
00000000
00010000
00000000
,
01000000
00010000
00001000
00000000
,
00001000
00010000
01000000
00010000
,
00001000
00000100
00000001
00000000
,
00000001
00000000
00001000
00000000
,
00000001
00000100
00001000
00000000
,
00020000
00000000
00000000
00000000
,
02000000
00000000
00000000
03030000
,
00100000
00000000
10000000
00000000
,
01000000
00010000
00001000
00000000
,
00010010
00001000
00000100
00000000
,
00000010
00000001
00000100
00000000
,
00000010
00000000
00001000
00000000
,
00000001
00000100
00001000
00000000
,
00010000
00000000
00000100
00000000
,
00010000
00000000
00000100
00000000
,
00000010
00000000
00000001
00000000
,
00000100
00001000
00010000
00000000
,
01000000
00000000
10000000
00000000
,
01000000
00000000
00010000
00000000
,
00001000
00000000
01000000
00000000
,
10000000
01000000
00010000
00001000
,
00000200
00000000
00000000
00000000
,
00000002
00000000
00000000
00000303
,
00002000
00000100
00000100
00003100
,
00000002
00000100
00000100
00000103
,
00001000
00010000
01000000
10000000
,
10000000
01000000
00010000
00001000
,
00020000
01000000
01000000
01030000
,
20000000
01000000
01000000
31000000
,
10000000
01000000
00100000
00010000
,
00001000
00000100
00000010
00000001
,
00002000
00000000
00000000
00000000
,
00000200
00000000
00000000
00003300
,
00000010
00000000
00001001
00000000
,
00000010
00010000
00001000
00000000
,
00010000
00001000
00000100
00000000
,
00001000
00010000
01000000
00000000
,
00100000
00000000
10010000
00000000
,
00100000
00001000
00010000
00000000
,
01000000
00010000
00001000
00000100
,
00000002
00000000
00000000
00000003
,
00000010
00000000
00000100
00000000
,
00000010
00001000
00010000
00000000
,
00000010
00010000
00001000
00000000
,
00000100
00001000
00010000
00000000
,
01000000
00000000
00001000
00000000
,
01000000
10000000
00100000
00010000
,
00002000
00000000
00000000
00000000
,
00000100
00000000
00000100
00003000
,
00000200
00000000
00000000
00000000
,
00000002
00000000
00000000
00000303
;

//---------------dance-double - ----------------
#NOTES:
     dance-double:
     :
     Medium:
     8:
     0.351388,0.381655,0.298751,0.119500,0.000000,247.000000,217.000000,30.000000,12.000000,0.000000,0.000000,0.351388,0.381655,0.298751,0.119500,0.000000,247.000000,217.000000,30.000000,12.000000,0.000000,0.000000:
00000000
00000000
00000000
00000000
,
00000000
00000000
00000000
00000000
,
00000000
00000000
00000000
00000000
,
01000000
00010000
00001000
00000100
,
00000100
00001000
00010000
01000000
,
01100000
00000000
10000000
01000000
00010000
00000000
00001000
00000000
,
00000100
00000001
00000010
00001000
,
00000010
00000001
00000100
00001000
,
00010000
01100000
10000000
00010000
,
20000000
00000000
00000000
00000000
,
00020000
00030000
00010000
30010000
,
00110000
10000000
01000000
00010000
,
00001000
00000100
00000010
00000000
00000100
00000000
00000101
00000000
,
00000010
00001000
00000100
00000000
00000010
00001000
00010000
00000000
,
00001000
00000110
00001000
00000100
,
00001010
00000001
00000100
00001000
,
00010000
01000000
00100000
00000000
01000000
00000000
11000000
00000000
,
00100000
00010000
01000000
00000000
00100000
00010000
00001000
00000000
,
00000100
00001000
00010000
01000000
,
01100000
10000000
01000000
00010000
,
00001000
00000100
00000001
00000000
00000010
00000000
00001001
00000000
,
00000010
00000001
00000010
00000000
00000010
00000001
00000100
00000000
,
00001000
00010000
01000000
10000000
,
01100000
10000000
00100000
00010000
,
10000000
01000000
00010000
00001000
,
00000200
00000001
00000001
00000302
,
00002000
00000000
00000000
00003003
,
00000101
00000000
00001000
00000000
00010000
01000000
10000000
00000000
,
11000000
00000000
00010000
00000000
00001000
00000100
00000001
00000000
,
00001000
00001100
00000001
00000101
,
00000110
00001000
00010000
01100000
,
11000000
00000000
00010000
00000000
00001000
00000100
00000001
00000000
,
00000101
00000000
00001000
00000000
00010000
01000000
10000000
00000000
,
00010000
01010000
10000000
11000000
,
00010000
00001000
00000100
00000001
,
00000020
00000100
00000100
00000230
,
00002000
00000000
00000000
00003300
,
00001010
00000001
00000100
00001000
,
00010000
01000000
00100000
00000000
00110000
00000000
10000000
00000000
,
00100000
00010000
01000000
00000000
00100000
01000000
10000000
00000000
,
01000000
00010000
00001000
00101000
,
00110000
10000000
01000000
00010000
,
00001000
00000100
00000010
00000000
00001010
00000000
00000001
00000000
,
00000100
00001000
00010000
01000000
,
10000000
10000000
00020000
00030000
,
10010000
00100000
10000000
01000000
,
00100000
00010000
00001000
00000000
00010010
00000000
00001010
00000000
,
00000001
00000100
00001000
00000000
00001000
00000100
00000001
00000000
,
00000100
00000000
00001000
00000000
00010000
01000000
10000000
00000000
,
10010000
00100000
10000000
01000000
,
00100000
00010000
01000000
00000000
11000000
00000000
00010000
00000000
,
00002000
00000100
00000100
00000100
,
00000100
00000100
00000100
00003200
,
00000001
00000001
00000001
00000001
,
00000002
00000000
00000000
00000303
,
00000000
00000000
00000000
00000000
;

//---------------dance-double - ----------------
#NOTES:
     dance-double:
     :
     Hard:
     10:
     0.462353,0.490699,0.288793,0.059750,0.169292,325.000000,296.000000,29.000000,6.000000,0.000000,0.000000,0.462353,0.490699,0.288793,0.059750,0.169292,325.000000,296.000000,29.000000,6.000000,0.000000,0.000000:
00000000
00000000
00000000
00000000
,
00000000
00000000
00000000
00000000
,
00000000
00000000
00000000
00000000
,
00000100
00000001
00000100
00000000
00001000
00000100
00001000
00000000
,
00010000
01000000
00010000
00000000
01000000
10000000
01000000
00000000
,
00110000
00000000
00010000
00001000
00010000
00000000
00010010
00000000
,
00001010
00000000
00001000
00010000
00001000
00000000
00101000
00000000
,
01000000
10000000
01000000
00000000
00010000
01000000
00010000
00000000
,
00001000
00000100
00001000
00000000
00000100
00000001
00000100
00000000
,
00000010
00000000
00000000
00001000
00000000
00000000
00000001
00000000
00000000
00000000
00000100
00000000
00000000
00001000
00000000
00000000
,
00010000
00000000
00000000
01000000
00000000
00000000
20000000
00000000
00000000
00000000
00000000
00000000
30000000
00000000
00000000
00000000
,
01000000
00010000
00001000
00000000
00001000
00010000
01000000
00000000
,
01100000
00010000
00100000
00000000
00101000
00010000
00001000
00000000
,
00001000
00000100
00001000
00000000
00010000
01000000
10000000
00000000
,
00010000
01000000
00010000
00000000
00001000
00000100
00000001
00000000
,
00000100
00001000
00010000
00000000
00010000
00001000
00000100
00000000
,
00000110
00001000
00000010
00000000
00010010
00001000
00010000
00000000
,
00100000
00010000
01000000
00000000
00110000
00000000
11000000
00000000
,
00100000
00010000
00001000
00000010
00001000
00010000
01000000
00000000
,
01100000
00000000
00000000
00000000
10000000
00000000
00000000
00000000
00100000
00000000
00000000
00010000
00000000
00000000
00001000
00000000
,
00000010
00000000
00000000
00001000
00000000
00000000
00010000
00000000
01000000
00010000
00000000
01000000
00010000
00000000
00000000
00000000
,
11000000
00000000
00100000
00000000
00001000
00010000
00000010
00000000
,
00001000
00000000
00000000
00000000
00000101
00000000
00000000
00000000
00001000
00000100
00000000
00001000
00000100
00000000
00000000
00000000
,
00000110
00000000
00000000
00000000
00000001
00000000
00000000
00000000
00000010
00000000
00000000
00001000
00000000
00000000
00010000
00000000
,
01000000
00010000
00001000
00000000
00000100
00001000
00010000
00000000
,
00100000
00000000
00000000
10000000
00000000
00000000
01000000
00000000
00000000
00000000
00010000
00000000
00000000
00001000
00000000
00000000
,
00000200
00000000
00000000
00000300
,
00000010
00000001
00000100
00000000
00001000
00000100
00001000
00000000
,
00010000
00000000
01000000
00000000
00010000
00000000
00000000
00000000
00100000
01000000
00000000
00100000
01000000
00000000
10000000
00000000
,
00100000
10000000
01000000
00000000
00100000
00010000
01000000
00000000
,
00100000
00000000
00001000
00000000
00010000
00000000
00000000
00000000
00000010
00001000
00000000
00000010
00001000
00000000
00000100
00000000
,
00000010
00000001
00000100
00000000
00000010
00010000
00001000
00000000
,
01000000
00000000
00010000
00000000
00100000
00000000
00000000
00000000
01000000
10000000
00000000
01000000
10000000
00000000
00100000
00000000
,
10100000
00010000
00001000
00000010
,
00000001
00000100
00001000
00010000
01000000
10000000
00100000
00000000
,
00010000
00000000
00000000
00100000
00000000
00000000
10000000
00000000
00000000
00000000
01000000
00000000
00000000
00010000
00000000
00000000
,
00001000
00000000
00000000
00000100
00000000
00000000
00000002
00000000
00000000
00000000
00000000
00000000
00000003
00000000
00000000
00000000
,
00000110
00000001
00000100
00000000
00001000
00000100
00001000
00000000
,
00000010
00000100
00001000
00010000
01000000
00100000
10000000
00000000
,
01100000
10000000
01000000
00000000
00100000
10000000
01000000
00000000
,
00100000
00001000
01000000
00010000
00100000
01000000
00010000
00000000
,
01100000
10000000
01000000
00000000
00100000
00010000
00001000
00000000
,
00010000
01000000
00010000
00001000
00000100
00001000
00010000
00000000
,
00000010
00010000
00001000
00000000
00010000
00000010
00001000
00000000
,
00000110
00001000
00000002
00000003
,
00001010
00000000
00000000
00000000
00000001
00000000
00000000
00000000
00000101
00000000
00000000
00000100
00000000
00000000
00001000
00000000
,
00010000
00000000
01000000
00000000
10000000
00000000
00100000
00000000
10000000
00100000
00000000
10000000
00100000
00000000
10000000
00000000
,
10100000
00000000
00000000
00000000
00010000
00000000
00000000
00000000
00100000
00000000
00000000
01000000
00000000
00000000
00010000
00000000
,
00001000
00000000
00000100
00000000
00000010
00000000
00001000
00000000
00000001
00000100
00000000
00000001
00000100
00000000
00000001
00000000
,
00000101
00000000
00000000
00000000
00001010
00000000
00000000
00000000
00010010
00000000
00000000
00010000
00000000
00000000
00001000
00000000
,
00100000
00010000
01000000
00001000
00010000
00000100
00001000
00000010
,
00000101
00000000
00000000
00000100
00000000
00000000
00001000
00000000
00000000
00000000
00010000
00000000
00000000
01000000
00000000
00000000
,
11000000
00000000
00000000
01000000
00000000
00000000
00020000
00000000
00000000
00000000
00000000
00000000
00030000
00000000
00000000
00000000
,
11000000
00000000
00000000
01000000
00000000
00000000
00010000
00000000
00000000
00000000
00001000
00000000
00000000
00000100
00000000
00000000
,
00000101
00000000
00000000
00000100
00000000
00000000
00002000
00000000
00000000
00000000
00000000
00000000
00003000
00000000
00000000
00000000
,
00000000
00000000
00000000
00000000
;

//---------------dance-single - ----------------
#NOTES:
     dance-single:
     :
     Challenge:
     13:
     0.661521,0.654265,0.717003,0.189209,0.403314,465.000000,393.000000,72.000000,19.000000,0.000000,0.000000,0.661521,0.654265,0.717003,0.189209,0.403314,465.000000,393.000000,72.000000,19.000000,0.000000,0.000000:
// measure 0
0000
0000
0000
0000
,  // measure 1
0000
0000
0000
0000
,  // measure 2
0000
0000
0000
0000
,  // measure 3
0000
0000
0000
0000
,  // measure 4
0000
0000
0000
0000
,  // measure 5
1010
0010
0100
0001
0011
0010
0100
1000
,  // measure 6
1100
1000
0010
0100
0101
0001
1000
0010
,  // measure 7
0110
0100
0001
1000
1001
1000
0100
0010
,  // measure 8
0011
0001
0101
0100
1100
1000
1010
0010
,  // measure 9
0110
0000
0000
1010
0000
0000
1100
0000
0000
0000
1001
0000
0000
0011
0000
0000
,  // measure 10
0101
0000
0000
0110
0000
0000
1001
0000
0010
0000
0010
0000
0010
0000
0010
0000
,  // measure 11
0100
0000
0010
0000
1000
0000
0001
0000
0010
0100
0000
1000
0001
0000
0010
0000
,  // measure 12
0001
1000
0000
0010
1000
0000
0100
0000
0020
0000
0001
0000
0031
0000
1000
0000
,  // measure 13
0010
1000
0000
0100
0010
0000
0001
0000
2000
0000
0100
0000
3100
0000
0010
0000
,  // measure 14
0001
1000
0000
0010
1000
0000
0001
0000
0200
0000
0010
0000
0310
0000
0000
0000
,  // measure 15
0010
0000
1000
0000
0001
0000
0100
0000
0001
0010
0000
0100
1000
0000
0010
0100
,  // measure 16
0010
0100
0000
0001
1000
0000
0100
0000
0020
0000
0001
0000
0031
0000
0100
0000
,  // measure 17
0110
0010
1000
0001
0101
1000
1010
0000
,  // measure 18
1001
0000
0000
1100
0000
0000
0011
0000
1000
0100
1000
0100
1000
0000
0001
0000
,  // measure 19
0010
0000
0001
0000
1000
0000
0100
0000
1000
0010
0000
0100
0001
0000
1000
0001
,  // measure 20
1000
0001
0000
0010
0100
0000
1000
0000
0020
0000
0100
0000
0130
0000
0001
0000
,  // measure 21
1000
0001
1000
0010
0200
0001
0301
1000
,  // measure 22
0001
0010
0000
0001
0100
0000
0010
0000
2000
0000
0100
0000
3100
0000
0000
0000
,  // measure 23
1000
0000
0010
0000
0100
0000
0001
0000
0010
0100
0000
1000
0001
0000
0010
0000
,  // measure 24
0001
0010
0000
0000
0001
1000
0000
0000
0100
0000
1000
0000
0010
0000
0100
0000
,  // measure 25
0101
0000
0000
0011
0000
0000
0110
0000
0000
0000
1100
0000
0000
1010
0000
0000
,  // measure 26
2002
0000
0000
0000
3003
0000
0000
0001
0100
0000
0100
0000
0100
0000
0100
0000
,  // measure 27
0101
0001
1000
0100
1100
1000
0010
0100
,  // measure 28
0110
0010
1000
0001
0011
0010
0100
1000
,  // measure 29
0010
1000
0000
0000
0001
1000
0000
0000
0010
0100
0000
0100
0001
0000
1000
0000
,  // measure 30
0001
1000
0010
1000
0100
0010
0001
0000
,  // measure 31
1001
0010
1000
0100
1100
1000
0001
0010
,  // measure 32
0011
0001
0100
0010
1010
0001
1000
0100
,  // measure 33
1000
0010
0000
0000
0100
0001
0000
0000
1000
0100
0000
0010
0001
0000
1000
0000
,  // measure 34
0001
0010
0001
1000
0100
0010
0100
1000
,  // measure 35
1010
0000
0000
0110
0000
0000
0101
0000
0000
0000
1001
0000
0000
1100
0000
0000
,  // measure 36
1001
0000
0000
0101
0000
0000
0022
0000
0000
0000
0000
0000
0033
0000
1000
0000
,  // measure 37
0010
0000
0100
0000
0001
0000
1000
0000
0010
1000
0000
0001
0100
0000
0010
1000
,  // measure 38
0010
1000
0000
0001
0010
0000
0100
0000
2000
0000
0001
0000
3001
0000
0010
0000
,  // measure 39
0100
1000
0000
0010
1000
0000
0100
0000
0020
0000
0001
0000
0031
0000
1000
0010
,  // measure 40
1000
0010
0000
0100
0001
0000
1000
0000
1100
0000
0000
0000
0011
0000
0000
0000
,  // measure 41
0001
0000
1000
0000
0001
0000
0010
0000
0100
1000
0000
0010
0100
0000
0001
1000
,  // measure 42
0001
1000
0000
0100
0010
0000
0001
0000
0200
0000
0001
0000
0301
0000
1000
0000
,  // measure 43
1100
1000
0010
0100
0101
0001
1001
0000
,  // measure 44
0110
0000
1010
0000
0101
0000
0010
0001
,  // measure 45
1000
0000
0001
0000
0010
0000
0100
0000
0010
0001
0000
1000
0100
0000
1000
0001
,  // measure 46
1000
0001
0000
0010
0100
0000
1000
0000
0002
0000
0010
0000
0013
0000
0100
1000
,  // measure 47
0100
1000
0000
0010
0100
0000
0001
0000
0020
0000
0100
0000
0130
0000
1000
0000
,  // measure 48
0100
1000
0000
0001
0100
0000
0010
0000
0000
0000
1010
0000
1001
0000
0000
0000
,  // measure 49
0010
0000
1000
0000
0100
0000
0010
0000
0001
0100
0000
0001
0010
0000
0100
1000
,  // measure 50
0100
1000
0000
0001
1000
0000
0010
0000
0200
0000
0001
0000
0301
0000
0000
0000
,  // measure 51
0101
0000
0000
1010
0000
0000
1100
0000
0000
0000
1001
0000
0000
0011
0000
0000
,  // measure 52
1001
0000
0000
0110
0000
0000
1010
0000
0001
0000
0001
0000
0001
1000
0001
0000
,  // measure 53
0011
0000
0000
0110
0000
0000
1100
0000
0000
0000
1010
0000
0000
0110
0000
0000
,  // measure 54
1001
0000
0000
1100
0000
0000
0202
0000
0000
0000
0000
0000
0303
0000
0000
0000
;
