#VERSION:0.83;
#TITLE:ends;
#SUBTITLE:;
#ARTIST:polar;
#TITLETRANSLIT:;
#SUBTITLETRANSLIT:;
#ARTISTTRANSLIT:;
#GENRE:;
#ORIGIN:;
#CREDIT:;
#BANNER:ends-bn.png;
#BACKGROUND:ends-bg.png;
#PREVIEWVID:;
#JACKET:ends-jacket.png;
#CDIMAGE:;
#DISCIMAGE:;
#LYRICSPATH:;
#CDTITLE:;
#MUSIC:ends.ogg;
#OFFSET:0.000000;
#SAMPLESTART:25.263000;
#SAMPLELENGTH:20.000000;
#SELECTABLE:YES;
#DISPLAYBPM:152.000000;
#BPMS:0.000=152.000;
#STOPS:;
#DELAYS:;
#WARPS:;
#TIMESIGNATURES:0.000=4=4;
#TICKCOUNTS:0.000=4;
#COMBOS:0.000=1;
#SPEEDS:0.000=1.000=0.000=0;
#SCROLLS:0.000=1.000;
#FAKES:;
#LABELS:0.000=Song Start;
#BGCHANGES:;
#KEYSOUNDS:;
#ATTACKS:
;

//---------------dance-single - ----------------
#NOTEDATA:;
#CHARTNAME:;
#STEPSTYPE:dance-single;
#DESCRIPTION:;
#CHARTSTYLE:;
#DIFFICULTY:Hard;
#METER:13;
#RADARVALUES:0.521750,0.583763,0.092462,0.061641,0.092462,474.000000,462.000000,12.000000,8.000000,0.000000,0.000000,0.000000,0.000000,0.000000,0.521750,0.583763,0.092462,0.061641,0.092462,474.000000,462.000000,12.000000,8.000000,0.000000,0.000000,0.000000,0.000000,0.000000;
#CREDIT:;
#DISPLAYBPM:152.000000;
#NOTES:
0000
0000
0000
0000
,
0000
0000
0000
0000
,
0000
0000
0000
0000
,
0000
0000
0000
0000
,
0000
0000
0000
0000
,
0000
0000
0000
0000
,
0000
0000
0000
0000
,
0000
0000
0000
0000
,
1000
1000
0000
0000
0001
0001
0000
0000
,
0001
0000
0001
0000
0000
0000
0000
0000
0100
0000
0001
1000
0001
0000
0010
0000
,
0100
0100
0000
0000
1000
1000
0000
0000
,
0001
0000
0001
0000
0000
0000
0000
0000
0100
0000
0010
1000
0010
0000
0100
0000
,
0001
0001
0000
0000
0100
0100
0000
0000
,
1000
0000
1000
0000
0000
0000
0000
0000
0001
0000
0100
0010
0100
0000
0001
0000
,
0010
0000
0010
0000
0000
0000
0000
0000
0010
0000
0100
0000
0001
1000
0001
1000
,
0001
0000
0100
0000
0000
0000
0000
0000
0100
0000
0010
0001
0010
0001
0010
0000
,
0001
0100
0100
0100
0010
0010
1000
0001
,
1000
0100
0010
0001
0100
0010
1000
0000
,
0100
0100
0100
1000
0001
0010
0010
0001
,
0100
0000
0010
0000
1000
0000
0001
0000
0010
0000
0100
1000
0100
0000
0000
0000
,
1000
1000
1000
0010
0100
0001
0001
0010
,
0100
0000
0010
0000
0001
0000
0100
0000
0010
0000
1000
0001
1000
0000
0000
0000
,
0001
0001
0001
1000
0010
1000
0100
0000
,
0010
0000
0001
0000
0100
0000
0001
0000
1000
0000
0010
0100
0010
0000
0000
0000
,
1000
0001
0010
0100
0010
0001
1000
0000
,
0010
0010
0010
1000
0001
1000
0100
0000
,
0010
0001
0100
0010
1000
0100
0001
0100
,
1000
0010
0100
0001
0010
0100
1000
0000
,
0010
1000
0001
0010
0100
1000
0001
0000
,
1000
0000
0001
0000
0010
0000
0100
0000
0010
0000
0001
1000
0001
0000
0000
0000
,
0100
0010
1000
0100
0010
0001
0100
0000
,
0001
0000
1000
0000
0010
0000
0100
0000
0010
0000
1000
0100
1000
0000
0000
0000
,
0001
0000
0011
0000
1100
0000
0010
0100
,
0001
0010
1000
0010
0001
0100
0000
0110
,
0000
0000
1010
0000
0101
0000
1000
0100
,
0001
0100
1000
0001
0100
0010
0000
1001
,
0000
2000
3020
0230
,
0301
0010
0001
0100
0010
1000
0000
0002
,
0100
0100
0010
0013
,
1000
0001
0010
0100
0010
0001
1000
0100
,
0010
0011
1100
1001
,
1000
0001
0010
0100
0010
0001
1000
0000
,
0001
0101
1010
0110
,
0100
0010
1000
0100
0010
0001
1000
0000
,
0100
2000
3002
0203
,
0301
0010
0100
0010
0001
1000
0100
0000
,
1000
0000
0020
0000
0130
0001
0100
0010
,
1000
0100
0001
0100
0010
0100
1000
0000
,
0001
1000
0010
0100
,
0001
0010
0100
1000
0010
0100
0000
0001
,
0000
0010
0100
1000
,
0010
0100
0010
1000
0001
0100
0000
0001
,
0000
0100
0001
1000
,
0100
0010
0100
1000
0010
0100
0000
0001
,
0000
0010
0001
1000
,
0001
0000
0100
0000
0010
0000
1000
0000
0100
0000
0010
0001
0010
0001
0010
0000
,
0001
0100
0100
0100
0010
0010
1000
0001
,
1000
0000
0010
0000
1000
0000
0100
0000
0010
0000
0001
1000
0001
0000
0000
0000
,
1000
0010
1000
0100
0010
0001
0100
0010
,
1000
0000
0100
0000
0001
0000
0100
0000
0010
0000
0001
1000
0001
0000
0000
0000
,
0100
0010
0100
0001
0010
0100
1000
0000
,
0001
0000
1000
0000
0010
0000
1000
0000
0100
0000
0010
0001
0010
0000
0000
0000
,
0100
0010
0001
0100
0010
1000
0001
0000
,
1000
0000
0001
0000
0010
0000
0100
0000
0010
0000
0001
1000
0001
0000
0000
0000
,
1000
0001
0010
0100
1000
0001
0100
0000
,
0001
0010
0100
1000
0001
1000
0100
0000
,
1000
0010
0100
0001
0010
0100
1000
0010
,
0100
1000
0100
0010
0100
0001
0100
0000
,
0001
0010
0001
0100
0010
1000
0001
0000
,
1000
0000
0001
0000
1000
0000
0100
0000
0010
0000
0001
0100
0001
0000
0000
0000
,
0100
0010
1000
0100
0010
0001
1000
0000
,
0010
0000
0100
0000
0010
0000
0100
0000
0001
0000
1000
0001
1000
0000
0000
0000
,
0001
0100
0001
0000
0000
0000
1000
0000
0000
0000
0000
0000
0010
0000
0000
0000
,
0100
0010
0000
1000
0000
0000
0001
0000
,
1000
0100
1000
0000
0000
0000
0010
0000
0000
0000
0000
0000
0100
0000
0000
0000
,
0010
1000
0000
0001
0000
0000
0100
0000
,
0001
0010
0001
0000
0000
0000
0100
0000
0000
0000
0000
0000
0010
0000
0000
0000
,
1000
0100
0000
0010
0000
0000
0001
0000
,
1000
0100
1000
0000
0000
0000
0001
0000
0000
0000
0000
0000
0010
0000
0000
0000
,
0100
1000
0000
0001
0000
0000
0010
0000
;

//---------------dance-single - ----------------
#NOTEDATA:;
#CHARTNAME:;
#STEPSTYPE:dance-single;
#DESCRIPTION:;
#CHARTSTYLE:;
#DIFFICULTY:Medium;
#METER:10;
#RADARVALUES:0.431489,0.492360,0.208040,0.200334,0.000000,392.000000,365.000000,27.000000,26.000000,0.000000,0.000000,0.000000,0.000000,0.000000,0.431489,0.492360,0.208040,0.200334,0.000000,392.000000,365.000000,27.000000,26.000000,0.000000,0.000000,0.000000,0.000000,0.000000;
#CREDIT:;
#DISPLAYBPM:152.000000;
#NOTES:
0000
0000
0000
0000
,
0000
0000
0000
0000
,
0000
0000
0000
0000
,
0000
0000
0000
0000
,
0000
0000
0000
0000
,
0000
0000
0000
0000
,
0000
0000
0000
0000
,
0000
0000
0000
0000
,
1000
1000
0000
0000
0001
0001
0000
0000
,
0100
0100
0000
0000
0010
1000
0001
0000
,
0010
0010
0000
0000
0001
0001
0000
0000
,
1000
1000
0000
0000
0001
0010
0100
0000
,
1000
1000
0000
0000
0010
0010
0000
0000
,
0100
0100
0000
0000
0001
1000
0010
0000
,
0100
0100
0000
0000
0001
0001
0000
0000
,
0010
0010
0000
0000
0001
0100
1000
0000
,
0010
0100
0001
1001
0000
0000
0100
0001
,
0010
0100
1000
0000
0001
0100
1000
0000
,
0001
1000
0010
0110
0000
0010
0100
0000
,
0001
0010
1000
0000
0100
0010
0001
0000
,
0100
0000
0001
1000
0001
0100
1000
0000
,
0010
1000
0100
0010
0001
0000
0101
0000
,
1000
0001
0100
0010
1000
0000
0100
0000
,
0010
0001
0100
0001
1000
0000
1100
0000
,
0001
0010
0100
0000
0110
0000
1001
0000
,
0010
1000
0100
0010
0002
0000
2003
0000
,
3100
0010
0001
0000
0011
0000
1100
0000
,
0010
1000
0001
0010
0200
0000
2300
0000
,
3001
1000
0010
1000
0001
0000
1010
0000
,
0100
0001
0010
0100
1000
0000
0011
0000
,
0010
0001
0100
0010
1000
0000
0101
0000
,
0010
0001
0010
0100
1000
0000
1001
0000
,
0001
0001
0000
0000
0100
0100
0000
0000
,
1000
1000
0000
0000
0010
1000
0001
0010
,
0100
0100
0000
0000
0010
0010
0000
0000
,
0001
0001
0000
0000
1000
0001
0010
0100
,
1000
1000
0000
0000
0010
0010
0000
0000
,
0100
0100
0000
0000
0001
0010
0001
0100
,
0001
0001
0000
0000
1000
1000
0000
0000
,
0010
0010
0100
0001
1000
1000
0000
0110
,
0000
0002
0203
0320
,
1030
0010
0100
0000
0001
0010
1000
0000
,
0000
0002
2003
3200
,
1300
0010
0100
0000
0001
1000
0010
0000
,
0000
0200
0320
2030
,
3001
1000
0010
0000
1000
0100
0001
0000
,
0000
0020
0032
2003
,
3001
0010
0100
0000
0010
0100
1000
0000
,
0000
0010
1000
0001
,
0010
0000
0100
0000
1000
0010
0000
0101
,
0000
0001
0010
0001
,
0100
0000
0010
0000
1000
0100
0000
1010
,
0000
1000
0010
0001
,
1000
0000
0010
0000
0100
0001
0000
1001
,
0000
0010
0001
0100
,
0001
0000
1000
0000
0010
0100
0000
0001
,
0100
0000
0010
0100
0010
1000
0001
0000
,
0010
0001
1000
0010
0100
0000
0110
0000
,
0001
0100
1001
0000
0000
0010
1000
0001
,
0010
0100
1000
0000
0010
0100
0001
0000
,
0010
0000
0001
0100
0010
0100
0001
0000
,
1000
0001
1000
0100
0010
0000
0011
0000
,
1000
0001
0010
0100
1000
0000
0110
0000
,
0010
0100
0010
1000
0100
0000
1100
0000
,
0001
0201
0320
2030
,
3100
1000
0100
0010
0001
0000
1010
0000
,
0100
2001
3020
2030
,
3100
1000
0001
0010
0100
0000
0110
0000
,
0001
0000
1000
0100
0001
0000
1000
0000
,
0010
1000
0100
0010
0001
0000
1010
0000
,
0020
2030
3002
0203
,
0310
0100
0010
1000
0100
0000
1001
0000
,
0001
0001
0000
0000
0010
0010
0000
0000
,
0100
0100
0000
0000
1000
0010
1000
0000
,
0100
0100
0000
0000
1000
1000
0000
0000
,
0001
0001
0000
0000
1000
0010
0100
0000
,
0010
0010
0000
0000
1000
1000
0000
0000
,
0100
0100
0000
0000
0010
0001
1000
0000
,
0010
0010
0000
0000
1000
1000
0000
0000
,
0001
0001
0000
0000
1000
0100
0010
0001
;

//---------------dance-single - ----------------
#NOTEDATA:;
#CHARTNAME:;
#STEPSTYPE:dance-single;
#DESCRIPTION:;
#CHARTSTYLE:;
#DIFFICULTY:Easy;
#METER:6;
#RADARVALUES:0.271882,0.337968,0.123283,0.215745,0.000000,247.000000,231.000000,16.000000,28.000000,0.000000,0.000000,0.000000,0.000000,0.000000,0.271882,0.337968,0.123283,0.215745,0.000000,247.000000,231.000000,16.000000,28.000000,0.000000,0.000000,0.000000,0.000000,0.000000;
#CREDIT:;
#DISPLAYBPM:152.000000;
#NOTES:
0000
0000
0000
0000
,
0000
0000
0000
0000
,
0000
0000
0000
0000
,
0000
0000
0000
0000
,
0000
0000
0000
0000
,
0000
0000
0000
0000
,
0000
0000
0000
0000
,
0000
0000
0000
0000
,
2000
0000
3002
0000
,
0023
0000
0031
1000
,
0020
0000
0230
0000
,
0302
0000
0103
0010
,
0200
0000
0302
0000
,
2003
0000
3001
0100
,
0020
0000
2030
0000
,
3200
0000
1300
0010
,
0100
1001
0000
0001
,
1000
1000
0001
0100
,
0010
0110
0000
0100
,
0001
0001
0010
1000
,
0100
1000
0101
0000
,
0001
0010
0100
0100
,
1000
0001
1010
0000
,
0010
0100
0010
0010
,
0000
0100
0010
0100
,
0001
1000
1100
1100
,
0000
1000
0010
0100
,
0001
0010
0011
0011
,
0000
0001
0100
0000
,
0010
0010
1000
1000
,
0000
0100
1000
0001
,
0010
0010
0001
0001
,
0000
0010
0010
0001
,
0100
0000
0010
0000
1000
0000
0000
0001
,
0000
1000
1000
0010
,
0100
0000
0001
0000
0010
0000
0000
0100
,
0000
1000
0001
0010
,
0100
0000
0010
0000
0100
0000
0000
1000
,
0000
0000
0000
0000
,
0001
0000
1000
0000
0010
0000
0000
0100
,
0000
0002
0100
1000
,
0010
0100
0010
0013
,
0000
2000
0100
0001
,
0010
0010
0001
3100
,
0000
0020
0100
0100
,
0001
1000
0001
0130
,
0000
0200
0010
1000
,
0010
0001
1000
0301
,
0000
0010
0010
0010
,
0001
0000
1000
0000
0001
0000
0000
0100
,
0000
1000
1000
1000
,
0010
0000
0100
0000
0010
0000
0000
0001
,
0000
0100
0100
0100
,
0010
0000
1000
0000
0010
0000
0000
0100
,
0000
0001
0001
0001
,
1000
0100
1000
0001
,
0010
1100
0000
0100
,
1000
0010
1000
1000
,
0010
1001
0000
0100
,
0001
0001
0010
1000
,
0100
0010
0110
0000
,
0010
0001
0100
1000
,
0001
0100
0101
0000
,
1000
0001
1000
0010
,
0000
0100
0100
0001
,
0010
0100
1100
1100
,
0000
1000
0010
1000
,
0100
0010
0011
0011
,
0000
0010
0100
0000
,
0001
0100
1000
0010
,
0000
0100
0010
0100
,
0001
0001
1000
1000
,
0002
0000
0203
0000
,
0320
0000
0130
0001
,
0020
0000
0032
0000
,
2003
0000
3001
0010
,
0002
0000
2003
0000
,
3200
0000
1300
0001
,
2000
0000
3200
0000
,
0320
0000
0130
1000
;

//---------------dance-single - ----------------
#NOTEDATA:;
#CHARTNAME:;
#STEPSTYPE:dance-single;
#DESCRIPTION:;
#CHARTSTYLE:;
#DIFFICULTY:Beginner;
#METER:3;
#RADARVALUES:0.138693,0.214396,0.069347,0.000000,0.000000,126.000000,117.000000,9.000000,0.000000,0.000000,0.000000,0.000000,0.000000,0.000000,0.138693,0.214396,0.069347,0.000000,0.000000,126.000000,117.000000,9.000000,0.000000,0.000000,0.000000,0.000000,0.000000,0.000000;
#CREDIT:;
#DISPLAYBPM:152.000000;
#NOTES:
// measure 0
0000
0000
0000
0000
,  // measure 1
0000
0000
0000
0000
,  // measure 2
0000
0000
0000
0000
,  // measure 3
0000
0000
0000
0000
,  // measure 4
0000
0000
0000
0000
,  // measure 5
0000
0000
0000
0000
,  // measure 6
0000
0000
0000
0000
,  // measure 7
0000
0000
0000
0000
,  // measure 8
1000
0000
1000
0000
,  // measure 9
1000
0000
0000
0000
,  // measure 10
0001
0000
0001
0000
,  // measure 11
0001
0000
0000
0000
,  // measure 12
0100
0000
0100
0000
,  // measure 13
0100
0000
0000
0000
,  // measure 14
0010
0000
0010
0000
,  // measure 15
0010
0000
0000
0000
,  // measure 16
1001
0000
0000
0000
,  // measure 17
0001
0001
0001
0000
,  // measure 18
1001
0000
0000
0000
,  // measure 19
1000
1000
1000
0000
,  // measure 20
0110
0000
0000
0000
,  // measure 21
0010
0010
0010
0000
,  // measure 22
0110
0000
0000
0000
,  // measure 23
0100
0100
0100
0000
,  // measure 24
0000
0000
0001
0000
,  // measure 25
1000
0000
0100
0000
,  // measure 26
0000
0000
0010
0000
,  // measure 27
0100
0000
1000
0000
,  // measure 28
0000
0000
0001
0000
,  // measure 29
0100
0100
0100
0000
,  // measure 30
0000
0000
0010
0000
,  // measure 31
1000
1000
1000
0000
,  // measure 32
0010
0000
0000
0000
,  // measure 33
0010
0000
0000
0000
,  // measure 34
0100
0000
0000
0000
,  // measure 35
0100
0000
0000
0000
,  // measure 36
0001
0000
0000
0000
,  // measure 37
0001
0000
0000
0000
,  // measure 38
1000
0000
0000
0000
,  // measure 39
1000
0000
0000
0000
,  // measure 40
0000
0010
0010
0000
,  // measure 41
1000
0000
0001
0000
,  // measure 42
0000
0100
0100
0000
,  // measure 43
0010
0000
1000
0000
,  // measure 44
0000
0001
0001
0000
,  // measure 45
0010
0000
0100
0000
,  // measure 46
0000
1000
1000
0000
,  // measure 47
0100
0000
0001
0000
,  // measure 48
1000
0000
0000
0000
,  // measure 49
0001
0000
0000
0000
,  // measure 50
0010
0000
0000
0000
,  // measure 51
0100
0000
0000
0000
,  // measure 52
0010
0000
0000
0000
,  // measure 53
0001
0000
0000
0000
,  // measure 54
1000
0000
0000
0000
,  // measure 55
0100
0000
0000
0000
,  // measure 56
1001
0000
0000
0000
,  // measure 57
1000
1000
1000
0000
,  // measure 58
1001
0000
0000
0000
,  // measure 59
0010
0010
0010
0000
,  // measure 60
0110
0000
0000
0000
,  // measure 61
0100
0100
0100
0000
,  // measure 62
0110
0000
0000
0000
,  // measure 63
0001
0001
0001
0000
,  // measure 64
0000
0000
0010
0000
,  // measure 65
0001
0000
0100
0000
,  // measure 66
0000
0000
1000
0000
,  // measure 67
0001
0000
0010
0000
,  // measure 68
0000
0000
0001
0000
,  // measure 69
0010
0010
0010
0000
,  // measure 70
0000
0000
1000
0000
,  // measure 71
0001
0001
0001
0000
,  // measure 72
0010
0000
0010
0000
,  // measure 73
0010
0000
0000
0000
,  // measure 74
0001
0000
0001
0000
,  // measure 75
0001
0000
0000
0000
,  // measure 76
0100
0000
0100
0000
,  // measure 77
0100
0000
0000
0000
,  // measure 78
1000
0000
1000
0000
,  // measure 79
1000
0000
1001
0000
;
