#TITLE:dumb;
#SUBTITLE:;
#ARTIST:nomu;
#TITLETRANSLIT:;
#SUBTITLETRANSLIT:;
#ARTISTTRANSLIT:;
#GENRE:;
#CREDIT:;
#BANNER:dumb-bn.png;
#BACKGROUND:dumb-bg.png;
#LYRICSPATH:;
#CDTITLE:;
#MUSIC:dumb.ogg;
#OFFSET:0.000000;
#SAMPLESTART:34.363998;
#SAMPLELENGTH:20.000000;
#SELECTABLE:YES;
#DISPLAYBPM:110.000000;
#BPMS:0.000000=110.000000
;
#STOPS:
;
#BGCHANGES:;
#KEYSOUNDS:;
#ATTACKS:;

//---------------dance-single - ----------------
#NOTES:
     dance-single:
     :
     Hard:
     13:
     0.480009,0.558847,0.000000,0.125740,0.998938,481.000000,481.000000,0.000000,18.000000,0.000000,0.000000,0.480009,0.558847,0.000000,0.125740,0.998938,481.000000,481.000000,0.000000,18.000000,0.000000,0.000000:
0000
0000
0000
0000
,
0000
0000
0000
0000
,
0000
0000
0000
0000
,
0000
0000
0000
0000
,
0000
0000
0000
0000
,
0000
0000
0000
0000
,
0000
0000
0000
0000
,
0000
0000
0000
0000
0000
0000
0000
0000
0001
0010
0100
1000
,
0010
0000
0000
0000
1000
0100
1000
0010
0100
0001
1000
0000
,
0001
1000
0001
0010
0100
1000
0001
1000
0001
1000
0010
0100
,
0001
0000
0000
0000
0010
0100
1000
0001
1000
0020
0000
0130
,
0001
0010
0100
0010
0001
0100
0010
1000
0001
1000
0100
1000
,
0001
0000
0000
0000
1000
0100
0010
0100
1000
0001
0000
1000
,
0100
0010
0100
0010
0001
0100
0001
1000
0010
1000
0000
0001
,
0010
0100
1000
0010
0100
0001
1000
0100
0010
0001
0000
0000
,
0000
0000
0000
1000
0000
0000
0000
0000
0000
1000
0000
0001
,
1000
0100
0010
1000
0010
0100
0010
0001
0100
1000
0100
0001
,
1000
0001
1000
0010
0001
0010
0100
0010
0001
0010
1000
0001
,
1000
0100
0001
0100
0010
0001
0100
1000
0100
0001
0000
1000
,
0100
0010
1000
0010
0100
0010
0001
0100
0010
0001
0010
1000
,
0200
0000
0000
0000
1300
0001
0100
0000
0000
0000
0010
0100
,
0001
0010
1000
0100
0010
0001
0100
0010
1000
0001
0010
0100
,
0020
0000
0000
0000
0031
0100
0010
1000
0001
1000
0000
0100
,
0010
0001
0100
1000
0100
0010
1000
0100
0010
0001
0000
0000
,
0100
0000
0000
0010
1000
0001
0100
0000
0010
1000
0000
0010
,
1000
0100
0010
0001
0100
1000
0100
0010
1000
0001
0000
0010
,
0001
0100
0010
1000
0001
0010
1000
0010
0001
0100
0000
0100
,
0001
1000
0001
0010
0100
0010
0100
1000
0100
1000
0001
0010
,
0001
0000
0000
0000
1000
0001
0010
1000
0010
0100
1000
0001
,
1000
0000
0000
0010
0100
0001
0010
0100
1000
0001
1000
0010
,
0100
0000
0000
0001
1000
0100
0010
1000
0010
0001
0100
0010
,
1000
0000
0000
0000
0000
0001
0010
0000
0001
0100
0000
0020
,
0000
0000
2030
0000
0000
3100
0010
0000
0001
1000
0000
0001
,
0000
0000
0000
0100
0000
0010
1000
0000
0010
1000
0000
0002
,
0000
0000
0013
0100
0000
0010
0100
0000
1000
0001
0000
0100
,
0000
0000
0000
0010
0000
1000
0001
0000
1000
0100
0000
0020
,
0000
0000
0031
0100
0000
0010
1000
0000
0100
0010
0000
0001
,
0000
0000
0000
1000
0000
0001
0010
0000
0100
0010
0000
0002
,
0000
0000
1003
0001
0000
0010
0100
0000
0010
0100
0000
2000
,
0002
0000
0000
0000
0000
0000
3003
0000
0000
0010
0000
0010
,
0001
0100
0010
0001
0010
0100
0001
0010
0100
1000
0010
0001
,
0010
1000
0100
0010
0001
1000
0100
0001
0100
0010
0100
1000
,
0001
0100
0010
0100
1000
0100
0001
0010
0100
1000
0000
0001
,
1000
0100
0001
0100
0010
0100
1000
0010
0100
1000
0100
0001
,
0020
0000
0000
0000
0031
0100
2000
0000
0000
0000
3100
0010
,
0001
0100
0001
0010
1000
0010
0001
0100
0010
1000
0001
1000
,
0020
0000
0000
0000
1030
0100
0010
0100
0010
0001
0000
1000
,
0001
0100
1000
0100
0010
1000
0100
0010
0001
1000
0000
0100
,
1000
0100
0010
0001
0100
0010
1000
0001
1000
0100
0000
0010
,
0001
0100
0010
0001
0010
1000
0100
1000
0001
0010
0010
0010
,
0200
0000
0000
0000
1300
0001
1000
0010
0001
0010
0100
0001
,
1000
0000
0000
0100
0010
0001
0100
1000
0100
0001
0010
0100
,
2000
0000
0000
0000
3001
1000
0002
0000
0000
0000
0103
0010
,
1000
0001
0010
1000
0010
0100
1000
0010
0001
0010
0100
0001
,
2000
0000
0000
0000
3100
0010
0100
1000
0001
0010
0001
0100
,
0010
0100
0010
1000
0001
1000
0100
0010
0001
1000
0001
0000
,
0100
1000
0010
0100
,
0001
0000
0000
0010
0000
0000
0001
0000
0000
1000
0000
0010
,
0100
1000
0001
0100
,
0010
0000
0000
1000
0000
0000
0100
0000
0000
1000
0001
1000
,
0001
0010
1000
0100
,
0010
0000
0000
0001
0000
0000
0100
0000
0000
0010
0000
1000
,
0001
0010
0100
1000
,
0020
0000
0000
0000
,
0030
0000
0000
0000
;

//---------------dance-single - ----------------
#NOTES:
     dance-single:
     :
     Medium:
     10:
     0.347283,0.424723,0.013971,0.125740,0.597267,348.000000,346.000000,2.000000,18.000000,0.000000,0.000000,0.347283,0.424723,0.013971,0.125740,0.597267,348.000000,346.000000,2.000000,18.000000,0.000000,0.000000:
0000
0000
0000
0000
,
0000
0000
0000
0000
,
0000
0000
0000
0000
,
0000
0000
0000
0000
,
0000
0000
0000
0000
,
0000
0000
0000
0000
,
0000
0000
0000
0000
,
0000
0000
0000
0000
0000
0000
0000
0000
0001
1000
0000
0010
,
0100
0000
0000
0000
0000
1000
0001
0000
1000
0010
0000
0000
,
1000
0000
1000
0100
0000
0100
0010
0000
0010
0001
1000
0001
,
0100
0000
0000
0000
0000
0000
0001
0010
0100
2000
0000
0000
,
3010
1000
0001
1000
0000
0010
0100
0000
0001
0010
0000
0100
,
1000
0000
0000
0000
0000
0000
0001
0100
0001
0100
0000
0000
,
0010
0000
0010
1000
0000
1000
0100
0010
0001
0100
0000
0000
,
0010
0000
1000
0010
0000
0100
0001
1000
0001
0010
0000
0000
,
0000
0000
0000
0000
0000
0000
0000
0000
0000
0100
0000
0100
,
1000
0010
1000
0010
0000
0000
0100
0001
0100
0001
0000
0000
,
0010
0000
0010
0100
0000
0100
1000
0001
1000
0001
0000
0000
,
0010
0001
0010
0001
0000
0000
1000
0100
1000
0100
0000
0000
,
1000
0000
1000
0010
0000
0100
0001
0010
0001
1000
0100
0010
,
0002
0000
0000
0003
0100
0010
1000
0000
0000
0000
0000
0000
,
0001
0010
0001
1000
0000
1000
0010
0000
0010
0100
0001
1000
,
0020
0000
0000
0030
1000
0001
0010
0000
0001
0100
0000
0000
,
0010
0000
1000
0001
0000
1000
0100
0010
0001
0100
0000
0000
,
0000
0000
0000
0000
0001
1000
0001
0000
0100
0010
0000
0100
,
0010
1000
0001
0100
0000
0000
0001
0010
0100
1000
0000
0000
,
0100
0010
0001
1000
0000
0000
0001
1000
0010
0100
0000
0000
,
0010
0100
0001
0100
0000
0000
1000
0001
1000
0010
0000
0100
,
0001
0000
0000
0000
1000
0100
1000
0000
0010
0100
0000
0001
,
1000
0000
0000
0100
1000
0001
1000
0000
0001
0010
0000
0010
,
0100
0000
0000
1000
0001
0100
0010
0000
0010
1000
0000
0001
,
0100
0000
0000
0000
0000
0000
0010
0000
1000
0001
0000
0020
,
0000
0000
0230
0000
0000
0300
1000
0000
0010
0100
0000
0001
,
0000
0000
0000
0000
0000
0000
1000
0000
0001
0010
0000
0200
,
0000
0000
1300
0001
0000
0100
0010
0000
0000
1000
0000
0010
,
0000
0000
0000
0000
0000
0000
0010
0000
0100
0001
0000
2000
,
0000
0000
3001
0010
0000
0100
1000
0000
0000
0001
0000
0100
,
0000
0000
0000
0000
0000
0000
0010
0000
1000
0001
0000
0200
,
0000
0000
0310
0100
0000
0001
1000
0000
0000
0100
0000
1000
,
0000
0000
0000
0000
0000
0000
0000
0000
0000
0001
0000
0001
,
1000
0000
1000
0010
0000
0010
0100
0000
0100
0001
0000
0001
,
0010
0000
0010
0100
0000
0100
1000
0000
1000
0001
0000
0001
,
0010
0000
0010
0001
0000
0001
1000
0000
1000
0010
0000
0010
,
0100
0000
0100
0001
0000
0001
1000
0000
1000
0100
0000
0100
,
0020
0000
0000
0030
0001
1000
0002
0000
0000
0003
0000
0000
,
0001
0000
0001
0100
0000
0100
0010
0000
0010
1000
0000
1000
,
0020
0000
0000
0030
0000
0000
0010
0100
0001
1000
0000
0000
,
0100
0000
0100
1000
0000
0001
0010
0001
1000
0010
0000
0000
,
1000
0100
0010
0001
0000
0000
0100
0010
0100
0010
0000
0000
,
1000
0001
1000
0001
0000
0000
0001
0010
0100
1000
0000
0000
,
2002
0000
0000
3003
0000
0000
0010
0100
0001
1000
0000
1000
,
0100
0000
0000
0010
0000
0010
0001
0000
0001
1000
0100
1000
,
0002
0000
0000
0003
0010
0100
2000
0000
0000
3000
0010
0100
,
0001
0000
0001
1000
0000
1000
0010
0000
0010
0100
0000
0100
,
0002
0000
0000
0003
0000
0000
1000
0001
1000
0100
0000
0000
,
0010
0001
0010
0100
0000
0000
1000
0001
1000
0100
0000
0000
,
0000
1000
0000
0001
,
0000
0000
0000
0010
0000
0000
0000
0000
0000
0100
0000
1000
,
0000
0001
0000
0010
,
0000
0000
0000
0001
0000
0000
0000
0000
0000
1000
0001
1000
,
0001
0010
0000
0100
,
0000
0000
0000
1000
0000
0000
0000
0000
0000
0010
0000
0100
,
0000
0001
0000
1000
,
2002
0000
0000
0000
,
3003
0000
0000
0000
;

//---------------dance-single - ----------------
#NOTES:
     dance-single:
     :
     Easy:
     6:
     0.202582,0.268246,0.153683,0.006986,0.000000,203.000000,181.000000,22.000000,1.000000,0.000000,0.000000,0.202582,0.268246,0.153683,0.006986,0.000000,203.000000,181.000000,22.000000,1.000000,0.000000,0.000000:
0000
0000
0000
0000
,
0000
0000
0000
0000
,
0000
0000
0000
0000
,
0000
0000
0000
0000
,
0000
0000
0000
0000
,
0000
0000
0000
0000
,
0000
0000
0000
0000
,
0000
0000
0000
0000
,
0001
0000
1000
0100
,
1000
0010
0100
0001
,
0010
0000
0001
0100
,
0001
0010
0100
1000
,
0100
0000
1000
0001
,
0010
0001
0100
0010
,
1000
0100
1000
0001
,
0000
0000
0000
0010
,
1001
1000
0100
0010
,
0001
0100
0110
1000
,
1001
0010
0001
0100
,
1000
0001
0010
0100
,
0110
0000
1001
0000
,
0001
0100
0010
1000
,
0010
0000
1000
0110
,
0001
0010
0100
1000
,
0000
0000
0010
0010
,
1000
0001
1000
0100
,
0010
0100
1000
0001
,
0010
0001
0100
1000
,
0001
0000
1000
1000
,
0001
1000
0010
0100
,
0010
1000
0100
0001
,
0100
0000
0001
1000
,
0001
0000
0010
0100
,
1000
0000
0001
0001
,
1000
0010
1000
0100
,
0010
0000
0001
0100
,
0001
0010
0100
1000
,
0010
0000
0100
0100
,
0001
0010
0001
1000
,
0010
0000
0000
0010
,
1001
0010
1000
0100
,
0110
0001
0100
1000
,
1001
0010
1000
0100
,
0110
0001
1000
0001
,
1001
0000
0110
0000
,
0010
0010
1000
0001
,
1000
0000
0100
0010
,
0100
0100
1000
0001
,
0101
0010
1100
0001
,
1000
0010
0100
0001
,
1001
0000
0010
0100
,
0110
0001
0010
1000
,
1100
0000
0101
0000
,
0001
1000
0010
0110
,
1001
0000
0110
0001
,
1000
0010
0100
1001
,
0000
0001
0000
0001
,
0000
0010
0000
0010
,
0000
0100
0000
0100
,
0000
1000
0000
1000
,
0000
0001
0000
0001
,
0000
1000
0000
1000
,
0000
0010
0000
0100
,
0020
0000
0000
0000
,
0030
0000
0000
0000
;

//---------------dance-single - ----------------
#NOTES:
     dance-single:
     :
     Beginner:
     3:
     0.095802,0.154032,0.048899,0.000000,0.000000,96.000000,89.000000,7.000000,0.000000,0.000000,0.000000,0.095802,0.154032,0.048899,0.000000,0.000000,96.000000,89.000000,7.000000,0.000000,0.000000,0.000000:
// measure 0
0000
0000
0000
0000
,  // measure 1
0000
0000
0000
0000
,  // measure 2
0000
0000
0000
0000
,  // measure 3
0000
0000
0000
0000
,  // measure 4
0000
0000
0000
0000
,  // measure 5
0000
0000
0000
0000
,  // measure 6
0000
0000
0000
0000
,  // measure 7
0000
0000
0000
0000
,  // measure 8
0001
0000
0001
0000
,  // measure 9
1000
0000
1000
0000
,  // measure 10
0010
0000
0010
0000
,  // measure 11
0100
0000
0100
0000
,  // measure 12
0001
0000
0001
0000
,  // measure 13
1000
0000
1000
0000
,  // measure 14
0010
0000
0100
0000
,  // measure 15
0000
0000
0000
0000
,  // measure 16
1001
0000
0000
0000
,  // measure 17
0000
0000
0010
0000
,  // measure 18
0110
0000
0000
0000
,  // measure 19
0000
0000
1000
1000
,  // measure 20
1000
0000
0000
0000
,  // measure 21
0000
0000
0001
0001
,  // measure 22
0001
0000
0000
0000
,  // measure 23
0100
0000
0010
0000
,  // measure 24
0000
0000
1000
0000
,  // measure 25
1000
0000
0001
0000
,  // measure 26
0010
0000
0100
0000
,  // measure 27
0010
0000
0001
0000
,  // measure 28
1000
0000
0001
0000
,  // measure 29
0100
0000
0001
0000
,  // measure 30
0010
0000
0100
0000
,  // measure 31
1000
0000
0000
0000
,  // measure 32
0001
0000
0001
0000
,  // measure 33
0001
0000
0000
0000
,  // measure 34
1000
0000
1000
0000
,  // measure 35
1000
0000
0000
0000
,  // measure 36
0010
0000
0010
0000
,  // measure 37
0010
0000
0000
0000
,  // measure 38
0100
0000
0100
0000
,  // measure 39
0100
0000
0000
0000
,  // measure 40
1001
0000
0001
0000
,  // measure 41
1000
0000
0000
0000
,  // measure 42
0110
0000
0010
0000
,  // measure 43
0100
0000
0001
0001
,  // measure 44
0001
0000
1000
0000
,  // measure 45
0010
0000
0100
0100
,  // measure 46
0100
0000
0010
0000
,  // measure 47
1000
0000
0000
0000
,  // measure 48
1001
0000
0001
0000
,  // measure 49
1000
0000
0001
0000
,  // measure 50
0010
0000
0100
0000
,  // measure 51
1000
0000
0010
0000
,  // measure 52
0110
0000
0001
0000
,  // measure 53
1000
0000
0010
0010
,  // measure 54
0010
0000
0100
0000
,  // measure 55
0001
0000
1000
0000
,  // measure 56
0010
0000
0000
0000
,  // measure 57
0000
0000
0000
0000
,  // measure 58
0100
0000
0000
0000
,  // measure 59
0000
0000
0000
0000
,  // measure 60
0001
0000
0000
0000
,  // measure 61
0000
0000
0000
0000
,  // measure 62
1000
0000
0000
0000
,  // measure 63
1001
0000
0000
0000
;
