#VERSION:0.83;
#TITLE:cruX;
#SUBTITLE:;
#ARTIST:dj_EXUSIA;
#TITLETRANSLIT:;
#SUBTITLETRANSLIT:;
#ARTISTTRANSLIT:;
#GENRE:;
#ORIGIN:;
#CREDIT:;
#BANNER:cruX-bn.png;
#BACKGROUND:cruX-bg.png;
#PREVIEWVID:;
#JACKET:cruX-jacket.png;
#CDIMAGE:;
#DISCIMAGE:;
#LYRICSPATH:;
#CDTITLE:;
#MUSIC:cruX.ogg;
#OFFSET:0.667000;
#SAMPLESTART:38.000000;
#SAMPLELENGTH:20.000000;
#SELECTABLE:YES;
#DISPLAYBPM:90.000000:360.000000;
#BPMS:0.000=180.000,
84.000=90.000,
100.000=360.000,
228.000=180.000,
244.000=360.000,
372.000=90.000,
392.000=180.000,
396.000=360.000,
500.000=180.000;
#STOPS:;
#DELAYS:;
#WARPS:;
#TIMESIGNATURES:0.000=4=4;
#TICKCOUNTS:0.000=4;
#COMBOS:0.000=1;
#SPEEDS:0.000=1.000=0.000=0;
#SCROLLS:0.000=1.000;
#FAKES:;
#LABELS:0.000=Song Start;
#BGCHANGES:;
#KEYSOUNDS:;
#ATTACKS:
;

//---------------dance-single - ----------------
#NOTEDATA:;
#CHARTNAME:;
#STEPSTYPE:dance-single;
#DESCRIPTION:;
#CHARTSTYLE:;
#DIFFICULTY:Hard;
#METER:17;
#RADARVALUES:0.882182,1.877143,0.568975,0.880015,0.212417,814.000000,739.000000,75.000000,116.000000,0.000000,0.000000,0.000000,0.000000,0.000000,0.882182,1.877143,0.568975,0.880015,0.212417,814.000000,739.000000,75.000000,116.000000,0.000000,0.000000,0.000000,0.000000,0.000000;
#CREDIT:;
#DISPLAYBPM:90.000000:360.000000;
#NOTES:
0000
0000
0000
0000
,
0000
0000
0000
0000
,
0000
0000
0000
0000
,
0000
0000
0000
0000
,
0000
0000
0000
0000
0010
0010
0010
0010
,
1000
0010
0001
1000
0010
0100
0001
0100
,
0010
0001
0100
1000
0010
0100
1000
0001
,
0001
0010
0100
1000
0001
1000
0010
0100
,
1000
0001
0100
0001
0010
0010
0010
0010
,
0001
0010
0100
1000
0010
0001
0100
1000
,
0010
0001
1000
0100
1000
0010
0100
0001
,
1000
0010
0001
0001
0100
1000
0100
0010
,
1001
0000
1001
0000
0010
0010
0010
0010
,
1001
0010
1000
0100
0010
0001
1000
0001
,
0010
0001
0010
1000
0100
0001
1000
0100
,
1000
0010
0001
0100
0001
0100
0010
1000
,
0001
1000
0100
1000
0010
0010
0010
0010
,
0100
0001
1000
0100
0010
0010
1000
0001
,
1000
0010
0001
0100
0100
0001
0010
1000
,
0010
0100
1000
0001
0001
1000
0100
0010
,
1001
0000
1001
0000
0010
0010
0010
0010
,
2002
0000
0000
0003
0020
0000
0000
3000
2000
0000
0000
0030
0002
0000
0000
3000
,
0020
0000
0000
0003
0200
0000
0000
0030
2000
0000
0000
0300
0002
0000
0000
3000
,
0020
0003
0002
0030
0200
0003
2000
0300
0020
3000
0002
0030
0200
0003
2000
0300
,
0020
3000
0002
0030
0200
0003
2000
0300
0020
3000
0002
0030
0200
0003
2000
0300
3010
0001
0010
0001
1000
0001
1000
0001
0100
0010
0100
0010
1000
0100
1000
0100
,
0010
0000
0100
1000
0001
0000
0101
0000
,
1000
1100
0010
0110
,
0001
0010
0100
1000
,
0010
1000
0010
0100
0001
0000
0100
0000
,
0110
0000
0010
1000
0100
0000
1100
0000
,
0001
0011
0100
0101
,
0010
1000
0001
0100
,
0001
0010
0100
1000
0010
0000
0100
0000
,
0110
0000
0010
1000
0100
0000
0011
0000
,
0100
1001
0010
1100
,
0001
1000
0100
0010
,
0001
0100
0010
1000
0001
0000
0010
0000
,
0011
0000
0010
0001
0100
0000
0110
0000
,
0010
1100
0101
1100
,
0001
0010
0100
1000
0010
0100
0001
0000
,
1000
0100
0010
0001
0100
0010
1000
0000
,
0001
0000
0010
0001
0100
0000
0010
1000
,
0100
0010
0001
1000
,
0010
0000
0101
0000
0101
0000
0001
0010
,
0100
1000
0010
0100
0001
0000
1000
0000
,
0010
0000
1000
0001
1000
0000
0010
0100
,
0010
1000
0100
0010
,
0001
0000
1010
0000
1010
0000
0001
1000
,
0010
1000
0100
0010
0001
0000
0100
0000
,
1001
0000
0010
1000
0100
0000
0110
0000
,
0010
0001
0100
0000
0010
1000
0100
0000
,
0011
0000
0001
1000
0100
0000
1010
0000
,
0100
0010
1000
0000
0100
0010
0001
0000
,
1100
0000
0001
1000
0010
0000
0101
0000
,
1000
0100
0010
0001
0100
0000
0010
0000
,
1000
0001
0100
0010
,
1001
0110
1001
0110
,
2002
3000
0020
0003
0002
0030
0200
0003
,
0020
0300
2000
0030
0200
3000
0002
0300
,
0200
0003
2000
0300
0002
3000
0200
0003
,
0020
0300
0200
0030
0002
0300
2000
0003
,
3002
0010
1003
0002
,
0100
1003
0002
0010
,
1003
0002
0100
1003
,
0001
0010
0100
1000
0010
0100
0001
1000
,
0002
0100
1003
0002
,
0010
1003
0002
0100
,
1003
0002
0010
1003
,
0001
1000
0010
1000
0100
0001
0100
0010
,
2000
0010
3001
2000
,
0100
3001
2000
0010
,
3001
2000
0100
3001
,
1000
0100
0010
0001
0100
0010
1000
0001
,
2000
0100
3001
2000
,
0010
3001
2000
0100
,
3001
2000
0010
3001
,
1000
0010
0100
0001
0010
1000
0100
0001
,
0200
0302
0023
0230
,
2300
3002
0023
0032
,
0203
0320
2030
3002
,
0013
0001
0100
0010
1000
0100
1000
0001
,
2000
3002
0023
0032
,
0203
0320
2030
3002
,
2003
3002
0023
0230
,
1300
0010
0100
0001
0010
0100
1000
0001
,
0020
0230
2300
3200
,
2300
3020
0230
0302
,
0023
0032
2003
3002
,
0013
0001
0010
0100
1000
0010
1000
0001
,
2000
3020
0230
0320
,
0230
0302
0023
0230
,
0320
0032
2003
3002
,
0013
0001
1000
0100
1000
0010
0100
0001
,
0010
0000
0000
0010
0000
0001
0001
1000
0001
0000
0000
0100
0000
0010
0010
1000
,
0001
0000
0000
1000
0000
0100
0100
0010
0001
0000
0000
0100
0000
0001
0001
0010
,
0100
0000
0000
1000
0000
0100
0100
1000
0010
0000
0000
0100
0000
0001
0001
0010
,
1100
0000
0101
0000
1100
0000
0101
0000
1002
0000
0000
0100
0103
0000
0000
0000
,
2001
0000
0000
0000
0000
0000
0100
0000
3100
0000
0000
0000
0000
0000
0000
0000
1000
0001
0010
0100
0001
1000
0010
0100
0010
0100
1000
0100
0001
0010
1000
0001
,
1000
0010
0100
0010
0001
1000
0100
0001
1000
0010
0100
0001
1000
0010
0100
0001
,
0010
0100
0010
1000
0001
0100
0001
1000
,
0010
0001
0100
0001
1000
0100
1000
0010
,
1000
0000
0001
0100
0010
0000
1010
0000
,
0000
0000
1000
0100
0010
0000
0000
0000
,
0011
0000
0010
0001
1000
0000
1100
0000
,
0000
0000
0100
0010
0001
0000
0000
0000
,
1010
0000
1000
0001
0100
0000
0110
0000
,
0000
0000
0010
1000
0100
0000
0000
0000
,
0010
0001
0100
0001
1000
0001
0100
0000
,
0101
0101
0101
0101
,
1001
0000
0001
1000
0010
0000
0110
0000
,
0000
0000
0010
0100
0001
0000
0000
0000
,
1100
0000
0100
0010
0001
0000
1010
0000
,
0000
0000
1000
0001
0100
0000
0000
0000
,
0110
0000
0010
1000
0100
0000
1100
0000
,
0000
0000
1000
0010
0001
0000
0000
0000
,
0100
0010
1000
0010
0100
0001
0010
0000
,
1100
1100
1100
1100
,
1001
0000
0100
0001
1000
0000
0101
0000
,
0000
0000
0010
1000
0001
0000
0000
0000
,
0011
0000
0001
1000
0010
0000
1010
0000
,
0000
0000
1000
0100
0010
0000
0000
0000
,
0101
0000
0010
1000
0001
0000
1001
0000
,
0000
0000
0100
0001
0010
0000
0000
0000
,
1000
0100
0010
0100
1000
0001
0010
0000
,
0001
1000
0010
1000
0100
0010
0100
0000
,
1002
1000
1000
1000
,
1000
1000
1000
1003
,
2100
0100
0100
3100
,
1020
1030
0201
0301
,
0012
0010
0010
0010
,
0010
0010
0010
0013
,
0120
0100
0100
0130
,
0010
0100
1000
0001
0100
0010
1000
0000
,
2002
0000
0000
3003
;

//---------------dance-single - ----------------
#NOTEDATA:;
#CHARTNAME:;
#STEPSTYPE:dance-single;
#DESCRIPTION:;
#CHARTSTYLE:;
#DIFFICULTY:Medium;
#METER:13;
#RADARVALUES:0.627498,1.166873,0.250349,0.257935,0.091036,579.000000,546.000000,33.000000,34.000000,0.000000,0.000000,0.000000,0.000000,0.000000,0.627498,1.166873,0.250349,0.257935,0.091036,579.000000,546.000000,33.000000,34.000000,0.000000,0.000000,0.000000,0.000000,0.000000;
#CREDIT:;
#DISPLAYBPM:90.000000:360.000000;
#NOTES:
0000
0000
0000
0000
,
0000
0000
0000
0000
,
0000
0000
0000
0000
,
0000
0000
0000
0000
,
0000
0000
0000
0000
0010
0010
0010
0010
,
1000
0000
0001
0000
0100
0010
1000
0000
,
0001
0100
1000
0000
0001
0010
1000
0000
,
0010
0000
1000
0000
0100
0010
0001
0000
,
0100
0001
1000
0000
0010
0010
0010
0010
,
0100
0000
0010
0000
1000
0100
0010
0000
,
0001
1000
0010
0000
1000
0100
0001
0000
,
1000
0100
0010
0000
0100
1000
0001
0000
,
1001
0000
1001
0000
0010
0010
0010
0010
,
1000
0100
1000
0000
0001
0100
0001
0000
,
1000
0010
1000
0000
0001
0010
0001
0000
,
0100
0010
0100
0000
0001
1000
0001
0000
,
0010
0001
0100
0000
0010
0010
0010
0010
,
1000
0010
1000
0000
0001
0010
0001
0000
,
0100
0010
0100
0000
0001
1000
0001
0000
,
0001
0100
0001
0000
1000
0100
1000
0000
,
1001
0000
1001
0000
0010
0010
0010
0010
,
2002
0003
0200
0300
0002
0003
0200
3300
,
2002
3000
0200
0300
2000
3000
0200
0303
,
2000
3200
0320
0032
2003
3200
0320
0032
,
1003
0001
0100
0000
0001
1000
0010
0000
1000
0001
1000
0001
0100
0010
0100
0010
,
1000
0010
0100
0001
,
0010
0100
1000
0001
,
0100
0010
1000
0010
,
1000
0100
0010
0001
,
0010
0001
0100
0001
,
1000
0010
1000
0100
,
0010
0100
1000
0000
,
0001
0001
0001
0001
,
1000
0010
1000
0100
,
0010
0001
0100
0001
,
0010
0100
1000
0001
,
0100
0001
1000
0010
,
1000
0100
0010
0001
,
0010
1000
0001
0100
,
0001
0100
1000
0000
,
0001
0001
0001
0001
,
0010
0001
0100
0010
,
0100
0001
1000
0100
,
0010
0100
1000
0010
,
1000
0001
0010
0001
,
0100
0010
1000
0100
,
1000
0001
0010
0100
,
0010
0001
1000
0000
,
0001
0001
0001
0001
,
1000
0001
0010
1000
,
0100
0010
0001
0100
,
0010
1000
0001
0010
,
0001
0100
0010
1000
,
0100
0010
0100
1000
,
0010
1000
0100
0001
,
1000
0010
0100
0000
,
0001
0001
0001
0001
,
1002
0100
1000
0100
,
0010
1000
0010
0103
,
2001
0010
0100
0001
,
0010
0001
0100
3010
,
1000
0010
1000
0000
,
0001
0100
0001
0000
,
0010
0100
1000
0001
,
0010
0100
1000
0000
,
0001
0010
0001
0000
,
1000
0010
1000
0000
,
0001
1000
0100
0010
,
0001
1000
0010
0000
,
1000
0001
0100
0000
,
0001
1000
0100
0000
,
0010
0001
0100
0001
,
0010
0100
1000
0000
,
0010
1000
0100
0000
,
1000
0001
0010
0000
,
0100
0010
0100
1000
,
0010
1000
0001
0000
,
1000
0001
0010
0001
,
0100
0010
1000
0100
,
0010
0001
1000
0000
,
0001
0100
1000
0000
,
0010
1000
0001
1000
,
0100
0010
0100
1000
,
0010
1000
0100
0000
,
1000
0001
1000
0000
,
0001
0100
0001
1000
,
0010
0100
0010
1000
,
0100
0010
0100
0000
,
1000
0010
0001
0000
,
1000
0001
0010
0100
,
0010
0001
0100
1000
,
0010
0100
0010
1000
,
0100
0010
0001
1000
,
0001
0000
0000
0001
0000
0000
0001
1000
0010
0000
0000
0010
0000
0000
0010
1000
,
0100
0000
0000
0100
0000
0000
0100
1000
0010
0000
0000
0010
0000
0000
0010
0100
,
0001
0000
0000
0001
0000
0000
0001
0100
1000
0000
0000
1000
0000
0000
1000
0010
,
0200
0000
0320
0000
2030
0000
3002
0000
0023
0000
0000
0100
0130
0000
0000
0000
,
2000
0000
0000
0001
3001
0000
0000
0000
0010
0001
0010
0001
0010
0001
0010
0001
,
1000
0100
1000
0100
1000
0100
1000
0100
,
0010
0001
0010
0001
,
1000
0100
1000
0100
,
1000
0010
0100
0001
,
0000
1100
1100
0000
,
0100
0010
1000
0001
,
0000
0101
0101
0000
,
0001
0010
0100
1000
,
0000
0110
0110
0000
,
0010
1000
0001
0000
,
0100
0100
0100
0100
,
0010
0100
0001
1000
,
0000
1010
1010
0000
,
1000
0001
0100
0010
,
0000
0101
0101
0000
,
0001
1000
0100
0010
,
0000
1001
1001
0000
,
0010
1000
0001
0000
,
0100
0100
0100
0100
,
0010
1000
0100
0001
,
0000
0101
0101
0000
,
0010
0001
1000
0100
,
0000
1010
1010
0000
,
1000
0001
1000
0010
,
0000
0110
0110
0000
,
0001
0010
0100
1000
,
0001
0100
0010
1000
,
1002
1000
1000
1000
,
1000
1000
1000
1003
,
2100
0100
0100
3100
,
1020
1030
0201
0301
,
0210
0010
0010
0010
,
0010
0010
0010
0310
,
0102
0100
0100
0100
,
0100
0100
0100
0103
,
2002
0000
0000
3003
;

//---------------dance-single - ----------------
#NOTEDATA:;
#CHARTNAME:;
#STEPSTYPE:dance-single;
#DESCRIPTION:;
#CHARTSTYLE:;
#DIFFICULTY:Easy;
#METER:9;
#RADARVALUES:0.394489,0.761004,0.242763,0.091036,0.022759,364.000000,332.000000,32.000000,12.000000,0.000000,0.000000,0.000000,0.000000,0.000000,0.394489,0.761004,0.242763,0.091036,0.022759,364.000000,332.000000,32.000000,12.000000,0.000000,0.000000,0.000000,0.000000,0.000000;
#CREDIT:;
#DISPLAYBPM:90.000000:360.000000;
#NOTES:
0000
0000
0000
0000
,
0000
0000
0000
0000
,
0000
0000
0000
0000
,
0000
0000
0000
0000
,
0000
0000
0000
0000
0010
0100
0010
0100
,
1000
0010
1000
0001
,
0010
0100
1000
0001
,
0010
0001
0100
0010
,
1000
0000
0100
0000
0001
1000
0001
1000
,
0010
1000
0100
0010
,
0100
1000
0010
0100
,
0001
1000
0001
0100
,
1001
0000
1001
0000
0010
0100
0010
0100
,
0001
0010
0100
1000
,
0010
1000
0100
0010
,
0100
0010
0100
1000
,
0001
0000
1000
0000
0010
0100
0010
0100
,
0001
1000
0100
0010
,
0100
1000
0010
0001
,
0100
0010
1000
0100
,
1001
0000
1001
0000
0010
0100
0010
0100
,
0002
1000
0010
0103
,
2000
0001
0100
3010
,
1000
1000
1000
0000
0001
0001
0001
0000
,
1000
0100
0010
0001
1000
0010
0100
0001
,
0010
0000
0001
1000
,
0000
1100
0000
0101
,
0000
0000
0000
0000
,
0000
0000
0100
0010
,
0100
0000
0010
1000
,
0000
1010
0000
0011
,
0000
0000
0000
0000
,
1000
0001
1000
0001
,
0100
0000
0001
0010
,
0000
0011
0000
1100
,
0000
0000
0000
0000
,
0000
0000
0001
0100
,
0001
0000
1000
0010
,
0000
1000
0001
0100
,
0000
0000
0000
0000
,
1000
0001
1000
0001
,
0100
0000
0001
1000
,
0000
1001
0000
0110
,
0000
0000
0000
0000
,
0000
0000
1000
0100
,
1000
0000
0010
0100
,
0000
0101
0000
1010
,
0000
0000
0000
0000
,
0001
0100
0001
0100
,
0001
0000
0010
0100
,
0000
0000
1000
0001
,
1000
0000
0001
0100
,
0000
0000
0001
0100
,
0010
0000
1000
0100
,
0000
1000
0010
0100
,
0000
0000
0000
0000
,
1000
0010
1000
0010
,
1000
0000
0001
0000
,
1000
0100
0010
0001
,
0100
0000
0010
0000
,
1000
0100
0010
0001
,
1000
0000
1000
0000
,
0001
0000
0001
0000
,
0100
0000
0010
0000
,
1000
0001
0100
0010
,
0100
0000
0100
0000
,
0010
0000
0010
0000
,
1000
0000
0001
0000
,
0010
0100
1000
0001
,
0100
0000
0100
0000
,
0001
0000
0001
0000
,
1000
0000
0010
0000
,
1000
0100
0010
0001
,
1000
0000
1000
0000
,
0100
0000
0100
0000
,
0010
0000
0001
0000
,
0100
0010
1000
0001
,
1000
0000
1010
0000
,
0001
0000
0101
0000
,
0100
0000
0010
0000
,
1000
0001
0010
0100
,
1000
0000
1001
0000
,
0010
0000
0110
0000
,
0100
0000
0001
0000
,
0010
0001
1000
0100
,
0010
0000
1100
0000
,
0100
0000
1010
0000
,
0001
0000
1000
0000
,
0001
1000
0010
0100
,
0001
0000
0101
0000
,
0010
0000
0110
0000
,
1000
0000
0100
0000
,
1000
0001
0100
0010
,
1000
0000
0000
1000
0000
0000
0000
0000
0001
0000
0000
0001
0000
0000
0000
0000
,
0100
0000
0000
0100
0000
0000
0000
0000
0010
0000
0000
0010
0000
0000
0000
0000
,
1000
0000
0000
0100
0000
0000
0000
0000
0010
0000
0000
0001
0000
0000
0000
0000
,
0100
0010
0100
0010
2000
0000
3001
0000
,
0002
0000
1003
0000
0010
0010
0010
0010
,
0100
0100
0100
0100
,
0001
0000
1000
0000
,
0001
0000
1000
0000
,
0001
0000
0000
0101
,
0000
0000
0000
0000
,
1000
0000
0000
1100
,
0000
0000
0000
0000
,
0010
0000
0000
0110
,
0000
0000
0000
0000
,
0000
0000
0000
0000
,
1000
0100
1000
0100
,
1000
0000
0000
1010
,
0000
0000
0000
0000
,
0001
0000
0000
0011
,
0000
0000
0000
0000
,
1001
0000
0100
0010
,
0000
0000
0000
0000
,
0000
0000
0000
0000
,
0010
0001
0010
0001
,
0100
0000
0000
1010
,
0000
0000
0000
0000
,
0001
0000
0000
0011
,
0000
0000
0000
0000
,
0110
0000
1000
0010
,
0000
0000
0000
0000
,
0000
0000
0000
0000
,
0000
0000
0001
1000
,
0020
0000
0000
0000
,
0000
0000
0000
0030
,
0200
0000
0000
0300
,
0002
0003
2000
3000
,
0002
0000
0000
0000
,
0000
0000
0000
0003
,
0200
0000
0000
0300
,
0010
0100
0001
1000
,
2002
0000
0000
3003
;

//---------------dance-single - ----------------
#NOTEDATA:;
#CHARTNAME:;
#STEPSTYPE:dance-single;
#DESCRIPTION:;
#CHARTSTYLE:;
#DIFFICULTY:Beginner;
#METER:6;
#RADARVALUES:0.196161,0.456602,0.053104,0.060691,0.000000,181.000000,174.000000,7.000000,8.000000,0.000000,0.000000,0.000000,0.000000,0.000000,0.196161,0.456602,0.053104,0.060691,0.000000,181.000000,174.000000,7.000000,8.000000,0.000000,0.000000,0.000000,0.000000,0.000000;
#CREDIT:;
#DISPLAYBPM:90.000000:360.000000;
#NOTES:
// measure 0
0000
0000
0000
0000
,  // measure 1
0000
0000
0000
0000
,  // measure 2
0000
0000
0000
0000
,  // measure 3
0000
0000
0000
0000
,  // measure 4
0000
0000
0010
0010
,  // measure 5
1000
0000
0000
0000
,  // measure 6
0001
0000
0000
0000
,  // measure 7
0100
0000
0000
0000
,  // measure 8
0010
0000
0010
0010
,  // measure 9
0100
0000
0000
0000
,  // measure 10
0001
0000
0000
0000
,  // measure 11
1000
0000
0000
0000
,  // measure 12
0001
0001
0001
0001
,  // measure 13
0001
0000
0000
0000
,  // measure 14
0010
0000
0000
0000
,  // measure 15
0100
0000
0000
0000
,  // measure 16
1000
0000
0010
0010
,  // measure 17
0001
0000
0000
0000
,  // measure 18
0100
0000
0000
0000
,  // measure 19
0010
0000
0000
0000
,  // measure 20
1000
1000
1000
1000
,  // measure 21
1001
0000
0001
0000
,  // measure 22
1001
0000
1000
0000
,  // measure 23
0010
0000
0010
0000
,  // measure 24
0100
0010
1000
0001
,  // measure 25
0010
0000
0001
0000
,  // measure 26
0100
0000
0001
0000
,  // measure 27
1000
0000
0000
0000
,  // measure 28
0000
0000
0000
0000
,  // measure 29
0010
0000
1000
0000
,  // measure 30
0100
0000
1000
0000
,  // measure 31
0001
0000
0000
0000
,  // measure 32
0100
0000
0100
0000
,  // measure 33
0001
0000
1000
0000
,  // measure 34
0100
0000
1000
0000
,  // measure 35
0010
0000
0000
0000
,  // measure 36
0000
0000
0000
0000
,  // measure 37
1000
0000
0010
0000
,  // measure 38
1000
0000
0001
0000
,  // measure 39
0100
0000
0000
0000
,  // measure 40
0001
0000
0001
0000
,  // measure 41
0010
0000
0001
0000
,  // measure 42
0100
0000
1000
0000
,  // measure 43
0010
0000
0000
0000
,  // measure 44
0000
0000
0000
0000
,  // measure 45
0100
0000
0001
0000
,  // measure 46
0010
0000
1000
0000
,  // measure 47
0100
0000
0000
0000
,  // measure 48
1000
0000
1000
0000
,  // measure 49
0001
0000
0000
0000
,  // measure 50
0001
0000
0000
0000
,  // measure 51
1000
0000
0000
0000
,  // measure 52
1000
0000
0000
0000
,  // measure 53
0010
0000
0100
0000
,  // measure 54
0010
0000
0100
0000
,  // measure 55
0001
0000
0000
0000
,  // measure 56
0000
0000
0000
0000
,  // measure 57
1001
0000
0000
0000
,  // measure 58
0100
0000
0000
0000
,  // measure 59
1001
0000
0000
0000
,  // measure 60
0010
0000
0000
0000
,  // measure 61
1000
0000
0000
1000
,  // measure 62
0000
0000
1000
0000
,  // measure 63
0000
1000
0000
0000
,  // measure 64
0001
0000
0100
0000
,  // measure 65
0001
0000
0000
0001
,  // measure 66
0000
0000
0001
0000
,  // measure 67
0000
0001
0000
0000
,  // measure 68
1000
0000
0010
0000
,  // measure 69
0100
0000
0000
0100
,  // measure 70
0000
0000
0100
0000
,  // measure 71
0000
0100
0000
0000
,  // measure 72
0001
0000
1000
0000
,  // measure 73
0010
0000
0000
0010
,  // measure 74
0000
0000
0010
0000
,  // measure 75
0000
0010
0000
0000
,  // measure 76
0100
0000
0001
0000
,  // measure 77
1000
0000
1000
0000
,  // measure 78
0001
0000
0001
0000
,  // measure 79
0100
0000
0000
0000
,  // measure 80
0010
0000
0000
0000
,  // measure 81
0100
0000
0100
0000
,  // measure 82
0010
0000
0010
0000
,  // measure 83
1000
0000
0000
0000
,  // measure 84
0001
0000
0000
0000
,  // measure 85
0010
0000
0010
0000
,  // measure 86
0001
0000
0001
0000
,  // measure 87
1000
0000
0000
0000
,  // measure 88
0100
0000
0000
0000
,  // measure 89
1000
0000
1000
0000
,  // measure 90
0010
0000
0010
0000
,  // measure 91
0100
0000
0000
0000
,  // measure 92
0001
0000
0000
0000
,  // measure 93
2000
0000
0000
3000
0000
0000
0000
0000
0020
0000
0000
0030
0000
0000
0000
0000
,  // measure 94
0200
0000
0000
0300
0000
0000
0000
0000
0002
0000
0000
0003
0000
0000
0000
0000
,  // measure 95
0020
0000
0000
0030
0000
0000
0000
0000
0002
0000
0000
0003
0000
0000
0000
0000
,  // measure 96
1000
0001
1001
0000
,  // measure 97
0110
0000
0010
0000
,  // measure 98
1000
0000
0000
0000
,  // measure 99
0001
0000
0000
0000
,  // measure 100
0000
0000
0000
0000
,  // measure 101
0010
0000
0000
0000
,  // measure 102
0000
0000
0000
0000
,  // measure 103
0100
0000
0000
0000
,  // measure 104
0000
0000
0000
0000
,  // measure 105
0001
0000
1000
0000
,  // measure 106
0100
0000
0000
0000
,  // measure 107
0000
0000
0000
0000
,  // measure 108
1000
0000
0001
0000
,  // measure 109
1000
0000
0000
0000
,  // measure 110
0000
0000
0000
0000
,  // measure 111
0100
0000
0000
0000
,  // measure 112
0000
0000
0000
0000
,  // measure 113
0010
0000
0001
0000
,  // measure 114
1000
0000
0000
0000
,  // measure 115
0000
0000
0000
0000
,  // measure 116
0010
0000
0100
0000
,  // measure 117
0001
0000
0000
0000
,  // measure 118
0000
0000
0000
0000
,  // measure 119
0100
0000
0000
0000
,  // measure 120
0000
0000
0000
0000
,  // measure 121
1000
0000
0010
0000
,  // measure 122
0001
0000
0000
0000
,  // measure 123
0000
0000
0000
0000
,  // measure 124
0000
0000
0000
0000
,  // measure 125
1000
0000
0000
0000
,  // measure 126
0000
0000
0000
0000
,  // measure 127
0001
0000
0000
0000
,  // measure 128
0100
0000
0010
0000
,  // measure 129
0100
0000
0000
0000
,  // measure 130
0000
0000
0000
0000
,  // measure 131
0001
0000
0000
0000
,  // measure 132
0000
0000
0000
0000
,  // measure 133
2002
0000
0000
3003
;
