#TITLE:cinder;
#SUBTITLE:;
#ARTIST:PHQUASE;
#TITLETRANSLIT:;
#SUBTITLETRANSLIT:;
#ARTISTTRANSLIT:;
#GENRE:;
#CREDIT:;
#BANNER:cinder.png;
#BACKGROUND:cinder-bg.png;
#LYRICSPATH:;
#CDTITLE:;
#MUSIC:cinder.ogg;
#OFFSET:0.700000;
#SAMPLESTART:20.410999;
#SAMPLELENGTH:20.000000;
#SELECTABLE:YES;
#DISPLAYBPM:108.000000:432.000000;
#BPMS:0.000000=216.000000
,76.000000=432.000000
,204.000000=108.000000
,220.000000=216.000000
,319.000000=108.000000
,336.000000=216.000000
,352.000000=432.000000
,480.000000=216.000000
,512.000000=108.000000
;
#STOPS:251.500000=0.278000,
319.000000=1.666000
;
#BGCHANGES:;
#KEYSOUNDS:;
#ATTACKS:;

//---------------dance-single - ----------------
#NOTES:
     dance-single:
     :
     Hard:
     17:
     1.021934,1.549606,0.578230,0.297376,0.631923,866.000000,796.000000,70.000000,36.000000,0.000000,0.000000,1.021934,1.549606,0.578230,0.297376,0.631923,866.000000,796.000000,70.000000,36.000000,0.000000,0.000000:
0000
0000
0000
0000
,
0000
0000
0000
0000
,
0000
0000
0000
0000
,
0000
0000
0000
0000
,
0000
0000
0000
0000
,
0000
0000
0000
0000
,
0000
0000
0000
0000
,
0000
0000
0000
0000
,
0000
0000
0000
0000
,
2002
0000
0000
0000
3003
0000
0000
0000
0010
1000
0010
1000
0010
0000
0000
0000
,
2002
0000
0000
0000
3003
0000
0000
0000
0100
0001
0100
0001
0100
0000
0000
0000
,
1010
0000
0000
0000
0101
0000
0000
0000
0001
1000
0001
1000
0001
0000
0000
0000
,
0011
0000
0000
0000
1100
0000
0000
0000
0010
0100
0010
0100
0010
0000
0000
0000
,
1000
0100
0010
0001
0100
0010
1000
0001
,
0010
0001
0100
0010
1000
0001
1000
0100
,
0010
0001
0010
0000
0001
0100
0001
0000
0100
0010
0100
0000
0010
1000
0010
0000
,
1000
0100
1000
0100
0010
0001
0010
0001
0010
0100
0010
0100
1000
0001
1000
0001
,
0010
0000
0000
0010
0000
0000
0020
0000
,
0000
0000
0000
0031
,
1001
0000
0010
1000
0100
0000
0010
0001
,
0100
0000
0001
1000
0100
0000
0100
0010
,
0001
0000
1000
0001
0010
0000
0001
0100
,
0010
0000
0100
0010
1000
0000
1000
0100
,
1000
0000
0100
0010
0001
0000
1000
0001
,
1000
0000
0010
1000
0100
0000
0010
0001
,
0100
0000
0010
1000
0100
0000
0010
0001
,
1000
0100
1000
0100
0010
0000
0000
0000
,
0110
0000
0100
1000
0001
0000
0010
0001
,
0100
0000
0001
1000
0001
0000
0010
0100
,
1000
0000
0010
1000
0001
0000
1000
0001
,
0010
0000
0001
0100
0001
0000
1000
0100
,
0010
0000
0001
0100
0001
0000
1000
0100
,
1000
0000
0001
0010
0001
0000
1000
0010
,
1000
0100
1000
0100
0010
0001
0010
0001
,
0200
0000
0000
0000
0302
0000
0000
0000
2003
0000
0000
0000
,
3010
0000
1000
0000
0010
0000
1000
0000
0001
0000
1000
0000
,
0001
0000
0010
0000
0100
0000
1000
0000
0000
0000
0000
0000
,
0001
0000
0100
0000
0010
0000
1000
0000
0100
0000
1000
0000
,
0010
0000
1000
0000
0001
0000
0100
0000
0000
0000
0000
0000
,
0001
0000
1000
0000
0001
0000
0010
0000
0100
0000
1000
0000
,
0100
0000
1000
0000
0010
0000
1000
0000
0001
0000
0100
0000
,
0010
0000
1000
0000
0100
0000
0010
0000
0100
0000
0010
0000
,
0001
0000
0100
0000
0001
0000
1000
0000
0000
0000
0000
0000
,
0001
0000
1000
0000
0100
0000
0010
0000
0100
0000
1000
0000
,
0010
0000
1000
0000
0001
0000
0100
0000
0000
0000
0000
0000
,
0001
0000
1000
0000
0100
0000
0010
0000
0001
0000
0100
0000
,
0001
0000
1000
0000
0010
0000
0100
0000
0000
0000
0000
0000
,
0001
0000
0010
0000
0100
0000
1000
0000
0010
0000
0100
0000
,
0010
0000
1000
0000
0001
0000
0100
0000
0010
0000
1000
0000
,
0001
1000
0001
1000
0010
0100
0010
0100
,
0001
0010
0100
1000
0010
0100
0001
1000
,
0010
0000
0100
0000
0001
0000
1000
0000
0010
0000
0100
0000
0001
0000
1000
0010
,
0100
0000
0000
0000
0101
0000
0000
0000
0010
0000
0000
0000
1100
0000
0000
0000
0001
0000
0000
0000
1000
0000
0000
0000
0010
0000
0000
0000
0100
0000
0001
1000
,
0001
0000
0011
0000
1001
0000
1010
0000
1000
0000
0110
0000
0011
0000
0101
0100
,
0010
0010
0100
0100
0001
0001
1000
1000
,
1001
0000
1000
0100
0010
0001
0100
0010
,
1000
0000
0100
0000
0010
0000
0001
0000
0100
0010
0100
0000
0001
1000
0001
0000
,
0010
0100
1000
0202
0300
0100
1003
0001
,
0011
0000
0010
0001
0100
0000
0220
0000
0300
0000
1000
0000
0130
0000
0000
0000
,
0210
0000
0310
1000
0100
0010
0001
1000
,
0000
0000
0010
1000
0100
0000
2001
0000
0000
0000
0001
0000
3100
0000
1000
0000
,
0001
0000
0010
0000
0100
0000
1000
0000
0010
1000
0100
0010
0001
0000
0100
0000
,
0001
1000
0001
1000
0010
0100
0010
0100
0001
0010
0100
1000
0100
0010
0001
0000
,
1010
0010
1000
0100
0010
0002
0000
0103
,
0110
0010
1010
1000
1001
1000
1200
1000
,
1300
0000
0100
0000
1000
0000
0010
0100
0001
0000
1000
0000
0011
0000
0000
1100
,
0000
0000
1010
0000
1001
0000
0000
0000
0010
1000
0100
0010
0001
0000
0100
0001
,
0100
0000
0001
0000
1000
0000
0010
1000
0010
0000
0100
0000
0010
0000
1000
0100
,
1000
0000
0001
0000
0100
0000
0010
1000
0010
0000
0100
0000
0001
0000
0010
0100
,
1000
0000
0010
0000
1000
0000
0100
0010
0001
0000
0100
0000
0001
1000
0001
1000
,
0010
1000
0010
1000
0100
1000
0100
1000
0001
0100
0010
0000
0110
0000
0100
0000
,
0001
0011
0001
0101
2200
0000
0300
0000
,
0001
0000
0000
0000
3001
0000
0000
0000
1000
0100
0010
0000
0011
0000
0001
0000
,
1000
1100
0010
0110
0202
0000
0003
0000
,
0010
0000
0000
0000
0310
0000
0000
0000
0100
0001
1000
0000
1001
0000
0010
0000
,
1000
1100
0001
0101
0022
0000
0030
0000
,
0103
0000
0000
0000
0001
0100
0010
1000
0100
0010
0001
0000
0101
0000
0010
0000
,
0100
0110
0010
1010
1000
1001
0001
0000
,
0220
0000
0000
0000
,
0000
0000
0300
2030
,
3001
1000
0001
1000
0020
0000
0000
0000
0130
0001
0010
0100
1000
0000
1010
0000
,
0001
0100
1000
0000
0011
0000
1001
0000
0110
0000
0000
0100
0001
1000
0010
1000
,
0001
0000
0000
0001
1000
0100
0010
0001
0000
0010
0020
0000
0200
0000
0000
0000
,
0000
0000
0000
0000
0000
0000
0000
0330
,
2002
0000
0000
0000
3003
0000
0000
0000
1000
0100
1000
0100
1000
0000
0000
0000
,
2002
0000
0000
0000
3003
0000
0000
0000
0001
0010
0001
0010
0001
0000
0000
0000
,
1000
0100
0010
0001
0100
0010
1000
0001
,
0100
0000
0100
0000
0010
0000
0010
0000
1000
0001
0100
0001
1000
0000
0000
0000
,
0110
0000
0010
1000
0100
0000
1000
0001
,
0010
0000
0001
0100
0001
0000
0010
0100
,
1000
0000
0010
1000
0001
0000
1000
0100
,
1000
0000
0010
1000
0001
0000
0010
0100
,
0010
0000
0001
0100
0010
0000
1000
0100
,
0010
0000
0100
0010
0100
0000
1000
0001
,
0010
0001
0100
0010
1000
0000
0001
0000
,
1001
0000
0000
1100
0000
0000
0101
0000
,
1001
0000
0001
1000
0100
0000
1000
0010
,
0100
0000
0010
1000
0001
0000
0010
0001
,
0100
0000
0001
0010
1000
0000
0001
0100
,
1000
0000
0010
1000
0100
0000
1000
0010
,
1000
0000
0001
0010
0001
0000
0100
0010
,
1000
0000
0001
1000
0100
0000
0010
0001
,
0100
0010
0100
0010
1000
0001
1000
0001
,
0020
0000
0000
0000
0032
0000
0000
0000
0203
0000
0000
0000
,
0301
0000
1000
0000
0100
0000
1000
0000
0001
0000
0100
0000
,
0010
0000
1000
0000
0100
0000
0010
0000
0000
0000
0000
0000
,
0001
0000
1000
0000
0010
0000
1000
0000
0001
0000
0010
0000
,
0001
0000
0100
0000
0010
0000
0100
0000
0000
0000
0000
0000
,
0001
0000
1000
0000
0100
0000
0010
0000
0001
0000
0100
0000
,
0010
0000
1000
0000
0001
0000
1000
0000
0100
0000
0001
0000
,
0100
0000
1000
0000
0010
0000
0100
0000
0001
0000
1000
0000
,
0001
0010
0001
0010
0001
0000
0000
0000
,
1000
0010
1000
0010
0100
0010
0100
0010
,
0100
0001
0100
0001
1000
0001
1000
0001
,
0010
0001
0010
0001
0100
0010
0100
0010
,
0100
0001
0100
0001
1000
0001
1000
0001
,
1000
0100
0010
0001
1000
0010
0100
0001
,
0100
0010
0100
0010
1000
0001
1000
0001
,
0010
0001
0100
0001
1000
0100
1000
0010
,
1000
0001
1000
0100
0010
0001
0010
0100
,
2000
0010
0001
0100
,
0010
0000
0100
0000
0010
0000
0001
0001
,
3001
1100
1000
0101
,
0010
0000
0000
0000
0100
0000
0000
0000
1001
0000
0000
0000
0010
0000
1000
0001
,
1000
0100
0010
0001
,
0100
0010
1000
0001
,
0011
1100
0011
1100
,
1010
0101
1010
0101
,
1000
0100
0010
0001
1000
0010
0100
0001
,
1000
0000
0001
0000
0010
0001
0100
0000
0000
0000
0000
0000
0000
0000
0000
0000
;

//---------------dance-single - ----------------
#NOTES:
     dance-single:
     :
     Medium:
     13:
     0.672635,1.121044,0.280855,0.198250,0.206511,570.000000,536.000000,34.000000,24.000000,0.000000,0.000000,0.672635,1.121044,0.280855,0.198250,0.206511,570.000000,536.000000,34.000000,24.000000,0.000000,0.000000:
0000
0000
0000
0000
,
0000
0000
0000
0000
,
0000
0000
0000
0000
,
0000
0000
0000
0000
,
0000
0000
0000
0000
,
0000
0000
0000
0000
,
0000
0000
0000
0000
,
0000
0000
0000
0000
,
0000
0000
0000
0000
,
2002
0000
3003
0000
0010
1000
0010
0000
,
2002
0000
3003
0000
0100
0001
0100
0000
,
0001
0000
0001
0000
1000
0100
0010
0000
,
0100
0000
0100
0000
1000
0001
0100
0000
,
0001
0100
0001
0000
1000
0100
1000
0000
,
0001
0010
0001
0000
1000
0010
1000
0000
,
0010
1000
0010
1000
0001
0100
0001
0100
,
0001
0010
0100
1000
0001
0100
0010
1000
,
0010
0000
0000
0010
0000
0000
0020
0000
,
0000
0000
0000
0130
,
0001
0010
0100
1000
,
0010
0100
0001
0000
,
1000
0001
0010
0001
,
0100
0010
1000
0000
,
0001
1000
0001
0010
,
0100
1000
0010
1000
,
0001
0100
0001
0010
,
0100
1000
0010
0000
,
1000
0010
0100
0001
,
0010
0100
1000
0000
,
0001
1000
0100
1000
,
0010
1000
0100
0000
,
1000
0001
0010
0100
,
1000
0010
0001
0000
,
0011
0000
1100
0000
,
0010
0000
0000
0000
0010
0000
0000
0000
0010
0000
0000
0000
,
0010
0000
0000
0000
1000
0000
0100
0000
0000
0000
0100
0000
,
0010
0000
0000
0000
0010
0000
0001
0000
0000
0000
0000
0000
,
1000
0000
0000
0000
0001
0000
0100
0000
0000
0000
0100
0000
,
0010
0000
0000
0000
0010
0000
1000
0000
0000
0000
0000
0000
,
0001
0000
0000
0000
0100
0000
0001
0000
0000
0000
0010
0000
,
0100
0000
0000
0000
1000
0000
0100
0000
0000
0000
0000
0000
,
1000
0000
0000
0000
0001
0000
0010
0000
0000
0000
0000
0000
,
0001
0000
0000
0000
1000
0000
0100
0000
0000
0000
0000
0000
,
1000
0000
0000
0000
1000
0000
0100
0000
0000
0000
0100
0000
,
0010
0000
0000
0000
0010
0000
0001
0000
0000
0000
0001
0000
,
0100
0000
0000
0000
0100
0000
0010
0000
0000
0000
0010
0000
,
1000
0000
0000
0000
1000
0000
0001
0000
0000
0000
0001
0000
,
0010
0000
0000
0000
0001
0000
0100
0000
0000
0000
0001
0000
,
1000
0000
0000
0000
0100
0000
0010
0000
0000
0000
0001
0000
,
0100
0000
0000
0000
0010
0000
1000
0000
0000
0000
0010
0000
,
1000
0000
0000
0000
0010
0000
0100
0000
0000
0000
0000
0000
,
1001
0010
0100
1000
0010
0100
0001
1000
,
1100
0100
0010
0001
0101
0010
1000
0001
,
0011
0010
0001
0100
0010
1000
0100
1000
,
1010
0010
0100
0001
0101
1000
0100
0010
,
0110
0000
0100
0010
0001
0010
1000
0000
,
0010
1000
0100
1000
0010
0100
0001
0000
,
1000
0001
0010
0100
1000
0010
0001
0000
,
0100
0001
0010
0001
1000
0010
0100
0000
,
0001
1000
0010
1000
0100
0010
0001
0000
,
0100
0010
1000
0002
0000
1003
0001
0100
,
0001
0010
0100
1000
0010
0100
0001
0000
,
1000
0000
0010
0000
0100
0000
0010
0000
1000
0000
0100
0000
0010
0001
0010
0000
,
1001
0000
0100
0001
0010
0100
1000
0010
,
1000
0001
0010
0100
1000
0000
0010
1000
,
0100
0000
0010
0000
0001
0000
0100
0000
0010
0000
1000
0000
0001
0000
0000
0010
,
0000
0100
1000
0000
1001
0001
0020
0000
,
0031
0100
0001
0000
1000
0100
2000
0000
,
3010
0100
0010
0000
1000
0001
0010
0001
,
0100
0010
1000
0100
0010
0100
1000
0010
,
0001
1000
0100
0010
0001
0000
0110
0000
,
0000
2010
0000
0001
0002
0000
3000
0000
,
0100
1000
0103
0101
,
0000
1002
0000
0100
0200
0000
0003
0000
,
0010
0001
0310
1010
,
0000
1200
0000
1000
2000
0000
0300
0000
,
0001
0010
3100
1001
,
0000
0011
0000
0101
0000
1100
0000
0000
,
0220
0000
0000
0000
,
0000
0000
0300
0032
,
0103
0010
0100
0000
0020
0000
0000
0000
1030
0000
0010
0000
1000
0000
0100
0000
,
1000
0001
0010
0100
1100
0000
0001
1000
,
0101
0000
0000
0000
0010
0000
1000
0100
0000
1000
0002
0000
0200
0000
0000
0000
,
0000
0000
0000
0000
0000
0000
0000
0303
,
2002
0000
3003
0000
1000
0100
1000
0000
,
2002
0000
3003
0000
0001
0010
0001
0000
,
1000
0001
0010
0100
1000
0010
0100
0001
,
0010
0000
0100
0000
1000
0000
0000
0000
0001
1000
0001
1000
0001
0000
0000
0000
,
1000
0001
0010
0100
,
1000
0010
1000
0000
,
0001
1000
0010
1000
,
0100
0010
0001
0000
,
0010
0100
1000
0010
,
0001
0010
1000
0100
,
0010
0100
1000
0000
,
0001
0000
0000
0001
0000
0000
0001
0000
,
0010
0001
0100
0010
,
1000
0100
0001
0000
,
1000
0010
0001
0100
,
0010
0001
0010
0000
,
1000
0001
0010
0001
,
0100
0010
1000
0100
,
0010
0001
1000
0000
,
0001
0000
0000
0000
0001
0000
0000
0000
0001
0000
0000
0000
,
1000
0000
0000
0000
0010
0000
1000
0000
0000
0000
0010
0000
,
1000
0000
0000
0000
0010
0000
1000
0000
0000
0000
0000
0000
,
0001
0000
0000
0000
0100
0000
0001
0000
0000
0000
0100
0000
,
0001
0000
0000
0000
0100
0000
0001
0000
0000
0000
0000
0000
,
0100
0000
0000
0000
0100
0000
0010
0000
0000
0000
0010
0000
,
1000
0000
0000
0000
1000
0000
0001
0000
0000
0000
0001
0000
,
1000
0000
0000
0000
1000
0000
0001
0000
0000
0000
0001
0000
,
0100
0000
0000
0000
0100
0000
0010
0000
0000
0000
0000
0000
,
1000
0100
0010
0001
,
1000
0010
0100
0001
,
0100
0001
0010
0100
,
1000
0001
1000
0010
,
0100
0010
0100
0010
,
1000
0001
1000
0001
,
0010
0100
0010
0001
,
1000
0001
1000
0100
,
0010
0001
0101
1000
,
0010
0100
0110
0001
,
0010
0001
1100
0100
,
0010
1000
0100
0001
,
1000
0010
1001
0100
,
0010
1000
0011
0100
,
1000
0001
1010
0100
,
0001
1000
0100
0010
,
0001
0100
0001
0000
1000
0100
1000
0000
,
0010
0100
0010
0000
0000
0000
0000
0000
;

//---------------dance-single - ----------------
#NOTES:
     dance-single:
     :
     Easy:
     9:
     0.397681,0.640597,0.313897,0.099125,0.000000,337.000000,299.000000,38.000000,12.000000,0.000000,0.000000,0.397681,0.640597,0.313897,0.099125,0.000000,337.000000,299.000000,38.000000,12.000000,0.000000,0.000000:
// measure 0
0000
0000
0000
0000
,  // measure 1
0000
0000
0000
0000
,  // measure 2
0000
0000
0000
0000
,  // measure 3
0000
0000
0000
0000
,  // measure 4
0000
0000
0000
0000
,  // measure 5
0000
0000
0000
0000
,  // measure 6
0000
0000
0000
0000
,  // measure 7
0000
0000
0000
0000
,  // measure 8
0000
0000
0000
0000
,  // measure 9
1001
0000
0010
0000
,  // measure 10
1001
0000
0100
0000
,  // measure 11
0110
0000
0001
0000
,  // measure 12
0110
0000
1000
0000
,  // measure 13
0001
0010
0100
1000
,  // measure 14
0001
0100
0010
1000
,  // measure 15
0010
1000
0100
0001
,  // measure 16
0010
0001
0100
1000
,  // measure 17
0010
0000
0000
0010
0000
0000
0020
0000
,  // measure 18
0000
0000
0000
0130
,  // measure 19
0010
0000
1000
0000
,  // measure 20
1100
0000
0001
0000
,  // measure 21
0100
0000
0001
0000
,  // measure 22
1010
0000
1000
0000
,  // measure 23
0010
0000
0100
0000
,  // measure 24
0011
0000
0010
0000
,  // measure 25
0101
0000
1100
0000
,  // measure 26
0101
0000
0010
0000
,  // measure 27
1000
0000
0001
0000
,  // measure 28
1001
0000
0010
0000
,  // measure 29
0100
0000
0001
0000
,  // measure 30
0101
0000
1000
0000
,  // measure 31
0010
0000
0100
0000
,  // measure 32
1010
0000
0001
0000
,  // measure 33
1001
0000
0110
0000
,  // measure 34
1001
0000
0000
0000
,  // measure 35
0001
0000
0001
0000
,  // measure 36
1000
0000
1000
0000
,  // measure 37
0001
0000
1000
0000
,  // measure 38
0100
0000
0010
0000
,  // measure 39
0100
0000
0100
0000
,  // measure 40
0010
0000
0010
0000
,  // measure 41
0100
0000
0001
0000
,  // measure 42
0010
0000
1000
0000
,  // measure 43
0001
0000
0001
0000
,  // measure 44
1000
0000
1000
0000
,  // measure 45
0010
0000
0010
0000
,  // measure 46
0100
0000
0100
0000
,  // measure 47
0001
0000
1000
0000
,  // measure 48
0010
0000
0100
0000
,  // measure 49
1010
0000
0011
0000
,  // measure 50
1010
0000
0001
0000
,  // measure 51
1001
0100
1000
0100
,  // measure 52
0001
0010
0100
1000
,  // measure 53
0010
0001
1000
0100
,  // measure 54
0010
0010
0010
0010
,  // measure 55
0002
0000
0100
1003
,  // measure 56
0010
1000
0100
0010
,  // measure 57
0001
0100
0001
1000
,  // measure 58
0010
1000
0100
0010
,  // measure 59
0002
0000
2000
3003
,  // measure 60
0100
0010
0100
1000
,  // measure 61
0010
1000
0001
0100
,  // measure 62
0001
0000
1000
0000
0010
0100
0010
0100
,  // measure 63
0110
0010
1000
0001
,  // measure 64
0100
0010
1000
0100
,  // measure 65
0010
0100
0001
1000
,  // measure 66
0001
1001
0000
0020
,  // measure 67
0000
0130
0000
0020
,  // measure 68
0000
0130
0000
0002
,  // measure 69
0000
1003
0001
0200
,  // measure 70
0010
0010
0310
0110
,  // measure 71
0000
1000
0000
0001
0100
0000
0000
0000
,  // measure 72
0000
0000
0000
1001
,  // measure 73
0000
0010
0000
1000
0001
0000
0000
0000
,  // measure 74
0000
0000
0000
0011
,  // measure 75
0000
0100
0000
1000
0010
0000
0000
0000
,  // measure 76
0000
0000
0000
1001
,  // measure 77
0000
0001
0000
0010
0000
0100
0000
0000
,  // measure 78
0220
0000
0000
0000
,  // measure 79
0000
0000
0300
0230
,  // measure 80
0310
1001
0001
1000
,  // measure 81
0010
1000
0100
0010
,  // measure 82
0001
0100
0010
0200
,  // measure 83
0000
0000
0000
0000
0000
0000
0000
0300
,  // measure 84
1001
0000
1000
0000
,  // measure 85
1001
0000
0001
0000
,  // measure 86
0100
0100
0100
0100
,  // measure 87
0001
0000
1000
0000
0001
1000
0001
0000
,  // measure 88
1000
0000
0010
0000
,  // measure 89
0001
0000
1000
0000
,  // measure 90
0010
0000
0100
0000
,  // measure 91
0010
0000
0001
0000
,  // measure 92
1000
0000
0001
0000
,  // measure 93
0100
0000
0010
0000
,  // measure 94
0110
0000
1001
0000
,  // measure 95
0110
0000
0000
0000
,  // measure 96
0100
0000
0001
0000
,  // measure 97
0010
0000
0001
0000
,  // measure 98
0100
0000
1000
0000
,  // measure 99
0001
0000
0010
0000
,  // measure 100
0001
0000
0100
0000
,  // measure 101
1000
0000
0010
0000
,  // measure 102
1100
0000
0011
0000
,  // measure 103
1100
0000
0000
0000
,  // measure 104
0010
0000
0010
0000
,  // measure 105
0100
0000
0100
0000
,  // measure 106
0001
0000
0001
0000
,  // measure 107
1000
0000
1000
0000
,  // measure 108
0001
0000
0010
0000
,  // measure 109
0100
0000
1000
0000
,  // measure 110
0010
0000
0100
0000
,  // measure 111
0001
0000
1000
0000
,  // measure 112
0001
0000
0001
0000
,  // measure 113
1000
0100
1000
0000
,  // measure 114
0010
0000
0010
0000
,  // measure 115
1000
0001
1000
0000
,  // measure 116
0001
0010
0001
0000
,  // measure 117
1000
0010
1000
0000
,  // measure 118
0001
0100
0001
0000
,  // measure 119
1000
0100
1000
0000
,  // measure 120
0010
0000
1001
0000
,  // measure 121
0001
0100
1000
0000
,  // measure 122
0001
0000
0110
0000
,  // measure 123
0100
0010
1000
0000
,  // measure 124
0001
0000
0010
0000
,  // measure 125
0001
1000
0100
0000
,  // measure 126
1000
1000
1000
0000
,  // measure 127
0001
0001
0001
0000
,  // measure 128
0100
0000
0010
0000
,  // measure 129
0100
0001
0000
0000
;

//---------------dance-single - ----------------
#NOTES:
     dance-single:
     :
     Beginner:
     4:
     0.185270,0.320298,0.165209,0.000000,0.000000,157.000000,137.000000,20.000000,0.000000,0.000000,0.000000,0.185270,0.320298,0.165209,0.000000,0.000000,157.000000,137.000000,20.000000,0.000000,0.000000,0.000000:
0000
0000
0000
0000
,
0000
0000
0000
0000
,
0000
0000
0000
0000
,
0000
0000
0000
0000
,
0000
0000
0000
0000
,
0000
0000
0000
0000
,
0000
0000
0000
0000
,
0000
0000
0000
0000
,
0000
0000
0000
0000
,
1001
0000
0000
0000
,
1001
0000
0000
0000
,
0110
0000
0000
0000
,
0110
0000
0000
0000
,
0001
0000
0000
0000
,
0010
0000
0000
0000
,
0100
0000
0000
0000
,
1000
0000
0000
0000
,
0010
0000
0000
0000
,
0000
0000
0000
0000
,
0001
0000
0000
0000
,
0001
0000
0000
0000
,
0001
0000
0000
0000
,
0000
0000
0000
0000
,
1000
0000
0000
0000
,
1000
0000
0000
0000
,
1000
0000
0000
0000
,
0000
0000
0000
0000
,
0010
0000
0000
0000
,
0010
0000
0000
0000
,
0010
0000
0000
0000
,
0000
0000
0000
0000
,
0100
0000
0000
0000
,
0100
0000
0000
0000
,
0100
0000
0000
0000
,
0000
0000
0000
0000
,
0010
0000
0010
0000
,
0010
0000
0000
0000
,
0100
0000
0000
0000
,
0100
0000
0000
0000
,
0010
0000
0010
0000
,
0010
0000
0000
0000
,
1000
0000
0000
0000
,
1000
0000
0000
0000
,
0001
0000
0001
0000
,
0001
0000
0000
0000
,
1000
0000
0000
0000
,
1000
0000
0000
0000
,
0001
0000
0001
0000
,
0001
0000
0000
0000
,
0100
0000
0000
0000
,
0100
0000
0000
0000
,
0010
0000
1000
0000
,
0100
0000
0001
0000
,
1000
0000
0001
0000
,
0100
0000
0010
0000
,
1001
0000
0000
0000
,
0100
0000
0000
0000
,
0010
0000
1000
0000
,
0001
0000
0000
0000
,
0010
0000
0100
0000
,
0001
0000
0100
0000
,
1000
0000
0000
0000
,
0001
0001
0001
0000
,
0110
0000
0000
0100
,
0000
0000
0000
0001
,
0000
1000
0000
0001
,
0000
0000
0000
0010
,
0000
0000
0000
0010
,
0000
0000
0000
1000
,
0000
0001
0000
0100
,
0000
0000
0000
0110
,
0000
0000
0110
0000
,
0000
0000
0000
1001
,
0000
0000
1001
0000
,
0000
0000
0000
0110
,
0000
0000
0110
0000
,
0000
0000
0000
1001
,
0000
0000
0000
0000
,
1001
0000
0000
0000
,
0000
0000
0000
1000
,
0000
0000
0001
0000
,
0100
0000
0001
0000
,
1000
0000
0010
0010
,
0000
0000
0000
0000
,
1001
0000
0000
0000
,
1001
0000
0000
0000
,
0110
0000
0000
0000
,
0110
0000
0000
0000
,
1000
0000
0000
0000
,
1000
0000
0000
0000
,
1000
0000
0000
0000
,
0100
0000
0000
0000
,
0001
0000
0000
0000
,
0001
0000
0000
0000
,
0001
0000
0000
0000
,
0000
0000
0000
0000
,
0010
0000
0000
0000
,
0010
0000
0000
0000
,
0010
0000
0000
0000
,
0001
0000
0000
0000
,
0100
0000
0000
0000
,
0100
0000
0000
0000
,
0100
0000
0000
0000
,
0000
0000
0000
0000
,
1000
0000
1000
0000
,
1000
0000
0000
0000
,
0010
0000
0000
0000
,
0100
0000
0000
0000
,
0001
0000
0001
0000
,
0001
0000
0000
0000
,
0100
0000
0000
0000
,
0010
0000
0000
0000
,
1000
0000
1000
0000
,
1000
0000
0000
0000
,
0100
0000
0100
0000
,
0100
0000
0000
0000
,
0010
0000
0010
0000
,
0010
0000
0000
0000
,
0001
0000
0001
0000
,
0001
0000
0000
0000
,
0010
0000
0000
0000
,
0100
0000
0000
0000
,
0010
0000
0000
0000
,
0100
0000
0000
0000
,
0001
0000
0000
0000
,
1000
0000
0000
0000
,
0001
0000
0000
0000
,
1000
0000
0000
0000
,
0110
0000
0000
0000
,
0000
1001
0000
0000
;
