#TITLE:Xperanza;
#SUBTITLE:;
#ARTIST:aran;
#TITLETRANSLIT:;
#SUBTITLETRANSLIT:;
#ARTISTTRANSLIT:;
#GENRE:;
#CREDIT:;
#BANNER:Xperanza.png;
#BACKGROUND:Xperanza-bg.png;
#LYRICSPATH:;
#CDTITLE:;
#MUSIC:Xperanza.ogg;
#OFFSET:1.333333;
#SAMPLESTART:68.321999;
#SAMPLELENGTH:20.000000;
#LASTBEATHINT:0.555111;
#SELECTABLE:YES;
#DISPLAYBPM:100.000000:400.000000;
#BPMS:0.000000=99.919998
,20.000000=199.839996
,52.000000=399.679993
,82.000000=199.839996
,83.000000=99.919998
,107.000000=399.679993
,139.000000=199.839996
,171.000000=99.919998
,179.000000=199.839996
,211.000000=399.679993
,371.000000=99.919998
,379.000000=199.839996
,395.000000=399.679993
;
#STOPS:
;
#BGCHANGES:0.000=Xperanza.avi=1.000=0=0=0=StretchNoLoop====,
99999=-nosongbg-=1.000=0=0=0 // don't automatically add -songbackground-
;
#KEYSOUNDS:;
#ATTACKS:;

//---------------dance-single - ----------------
#NOTES:
     dance-single:
     :
     Hard:
     18:
     1.075270,2.132483,0.978577,0.440360,0.456669,923.000000,803.000000,120.000000,54.000000,0.000000,0.000000,1.075270,2.132483,0.978577,0.440360,0.456669,923.000000,803.000000,120.000000,54.000000,0.000000,0.000000:
// measure 0
0000
0000
0000
0000
,  // measure 1
0000
0000
0000
0000
,  // measure 2
0000
0000
0000
0000
,  // measure 3
1010
0000
0101
0000
0000
0010
0010
0010
0000
0101
0000
0110
0000
1010
0000
0000
,  // measure 4
1002
0000
0103
0000
2001
0000
3100
0100
0000
1000
1000
1000
0000
0001
0011
0000
,  // measure 5
1001
0000
0110
0000
0000
0001
0001
0001
,  // measure 6
0000
0011
0000
0110
0000
1100
0000
1020
,  // measure 7
0000
0000
0130
0010
1000
1000
0001
0101
,  // measure 8
0000
1001
0000
0210
0000
0301
1001
0000
,  // measure 9
1100
0000
0011
0000
0001
0010
0100
1000
,  // measure 10
0010
0100
0001
1000
0100
0010
0001
0000
,  // measure 11
1000
0001
1000
0100
0010
0001
0100
0010
,  // measure 12
1000
0100
1000
0100
1000
0001
1000
0001
1000
0010
1000
0010
0100
0000
0000
0000
,  // measure 13
1001
0100
0010
1000
,  // measure 14
1010
1000
0001
0010
,  // measure 15
0011
0001
0100
0010
,  // measure 16
0110
0100
0001
1000
,  // measure 17
0001
0010
0001
0010
0100
1000
0100
1000
,  // measure 18
0010
0100
0010
0100
0001
1000
0001
1000
,  // measure 19
0001
0100
0010
1000
0100
0010
0001
1000
,  // measure 20
0010
1000
0100
0010
0200
0000
1300
0101
,  // measure 21
0001
0010
0100
1000
0010
0100
0100
0100
0001
1000
1000
1000
0010
0100
1001
0000
,  // measure 22
0010
1000
0001
0100
0001
0010
0010
0010
0100
1000
1000
1000
0100
0100
1100
0010
,  // measure 23
0000
0010
0001
0100
0001
0001
1000
1000
0010
0010
0100
0100
0110
0010
1010
1000
,  // measure 24
1100
0000
1000
0000
0100
0000
0010
0000
0001
0000
1000
0100
1000
0000
0010
0000
0100
0001
0100
0000
0110
0000
0000
0000
1001
0000
0001
0000
0011
0000
0000
0000
,  // measure 25
0100
1000
0001
0010
0001
0100
0100
0100
0010
1000
1000
1000
0100
1000
1001
0000
,  // measure 26
0010
0100
0001
1000
0001
0001
0100
0100
0010
0010
1000
1000
1010
0000
0000
0000
,  // measure 27
0010
0000
1001
0000
0000
0000
1000
0100
,  // measure 28
0010
0001
0010
0100
1000
0000
0101
0000
,  // measure 29
0000
0000
0001
0010
0100
1000
0010
0000
,  // measure 30
0100
0110
0000
1000
,  // measure 31
1000
0100
0100
0010
,  // measure 32
0010
0000
0001
0000
0001
0000
0100
0001
,  // measure 33
0100
0010
1000
0100
0010
0001
1000
0001
,  // measure 34
0010
0001
0010
0100
1000
0010
0200
0000
,  // measure 35
0301
0000
0100
0010
1000
0001
0010
0100
,  // measure 36
0010
0001
0100
0010
1000
0100
0002
0000
,  // measure 37
0103
1000
0001
1000
0100
0010
0001
0100
,  // measure 38
0010
1000
0100
0100
0100
0000
0101
0000
,  // measure 39
1100
0000
0010
0100
0001
1000
0100
0010
,  // measure 40
0100
0000
1000
0000
0001
0000
0100
0000
0010
0000
0000
0000
0020
1000
0000
0000
,  // measure 41
0130
0000
0000
0000
0100
0001
0000
0010
0001
0000
1000
0000
0010
0000
1000
0000
,  // measure 42
0100
0000
0010
0000
0001
0000
0100
0000
1000
0000
0000
0000
2100
0000
0000
0100
,  // measure 43
3100
0000
0000
0000
0102
0000
0000
0100
0103
0000
0000
0000
0120
0000
0000
0100
,  // measure 44
0130
0000
0000
0000
0000
0000
0000
0000
0201
0000
0000
0000
0000
0000
0000
0000
0301
1000
0010
1000
0001
0000
0100
0000
0101
0000
0000
0000
0001
0000
0000
0000
,  // measure 45
1001
0000
0000
0000
1000
0010
0100
0001
0010
0100
1000
0000
1010
0000
0000
0000
,  // measure 46
0001
1000
0100
0010
0001
0000
1000
0000
1001
0000
0010
0000
0101
0000
0000
0000
,  // measure 47
0001
1000
0100
0010
0001
0000
0100
0000
0010
0000
1000
0000
1100
0000
0000
0000
,  // measure 48
1000
0100
0010
0001
0010
0000
0100
0000
1000
0000
0000
0000
0010
0000
0100
0001
,  // measure 49
0100
0000
0010
1000
0010
0000
1000
0000
0100
0000
0001
0000
0100
0000
1000
0001
,  // measure 50
1000
0000
0010
0100
0010
0000
1000
0000
0001
0000
0010
0000
0001
0000
1000
0100
,  // measure 51
1000
0000
0010
0100
0010
0000
1000
0000
0001
0000
0010
0000
0001
1000
0001
1000
,  // measure 52
0010
1000
0010
1000
0100
1000
0100
1000
0100
0000
0000
0000
1001
0000
0000
0000
,  // measure 53
1000
0100
0010
0011
,  // measure 54
0001
1000
0100
1100
,  // measure 55
1000
0010
0001
0101
,  // measure 56
0010
0000
0001
0000
0100
0000
0001
1000
,  // measure 57
0100
0001
0100
1000
0010
0100
0010
1000
,  // measure 58
0100
0001
0100
1000
0001
0010
0100
1000
,  // measure 59
0001
1000
0001
0100
1000
0100
0010
0100
,  // measure 60
0002
0100
0103
2001
,  // measure 61
3010
1010
1010
0120
,  // measure 62
0130
0000
0101
0000
0101
0000
0001
0010
,  // measure 63
0000
0010
0100
1000
0010
0000
0200
0000
,  // measure 64
0001
1000
0301
0201
,  // measure 65
0010
1000
0310
0101
,  // measure 66
1001
0000
2100
0000
3001
0000
0010
0001
,  // measure 67
0000
0001
1000
0100
0010
0000
0002
0000
,  // measure 68
0000
0000
1003
0001
0010
0100
0020
0000
,  // measure 69
0031
1001
0110
1002
,  // measure 70
1003
0000
1100
0000
0101
0000
0001
1000
,  // measure 71
0000
1000
0010
0100
0001
0000
0012
0000
,  // measure 72
0103
1001
1010
2100
,  // measure 73
3010
0000
1000
0001
0010
0001
0100
0000
,  // measure 74
0110
0000
2010
0000
3010
0000
1000
0001
,  // measure 75
0000
0001
0010
0000
0100
0000
1000
0010
,  // measure 76
0001
0010
1000
0100
0010
0001
0100
0000
,  // measure 77
0000
1100
1100
1010
,  // measure 78
0100
0000
0101
0000
0101
0000
0001
1000
,  // measure 79
0000
0001
0100
0010
1000
0100
0010
0000
,  // measure 80
0001
1001
0101
0011
,  // measure 81
0100
0000
0001
1000
0001
1000
0001
0000
,  // measure 82
0010
0000
1100
0000
0000
0000
1000
0001
,  // measure 83
0000
0010
0100
0000
1000
0000
0001
1000
,  // measure 84
0100
0001
0100
1000
0010
0100
0010
0000
,  // measure 85
1000
0100
1000
0000
0001
0100
0001
0000
,  // measure 86
0010
0100
1000
0001
,  // measure 87
0100
0010
0100
0000
0001
1000
0001
0000
,  // measure 88
0010
0100
1000
0100
,  // measure 89
1000
0001
1000
0000
0010
1000
0010
0000
,  // measure 90
0100
0000
0001
0000
0100
0000
0001
1000
,  // measure 91
0100
0010
0100
1000
0010
0100
0001
1000
,  // measure 92
0001
1000
0010
0100
0010
0100
0001
0101
,  // measure 93
0000
0100
0100
0100
0000
0110
0000
1010
0000
1100
0000
1002
0000
0000
1003
0001
,  // measure 94
0010
0010
0100
1100
0000
1001
0000
0012
0000
0103
1010
0000
0110
0000
0000
0000
,  // measure 95
1001
0000
0010
1000
0010
1000
0001
0100
,  // measure 96
0001
0000
0100
0000
0001
0000
0010
0000
0100
0000
1000
0000
0010
0100
0010
0100
,  // measure 97
0010
0100
0010
0100
0001
1000
0001
1000
0001
1000
0001
1000
0100
0000
0000
1100
,  // measure 98
0000
0000
1001
0000
0000
0101
0000
0000
1001
0000
1100
0000
0010
0000
0000
0000
,  // measure 99
0100
1001
0010
1000
,  // measure 100
0100
0100
0100
1000
,  // measure 101
1100
0001
0101
0100
,  // measure 102
0110
0010
1020
0230
,  // measure 103
0000
0000
0301
0100
0001
0100
0010
0000
,  // measure 104
1000
0100
1100
1000
,  // measure 105
1001
1000
1010
0100
,  // measure 106
0101
2001
3100
1100
,  // measure 107
0001
0011
0100
0010
,  // measure 108
1000
1000
1000
0001
,  // measure 109
0101
0100
0110
0010
,  // measure 110
1010
1000
0001
1002
,  // measure 111
0100
0010
0103
2001
,  // measure 112
0010
0000
0100
0000
3010
0000
1000
0100
,  // measure 113
1000
0100
1000
0010
1000
0010
0100
0010
,  // measure 114
0100
0010
0100
0001
0100
0001
0010
0000
,  // measure 115
0001
0100
0001
0000
0100
0010
1000
0000
,  // measure 116
0100
1000
0001
0000
1000
0000
0020
0000
,  // measure 117
0230
0302
2003
3002
,  // measure 118
0023
0230
2300
3020
,  // measure 119
1030
0001
1000
0000
0100
0000
2000
0000
,  // measure 120
3010
0100
0010
0000
1000
0000
0002
0000
,  // measure 121
2003
3200
1300
0002
,  // measure 122
2003
3020
0230
0302
,  // measure 123
0103
0010
1000
0100
,  // measure 124
1000
0001
0012
0013
,  // measure 125
0001
0101
0100
0010
,  // measure 126
1000
0100
1001
0010
,  // measure 127
1000
0100
0010
0000
0100
0010
0001
0000
,  // measure 128
1000
0001
0000
2000
,  // measure 129
3200
0320
0032
0000
,  // measure 130
0000
0000
0000
0003
;

//---------------dance-single - ----------------
#NOTES:
     dance-single:
     :
     Medium:
     14:
     0.722283,1.599362,0.391431,0.685004,0.224257,620.000000,572.000000,48.000000,84.000000,0.000000,0.000000,0.722283,1.599362,0.391431,0.685004,0.224257,620.000000,572.000000,48.000000,84.000000,0.000000,0.000000:
0000
0000
0000
0000
,
0000
0000
0000
0000
,
0000
0000
0000
0000
,
1010
0000
0101
0000
0000
0010
0100
0010
0000
2000
0000
3002
0000
0103
0000
0000
,
0020
0000
0130
0000
0020
0000
1030
0200
0000
1300
0001
0100
0000
0001
1000
0000
,
1100
0000
0011
0000
0000
0100
0010
0100
,
0000
0002
0000
0023
0000
0230
0000
2300
,
0000
0000
3001
0100
0001
0100
0010
2000
,
0000
3200
0000
2300
0000
3001
1000
0000
,
1001
0000
0110
0000
1000
0100
0001
0000
,
1000
0010
0001
0000
0100
0010
1000
0000
,
0001
0100
0010
0000
1000
0100
0010
0001
,
0100
0010
1000
0010
0100
0001
0010
0000
,
1001
0000
0100
0010
,
1010
0000
1000
0001
,
0101
0000
0001
0010
,
0110
0000
0100
1000
,
0010
0100
0010
0100
,
0001
1000
0001
1000
,
0001
0010
0100
1000
,
0010
0000
0100
0000
0020
0000
1030
1010
,
0001
0100
0010
0000
1000
0100
1000
0100
0010
0001
0010
0001
0100
0000
1001
0000
,
0010
1000
0001
0000
0100
0001
0100
0001
1000
0010
1000
0010
0100
0000
0101
0000
,
0001
0010
1000
0000
0001
0010
0100
1000
0100
0010
0001
0000
1002
0000
0203
0000
,
0320
0000
1030
0100
1000
0001
1000
0001
0010
0100
1000
0000
0010
0000
1100
0000
,
1000
0100
0001
0000
1000
0001
0100
0010
1000
0100
0010
0001
0100
0000
0110
0000
,
0010
1000
0001
0000
0100
0001
0010
0001
1000
0010
1000
0100
1000
0000
0000
0000
,
0001
1000
0000
0010
,
1000
0100
0010
0001
,
0000
0100
0010
1000
,
0001
0010
0100
1000
,
0001
1000
0001
0100
,
0010
0100
0010
1000
,
0100
1000
0001
0100
,
0010
1000
0000
1100
,
0101
0000
0000
0001
1000
0001
0000
2000
,
0000
3020
0000
0230
0000
0302
0000
0000
,
1003
0100
1000
0100
0010
0002
0000
0203
,
0000
0320
0000
1030
0010
0000
1010
0000
,
0011
0000
0000
0001
0100
0001
0000
2000
,
0000
3200
0000
0310
0001
0000
2000
0000
,
3001
0000
2000
0000
3001
0020
0000
0031
,
0100
0000
0001
0000
0000
0000
1000
0000
0100
0000
1000
0000
0020
0000
0000
0100
,
0130
0000
0000
0000
0002
0000
0000
0100
0103
0000
0000
0000
2000
0000
0000
0100
,
3100
0000
0000
0000
0200
0000
0000
0000
1300
0001
1000
0001
0100
0000
0010
0000
,
0100
0000
0001
0010
0100
1000
0010
0000
,
1000
0001
1000
0100
0010
0001
0100
0010
,
1000
0010
1000
0100
0010
0000
0001
1000
,
0001
0100
0010
1000
0100
0000
0001
0010
,
0001
0100
1000
0001
0100
0000
0010
1000
,
0100
1000
0001
0010
1000
0000
0001
0100
,
0010
1000
0100
0001
0010
0000
0001
0100
,
1000
0100
0010
0100
0001
0000
1001
0000
,
0000
1000
0010
0110
,
0000
0100
0001
0011
,
0000
0100
1000
1100
,
0000
0001
0010
0001
,
0100
0001
0100
0010
,
1000
0010
1000
0001
,
0010
0100
1000
0110
,
0000
1001
0000
0020
,
0000
1000
1000
2030
,
0000
0001
0001
3002
,
0000
0203
0000
0000
0320
0000
2030
0000
,
0000
0100
0100
3200
,
0000
1300
0001
0100
,
0100
0200
0000
0320
,
0000
0230
0000
0000
0302
0000
2003
0000
,
0000
0000
3001
1000
0001
1000
0002
0000
,
0000
1000
1000
2003
,
0000
0010
0010
3020
,
0000
2030
0000
0000
3002
0000
0203
0000
,
0000
0001
0001
0302
,
0000
0013
0001
1000
,
1000
2000
0000
3020
,
0000
2030
0000
0000
3002
0000
0203
0000
,
0000
0000
0310
0100
0010
0100
0020
0000
,
0000
1030
0100
2100
,
0000
3001
1000
0002
,
0000
0100
0000
0000
0013
0000
0210
0000
,
0000
0310
1000
1002
,
0000
1003
0001
0100
,
0001
2000
0000
3020
,
0000
0100
0000
0000
1030
0000
2010
0000
,
0000
3001
0100
0010
,
1000
0010
1000
0100
,
0010
0001
0000
0001
,
1000
0001
1000
0010
,
0100
0001
0000
1000
,
0010
1000
0010
0100
,
0001
0010
0000
0001
,
0100
0010
1000
0100
,
1000
0000
0001
0000
0000
0000
0110
1001
,
0000
1000
0100
0010
0000
0002
0000
0203
0000
0320
0000
2030
0000
0000
3001
1000
,
0001
1000
0010
0100
0000
0000
0000
0101
0000
1100
0000
0000
0011
0000
0000
0000
,
1010
0000
1000
0100
0001
0000
0100
0001
,
0010
0000
0001
0100
1000
0000
1100
0000
,
0101
0000
0000
0000
1100
0000
0000
0000
0101
0000
0000
0000
0020
0000
0000
0230
,
0000
0000
0302
0000
0000
2003
0000
0000
3100
0000
0100
0000
1100
0000
0000
0000
,
0000
0011
0000
1000
,
0100
0010
0001
0010
,
0001
0010
1000
0010
,
0001
0010
1000
0020
,
0000
0031
1000
0100
,
0001
0100
0020
0000
,
2030
0000
3002
0000
,
0103
0010
0000
0101
,
0000
1010
0000
0001
,
0100
0010
1000
0100
,
1000
0100
0001
0100
,
1000
0100
0001
0200
,
1000
1300
0000
0200
,
0001
0301
0000
0001
,
0010
0100
1000
0100
,
0010
0001
0000
1001
,
0000
0010
0100
0110
,
0000
0001
1000
0010
,
0100
0010
0100
0001
,
1000
0001
1000
1100
,
0000
1000
0001
0101
,
0000
0010
0100
0001
,
0001
0001
0000
1000
,
0100
0010
0001
0100
,
0000
0100
0010
1000
,
0001
0010
0020
0000
,
0031
0200
0300
0001
,
0010
0100
1000
0000
,
0010
0100
0000
0001
,
1000
0100
0000
2000
,
3200
0320
0032
0000
,
0000
0000
0000
0003
;

//---------------dance-single - ----------------
#NOTES:
     dance-single:
     :
     Easy:
     11:
     0.530063,0.852993,0.685004,0.309883,0.020387,455.000000,371.000000,84.000000,38.000000,0.000000,0.000000,0.530063,0.852993,0.685004,0.309883,0.020387,455.000000,371.000000,84.000000,38.000000,0.000000,0.000000:
0000
0000
0000
0000
,
0000
0000
0000
0000
,
0000
0000
0000
0000
,
0010
0200
0000
0001
0000
0001
0000
0301
,
1000
0100
1000
0100
0020
0000
0031
1000
,
0010
0200
0000
0001
,
0000
0001
0000
0301
,
2000
0010
0002
3003
,
0002
1000
0100
0013
,
1000
0002
0000
0100
,
0000
0100
0000
0103
,
0001
1000
0001
1000
,
0020
1000
0130
0000
,
1001
0000
0100
0000
,
1001
0000
0100
0000
,
1001
0000
0010
0000
,
1001
0000
0010
0000
,
1001
0000
0100
0000
,
0010
0000
0100
0000
,
0001
1000
0001
1000
,
0100
0000
0000
0000
1001
0000
1000
1000
,
0001
0001
0000
0100
0000
0010
0000
1000
,
0000
0001
0000
1000
0100
0010
0001
0001
,
1000
1000
0000
0010
0000
0100
0001
0010
,
0100
0000
1000
0000
0010
0000
0100
0010
0000
0100
0010
0000
1000
0000
0010
0000
,
0100
0001
0000
1000
0000
0001
0000
0010
,
0001
1000
0010
0100
0010
0100
0001
0000
,
0000
0101
0000
1000
,
0100
1000
0000
1010
,
0000
0010
0100
0010
,
0000
1010
0000
0010
,
0100
0010
0000
1000
,
0001
1000
0000
0002
,
0000
0023
0000
0230
,
0000
2300
0000
3010
,
1001
0000
0100
0000
,
1000
0100
0010
0002
,
0100
1000
0103
2000
,
0010
0001
3010
1000
,
0110
0000
0100
0000
,
0001
0010
0100
2000
,
3001
0020
0031
0200
,
0310
2000
3001
1002
,
0100
0010
1003
2001
,
0010
0000
0000
0000
0100
0000
0000
0000
3001
1000
0001
0000
0010
0000
0000
0000
,
0011
0000
0001
0100
0001
0000
0110
0000
,
0010
0000
1000
0001
1000
0000
1100
0000
,
0001
0000
0100
0010
0100
0000
0001
1000
,
0001
0000
1000
0001
1000
0000
1100
0000
,
1100
0000
1000
0100
0010
0000
0011
0000
,
0011
0000
0001
0100
0010
0000
1010
0000
,
1010
0000
1000
0001
0100
0000
0101
0000
,
0101
0000
0010
1000
0001
0000
1001
0000
,
0000
0100
0000
1001
,
0000
0100
0000
1001
,
0000
0010
0000
1001
,
0000
0010
0000
1001
,
0000
0100
0000
0010
,
0000
0100
0000
0001
,
1000
0001
1000
0100
,
0000
0010
0000
1001
,
0000
0010
0000
1001
,
0000
0010
0000
1100
,
0000
1100
0000
0101
,
0000
0101
0000
1001
,
0000
0010
0000
1000
,
0001
1000
0000
0011
,
0000
0011
0000
1010
,
0000
1010
0000
0110
,
0000
0001
0000
0110
,
0000
0001
0000
0101
,
0000
0101
0000
1010
,
0000
1010
0000
0110
,
0000
0001
0000
1000
,
0010
1000
0000
1100
,
0000
1100
0000
0011
,
0000
0011
0000
1000
,
0000
0001
0000
0101
,
0000
0001
0000
1100
,
0000
0110
0000
0011
,
0000
0110
0000
1100
,
0000
1000
0000
0010
,
0100
0001
0000
0101
,
0000
0110
0000
1010
,
0000
0110
0000
0101
,
0000
1000
0000
1100
,
0000
0001
0000
0110
,
0000
1001
0000
0110
,
0000
1001
0000
0110
,
0000
0001
0000
1000
,
0100
0010
0000
0011
,
0000
0101
0000
1100
,
0000
0000
1010
0000
0000
0000
0010
0200
,
0000
0001
0000
0001
0000
0301
2000
0100
,
3001
0000
0001
0010
0100
1000
1001
0000
,
0110
0010
0100
0001
,
0010
0100
1000
0002
,
2003
0000
0000
0000
3002
0000
0000
0000
2003
0000
0000
0000
3010
0000
0000
0010
,
0000
0000
0010
0000
0000
0010
0000
0000
0010
0000
0000
0000
1100
0000
0000
0000
,
0000
0011
0000
0100
,
0000
0010
0000
1000
,
0000
0010
0000
0001
,
0000
0010
0000
1000
,
0000
1000
0000
0001
,
0000
0001
0000
1000
,
0000
0100
0000
0010
,
0000
0001
0000
0110
,
0000
1001
0000
0010
,
0000
1000
0000
0100
,
0000
0010
0000
0001
,
0000
0100
0000
0010
,
0000
0010
0000
0100
,
0000
0100
0000
0001
,
0000
0010
0000
1000
,
0000
0100
0000
0010
,
0000
0100
0000
0101
,
0000
1010
0000
0002
,
0000
2003
0000
3020
,
0000
0230
0000
0301
,
0000
1000
0000
1100
,
0000
0011
0000
0200
,
0000
0320
0000
2030
,
0000
3002
0000
0013
,
0000
0001
0000
0100
,
0000
1000
0000
0010
,
0000
0100
0000
1001
,
0000
0110
0000
1000
,
0000
0001
0000
0100
,
0000
0010
0000
2000
,
3200
0320
0032
0000
,
0000
0000
0000
0003
;

//---------------dance-single - ----------------
#NOTES:
     dance-single:
     :
     Beginner:
     7:
     0.307553,0.533121,0.203870,0.008155,0.000000,264.000000,239.000000,25.000000,1.000000,0.000000,0.000000,0.307553,0.533121,0.203870,0.008155,0.000000,264.000000,239.000000,25.000000,1.000000,0.000000,0.000000:
0000
0000
0000
0000
,
0000
0000
0000
0000
,
0000
0000
0000
0000
,
0010
0010
0000
0000
0000
0100
0100
0000
,
0001
0001
0001
1000
,
0010
0010
0000
0000
,
0000
0100
0100
0000
,
0001
0000
0010
0000
,
0001
0000
0100
0000
,
1000
1000
0000
0000
,
0000
0001
0001
0000
,
0100
0000
0100
0000
,
0100
0000
0010
0000
,
1001
0000
0000
0000
,
1001
0000
0000
0000
,
1001
0000
0000
0000
,
1001
0000
0000
0000
,
1001
0000
0000
0000
,
0000
0000
0000
0000
,
0010
0000
0010
0000
,
0010
0000
0000
1001
,
0000
0000
0000
0100
0000
0100
0000
0100
,
0000
0000
0000
0010
0000
0010
1000
0000
,
1000
0000
0000
0001
0000
0100
0000
0010
,
0000
1000
0001
0100
,
0100
0010
0100
0001
,
0010
0100
1000
0010
,
0000
0010
0000
0000
,
0000
1000
0000
1000
,
0000
0000
0000
0001
,
0000
0001
0000
0100
,
0000
0100
0000
0100
,
0000
0000
0000
1000
,
0000
1000
0000
1000
,
0000
0000
0000
0001
,
0001
0000
0000
0100
,
0100
0100
0000
0010
,
0010
0010
0000
1000
,
0001
1000
0000
0100
,
0100
0000
0000
1000
,
1000
1000
0000
0010
,
0010
0010
0000
0100
,
0010
0100
0000
1001
,
0000
0000
0000
1001
,
0000
0000
0000
0001
,
0001
1000
1000
0010
,
0000
0100
0100
0010
,
0010
1000
1000
0001
,
0000
0100
0100
0001
,
0001
0001
0000
1000
,
1000
1000
0000
0010
,
0010
0010
0000
0100
,
0100
0100
0000
1001
,
0000
0000
0000
1001
,
0000
0000
0000
1001
,
0000
0000
0000
1001
,
0000
0000
0000
1001
,
0000
0000
0000
0000
,
0000
0000
0000
0010
,
0000
0010
0000
0010
,
0000
0000
0000
1001
,
0000
0000
0000
1001
,
0000
0000
0000
0100
,
0000
0100
0000
0100
,
0000
0000
0000
0001
,
0000
0001
0000
0001
,
0000
0000
0000
1000
,
0000
1000
0000
1000
,
0000
0000
0000
1001
,
0000
0000
0000
1001
,
0000
0000
0000
0010
,
0000
0010
0000
0010
,
0000
0000
0000
0100
,
0000
0100
0000
0100
,
0000
0000
0000
0001
,
0000
0001
0000
0001
,
0000
0000
0000
1001
,
0000
0000
0000
1001
,
0000
0000
0000
0010
,
0000
1000
0000
0001
,
0000
0000
0000
0100
,
0000
0010
0000
1000
,
0000
0000
0000
0010
,
0000
1000
0000
0001
,
0000
0000
0000
1001
,
0000
0000
0000
1001
,
0000
0000
0000
0100
,
0000
0010
0000
0001
,
0000
0000
0000
1000
,
0000
0001
0000
0010
,
0000
0000
0000
0100
,
0000
1000
0000
0010
,
0000
0000
0000
0000
0000
0000
0010
0010
,
0000
0100
0000
0001
0001
0000
1000
0000
,
1000
0001
0001
0100
,
0100
0000
0010
0000
,
1000
1000
0000
0001
,
1000
0001
1000
0010
,
0010
0010
0010
1000
,
0000
1000
0000
0001
,
0000
1000
0000
0100
,
0000
0010
0000
0100
,
0000
0000
0000
1000
,
0000
0001
0000
1001
,
0000
0000
0000
0001
,
0000
1000
0000
1001
,
0000
0000
0000
0010
,
0000
0010
0000
0100
,
0000
0010
0000
1000
,
0000
0001
0000
0100
,
0000
0000
0000
0010
,
0000
0100
0000
1001
,
0000
0000
0000
0100
,
0000
0010
0000
1001
,
0000
0000
0000
0001
,
0000
0001
0000
0001
,
0000
0000
0000
1000
,
0000
1000
0000
1000
,
0000
0000
0000
0010
,
0000
0010
0000
0010
,
0000
0000
0000
0100
,
0000
0100
0000
0100
,
0000
0000
0000
0001
,
0000
0010
0000
1000
,
0000
0000
0000
1000
,
0000
0010
0000
0001
,
0000
0000
0000
0100
,
0000
0100
0000
0100
,
0000
0100
0000
1000
,
0000
0000
0002
0000
,
0000
0000
0000
0003
;
