#TITLE:Xepher;
#ARTIST:Tatsh;
#BANNER:Xepher-bn.png;
#BACKGROUND:Xepher-bg.png;
#JACKET:Xepher-jacket.png;
#MUSIC:Xepher.ogg;
#SAMPLESTART:33.9;
#SAMPLELENGTH:20;
#DISPLAYBPM:170;
#BPMS:0=170;
#STOPS:16=2.47,264.5=1.412;
#BGCHANGES:;

//---------------dance-single - ----------------
#NOTES:
     dance-single:
     :
     Beginner:
     3:
     :
0000
0000
0000
0000
,
0000
0000
0000
0000
,
0000
0000
0000
0000
,
0000
0000
0000
0000
,
1001
0000
0000
0000
,
1001
0000
0000
0000
,
1001
0000
0000
0000
,
1001
0000
0000
0000
,
0000
0000
0000
0000
,
0110
0000
0000
0000
,
0110
0000
0000
0000
,
0110
0000
0000
0000
,
0000
1000
1000
0000
,
0000
0001
0001
0000
,
0000
0100
0100
0000
,
0000
0010
0010
0000
,
0000
0100
0100
0000
,
0000
0001
0001
0000
,
0000
1000
0000
0001
,
0000
1000
0000
0010
,
0000
0100
0000
0001
,
0000
0100
0000
0000
,
0000
0110
0000
0000
,
0000
1001
0000
0000
,
0000
1000
0000
0100
,
0000
0001
0000
0100
,
0000
0010
0000
0000
,
0000
1000
0000
0000
,
0000
0100
0000
0010
,
0000
0001
0000
0001
,
0000
0002
0000
0000
,
0000
0003
0000
1000
,
0000
0001
0000
0100
,
0000
0010
0000
0000
,
1001
0000
0000
0000
,
1001
0000
0000
0000
,
1001
0000
0000
0000
,
0000
0000
0000
0000
,
0110
0000
0000
0000
,
0110
0000
0000
0000
,
0110
0000
0000
1000
,
0000
0010
0000
0000
,
0000
0000
0000
0000
,
0000
0100
0000
0000
,
0000
0000
0000
0000
,
0000
0001
0000
0010
,
0000
0001
0000
1000
,
0000
0010
0000
0100
,
0000
0010
0000
1000
,
0000
0001
0000
1000
,
0000
0110
0000
0000
,
0000
1000
0000
0001
,
0000
0010
0000
0001
,
0000
0100
0000
0100
,
0000
0010
0000
0000
,
0000
0100
0000
0000
,
0000
0001
0000
0010
,
0000
0100
0000
0100
,
0000
0100
0000
0000
,
0000
1000
0000
0000
,
0000
0001
0000
1000
,
0000
0001
0000
0000
,
1001
0000
0000
0000
,
0110
0000
0000
0000
,
1001
0000
0000
0000
,
0110
0000
0000
0000
,
1001
0000
0000
0000
,
0000
0110
0000
0000
;

//---------------dance-single - ----------------
#NOTES:
     dance-single:
     :
     Easy:
     6:
     :
0000
0000
0000
0000
,
0000
0000
0000
0000
,
0000
0000
0000
0000
,
0000
0000
0000
0000
,
2002
3003
1000
0000
0010
0000
0100
0000
,
0101
0001
0010
0100
,
1100
1000
0001
0100
,
0110
0001
0001
1000
,
1000
0001
0010
0100
,
1100
0010
1000
0001
,
0011
1000
0001
1000
,
1010
0200
0000
0001
,
0301
1001
1001
0010
,
1000
0100
0010
0001
,
0100
0110
0110
0001
,
0010
0001
0100
1000
,
0010
0101
0101
0001
,
1000
0001
0010
0100
,
1000
0001
1000
0001
,
0010
0100
0100
1000
,
0001
1000
0010
0100
,
0001
0020
0000
0000
,
0030
0200
0000
0000
,
0300
1001
0010
1000
,
0001
0020
0030
0001
,
1000
0001
0101
1000
,
1100
0010
1000
0100
,
0001
1000
0001
0010
,
0100
2000
3000
0002
,
0003
0200
0300
0020
,
0030
2000
0001
0001
,
3001
0010
0001
0100
,
1000
0001
0010
1000
,
0100
0010
0001
0100
,
1010
0001
1000
0100
,
0011
0100
0010
0001
,
1001
1000
1000
0001
,
0001
0010
0001
0100
,
0110
0010
1000
0001
,
0011
1000
0100
0001
,
1010
0200
0000
1000
,
1300
0002
0000
0023
,
0000
0230
0000
2300
,
0000
3020
0000
0230
,
0000
0302
0000
2003
,
0000
3001
0010
0001
,
0100
1000
0001
1000
,
0010
0100
0001
0010
,
0100
1000
0010
1000
,
0100
0001
0010
0001
,
0100
2000
0000
0001
,
3010
1001
0100
0001
,
0000
0200
0300
0001
,
1000
0001
0011
1000
,
1010
0100
0001
0010
,
0001
0100
0010
1000
,
0100
0002
0003
2000
,
3000
0020
0030
0200
,
0300
0002
1000
0000
,
1003
0020
0100
0000
,
0130
0202
0303
2020
,
3030
0001
0010
1000
,
1100
0010
0001
0100
,
0110
0001
0010
1000
,
0101
0001
0010
1000
,
1001
1000
0010
0100
,
1010
0002
0003
2000
,
3000
0202
0000
0000
,
0000
0000
0000
0000
,
0000
0000
0000
0000
,
0303
0000
0000
0000
;

//---------------dance-single - ----------------
#NOTES:
     dance-single:
     :
     Medium:
     10:
     :
0000
0000
0000
0000
,
0000
0000
0000
0000
,
0000
0000
0000
0000
,
0000
0000
0000
0000
,
2002
3003
1000
0100
0000
0010
0000
0001
,
0200
0000
0301
0010
0000
0100
0000
1000
,
0001
0001
0010
0001
0000
1000
0000
0010
,
0100
0100
0002
0000
0023
0000
0230
0000
,
2300
0000
3010
0100
0000
0001
0000
1000
,
0002
0000
0013
0100
0000
0010
0000
0001
,
1000
1000
0001
1000
0000
0010
0000
0100
,
0002
0000
2003
0000
0000
0000
3001
1000
,
0001
1000
0010
0000
0010
0000
1000
0100
,
0001
0000
0011
0000
1100
0000
0001
0100
,
0010
1000
0001
0000
0001
0000
0010
0001
,
1000
0000
1010
0000
0101
0000
0010
1000
,
0001
1000
0100
0000
0100
0000
0010
0001
,
1000
0000
1001
0000
0110
0000
1000
0010
,
0100
0001
0010
0100
0010
0000
0001
1000
,
0100
0000
1000
0010
1000
0001
0200
0000
,
0320
0000
1030
0100
1000
0000
0001
0100
,
0001
0000
1000
0001
1000
0001
1000
0001
,
1000
0001
0200
0000
0000
0000
0000
0000
,
0310
1001
0010
1000
,
0001
0000
1000
0100
0010
0000
0001
0100
,
1000
0001
0011
1000
,
1010
0000
0001
0000
0010
0000
0001
0100
,
1000
0000
0010
0000
1000
0000
0100
0010
,
0001
0000
2000
0000
3001
0100
0020
0000
,
1030
0001
2000
0000
3010
0000
0002
0000
,
0103
0012
0100
1000
,
0013
0100
0001
0000
1001
0000
0101
0000
,
1010
1100
0101
1100
,
0101
0000
1000
0001
0000
1000
0000
0100
,
0020
0000
0130
1000
0000
0010
0000
0100
,
0001
0001
1000
0001
0000
1000
0000
0010
,
0100
0100
0002
0000
2003
0000
3200
0000
,
0320
0000
0130
0010
0000
0001
0000
0100
,
2000
0000
3001
1000
0000
0010
0000
1000
,
0100
0100
0010
0001
0000
0100
0000
0001
,
2000
0000
3002
0000
0000
0000
0103
0010
,
0100
0010
2000
0000
0010
0000
0001
0000
,
0100
0010
0100
0001
,
0010
3002
0010
1000
,
0100
0010
0100
1000
,
0010
0000
0103
0001
0010
0000
0001
0100
,
1000
0000
0001
0010
0100
0000
1000
0001
,
1000
0000
0010
0100
0001
0000
1000
0100
,
0010
0000
0100
0010
0001
0000
1000
0001
,
0100
0000
0001
1000
0001
1000
0001
1000
,
0001
1000
0020
0000
0000
0000
1030
0000
,
0001
0000
1001
0000
0100
0000
0001
0010
,
1000
0000
0100
0010
0001
0000
0100
0010
,
1000
0100
0011
0100
,
1010
0000
0001
0000
1000
0000
0001
0010
,
0100
0000
1000
0000
0001
0000
1000
0010
,
0100
0000
0002
0000
0013
0100
2000
0000
,
3001
0000
2000
0000
3010
0000
1000
0100
,
0001
2010
0001
0100
,
3010
0000
1000
0001
0010
0000
0001
0100
,
1000
2020
3030
0202
,
0303
0000
1000
0001
0010
0100
0000
1000
,
1000
1000
0010
0100
0001
1000
0000
0001
,
0001
0001
0100
0001
1000
0010
0000
0100
,
0100
0100
0001
0010
0100
1000
0000
0010
,
0010
0010
1000
0001
0000
0100
0000
0010
,
1000
0002
0023
0000
0032
0000
0203
0000
,
2300
3020
0000
0000
,
0000
0000
0000
0000
,
0000
0000
0000
0000
,
0030
0000
0000
0000
;

//---------------dance-single - ----------------
#NOTES:
     dance-single:
     :
     Hard:
     13:
     :
0000
0000
0000
0000
,
0000
0000
0000
0000
,
0000
0000
0000
0000
,
0000
0000
0000
0000
,
2002
0000
0000
3003
1000
0000
0100
0000
0010
0000
0001
0000
0100
0000
0010
0000
,
2020
0000
0000
3030
0001
0000
0010
0000
0100
0000
1000
0000
0010
0000
0100
0000
,
0101
0101
0001
0010
0001
0100
0010
1000
,
0001
0100
0001
0000
0010
0000
0001
0000
0010
0000
0001
0000
1000
0000
0100
0000
,
1000
0100
0010
0001
1000
0001
0010
0100
,
2200
0000
0000
3300
1000
0000
0001
0000
0010
0000
0001
0000
0100
0000
0010
0000
,
0110
0110
0100
0001
0010
0100
1000
0001
,
0202
0000
0000
0303
0020
0000
0000
0000
0230
0000
0000
0000
0301
0000
0001
0000
,
0001
0000
0001
0000
1001
0000
0000
0000
0011
0000
0000
0000
0100
0000
0000
1000
,
0000
0001
0101
0000
1100
0000
0020
2030
,
3002
0000
0203
0000
0301
0000
0000
0000
0011
0000
0000
0000
1100
0000
0000
1000
,
0000
0000
0001
0000
1001
0000
0000
0000
1010
0000
0000
0000
0100
0001
0000
0010
,
0000
0000
0100
0000
1100
0000
0000
0000
0110
0000
0000
0000
0010
0000
0000
0001
,
0000
1000
1001
0000
0110
0000
2000
3020
,
0230
0000
0302
0000
0013
0000
0100
0000
1000
0000
0000
0001
0000
0001
0000
0000
,
1000
0010
0100
0001
0010
0001
0100
0010
,
1000
0000
0001
0001
0010
0010
1000
1000
,
0100
0100
1000
1000
0001
0001
0100
0100
,
0010
0010
2020
0000
0000
0000
0030
0000
,
3001
0000
1001
0100
0001
0010
0001
0100
,
0010
1000
0100
0010
0001
0100
0001
0010
,
1000
0100
0010
0001
1100
0000
0010
1000
,
0101
0000
0011
0000
1000
0001
0010
0100
,
0010
0001
0100
0001
1000
0100
0001
0010
,
0100
0000
1000
0001
0010
1000
0100
0010
,
0001
0000
0100
0010
0100
0001
0010
1000
,
0100
0000
1000
0010
1000
0100
0010
0001
,
1000
0001
0100
0000
1010
0000
1100
0000
,
0011
1001
0011
0110
,
1100
0000
0001
1000
0100
0010
0001
1000
,
2020
0000
0000
3030
0100
0000
0001
0000
0010
0000
1000
0000
0001
0000
1000
0000
,
1100
1100
0010
0001
0100
0001
1000
0010
,
0100
0001
0100
0000
0001
0000
0010
0000
0001
0000
0010
0000
0100
0000
1000
0000
,
0100
1000
0010
0100
0010
1000
0001
0100
,
0220
0000
0000
0330
0100
0000
0001
0000
0010
0000
1000
0000
0001
0000
0100
0000
,
1001
1001
0001
0010
1000
0100
0010
0001
,
0022
0000
0000
0033
2000
0000
0000
0000
3002
0000
0000
0000
0103
0000
0100
0000
,
0100
0100
0002
0000
0023
0000
0230
0000
,
2300
3020
0230
0302
,
2003
3002
0023
0230
,
2300
3020
0230
0302
,
2003
0000
3100
0010
0001
0100
0001
0010
,
0100
1000
0010
0001
0010
1000
0100
0010
,
0100
1000
0001
0100
0010
0100
1000
0100
,
0001
0010
0001
1000
0100
0010
0001
0100
,
0001
0010
0100
1000
0010
1000
0100
0001
,
0010
0100
2100
0000
0001
0000
0100
0000
,
3001
0000
1001
0010
1000
0100
0010
0001
,
0100
0001
0010
0100
0001
0100
1000
0010
,
0100
0001
1000
0010
0101
0000
0001
0010
,
1100
0000
0101
0000
1000
0001
0010
0100
,
0010
0001
0100
1000
0001
1000
0100
0010
,
0001
0000
1000
0010
0100
0001
0010
0100
,
1000
0000
0001
0100
0001
0010
0100
1000
,
0001
0000
1000
0010
0101
0000
0001
0010
,
1100
0000
0001
0100
1010
0000
1000
0100
,
0011
2000
3001
0011
,
1100
0000
0000
0000
0001
0000
0100
0001
0000
0100
0001
0000
0000
1000
0000
0000
,
1100
0000
1100
0000
0010
0000
1000
0010
0000
1000
0010
0000
0000
0100
0000
0000
,
0101
0000
0101
0000
0001
0000
0010
0001
0000
0010
0001
0000
0000
0100
0000
0000
,
1010
0000
1010
0000
1000
0000
0100
1000
0000
0100
1000
0000
0000
0001
0000
0000
,
0011
0011
1000
0010
1000
0100
0010
0001
,
1001
0000
0220
0330
1000
0000
0010
0000
0001
0000
0100
0000
0001
0000
0010
0000
,
1000
0100
0022
0000
0000
0000
0000
0000
,
0000
0000
0000
0000
,
0000
0000
0000
0000
,
0033
0000
0000
0000
;

//---------------dance-single - ----------------
#NOTES:
     dance-single:
     :
     Challenge:
     15:
     :
0000
0000
0000
0000
,
0000
0000
0000
0000
,
0000
0000
0000
0000
,
0000
0000
0000
0000
,
2002
0000
0000
3003
1000
0001
0100
0010
0000
0000
1010
0000
0000
0101
0000
0000
,
2200
0000
0000
3300
0010
0001
1000
0100
0000
0000
1001
0000
0000
0101
0000
0000
,
0110
0000
0110
0000
1000
0100
0010
0001
0000
0000
0011
0000
0000
1100
0000
0000
,
0100
1000
0001
0000
1000
0010
1000
0010
0100
0001
0100
0001
1000
0100
1000
0100
,
0010
0001
0010
0001
0100
0010
1000
0001
0000
0000
1001
0000
0000
1010
0000
0000
,
0202
0000
0000
0303
0010
0001
1000
0100
0000
0000
1001
0000
0000
1010
0000
0000
,
0110
0000
0110
0000
0100
0001
1000
0010
0000
0000
0110
0000
0000
1001
0000
0000
,
1000
0100
1000
0000
1002
0000
0000
0000
0100
0000
0000
0000
1003
0010
0100
0001
,
1000
0100
0010
0001
0100
0000
0000
0000
0110
0000
0000
0000
1010
0000
1000
0100
,
0000
0010
0001
0000
0011
0000
0000
0000
1100
0000
0000
0000
0002
0000
0023
0000
,
0230
0000
2300
0000
3001
0000
0000
0000
0101
0000
0000
0000
1100
0000
0010
1000
,
0000
0001
0100
0000
1001
0000
0000
0000
0011
0000
0000
0000
1000
0100
0000
0010
,
0000
0001
0100
0000
0101
0000
0000
0000
0011
0000
0000
0000
0100
0000
1000
0001
,
0000
1000
0100
0000
1100
0000
0000
0000
0110
0000
0000
0000
0001
0000
0010
0001
,
0000
1000
0100
0000
0010
0000
0001
0000
0100
0000
0001
1000
0000
0010
0000
1000
,
0001
0000
0100
0000
0010
1000
0010
0000
0100
0000
0001
0000
2000
0000
0000
0000
,
3002
0000
1003
1000
0010
0010
0001
0001
,
0100
0000
0100
0000
0001
1000
0001
1000
0001
1000
0001
1000
0001
1000
0001
1000
,
0001
1000
0001
1000
0020
0000
0000
0000
0000
0000
0000
0000
0000
0000
0000
0000
,
0130
0000
1001
1000
0010
0100
0010
0001
,
0010
1000
0100
0010
0001
0100
0001
0010
,
1000
0100
0010
0001
0101
0100
0010
1000
,
1100
0000
0001
0010
0001
0100
1000
0010
,
0001
0010
0100
1000
0100
0001
0010
0100
,
0001
0100
1000
0010
0100
0010
1000
0001
,
0010
0100
1000
0010
1000
0001
0100
0010
,
0001
0010
1000
0100
0010
0001
0100
0010
,
1000
0001
0100
0000
0101
0000
1100
0000
,
1001
0011
0110
1100
,
1010
0000
0000
0000
1000
0100
0010
0001
0000
0000
0100
0010
0000
0100
0001
0000
,
0022
0000
0000
0033
1000
0010
0100
0001
0000
0000
0010
0100
0000
0100
1000
0000
,
1001
0000
1001
0000
1000
0001
0010
0100
0000
0000
1000
0010
0000
1000
0001
0000
,
0100
0010
0100
0000
0001
0010
0001
0010
0100
1000
0100
1000
0010
0100
0010
0100
,
0001
1000
0001
1000
0001
0010
0100
1000
0000
0000
0010
1000
0000
1000
0100
0000
,
0220
0000
0000
0330
0010
0001
1000
0100
0000
0000
1000
0001
0000
1000
0010
0000
,
0101
0000
0101
0000
0010
0001
1000
0100
0000
0000
1000
0001
0000
0100
0010
0000
,
1000
0001
1000
0000
0002
0000
0000
0000
0023
0000
0000
0000
0130
1000
0001
1000
,
0100
1000
0001
1000
0020
0000
0000
0000
0200
0000
0000
0030
2000
0000
0000
0300
,
0200
0000
0000
3000
0002
0000
0000
0300
0020
0000
0000
0003
2000
0000
0000
0030
,
0002
0000
0000
3000
0020
0000
0000
0003
2000
0000
0000
0030
0200
0000
0000
3000
,
0020
0000
0000
0300
2000
0000
0000
0030
0020
0000
0000
3000
0002
0000
0000
0030
,
0200
0000
0000
0003
0310
1000
0010
0000
0100
0001
0100
0000
0001
0010
0001
0000
,
1000
0100
1000
0000
0001
1000
0001
0000
0100
0010
0100
0000
0001
0010
0001
0000
,
1000
0100
1000
0000
0001
0010
0100
1000
0100
0010
0001
0010
0100
1000
0100
0010
,
0001
1000
0001
0000
1000
0100
0010
0001
0010
0100
1000
0100
0010
0001
0010
0100
,
1000
0001
1000
0000
0010
0100
0010
0100
0010
0100
0010
0100
0010
0100
0010
0100
,
0010
0100
0010
0100
0002
0000
0000
0000
0100
0000
0000
0000
1003
0000
0000
0000
,
1010
0000
0101
1000
0010
0100
1000
0100
,
0001
0010
0100
0010
0001
0100
1000
0010
,
1000
0100
0001
1000
0110
0010
1000
0100
,
0011
0000
0100
0010
0100
1000
0100
0001
,
0010
0100
0001
0100
1000
0010
1000
0001
,
1000
0100
0001
0100
1000
0010
1000
0100
,
0001
0010
0100
0010
0001
0100
1000
0010
,
0001
0100
0010
1000
1100
0100
0010
0001
,
1001
0100
0001
0010
0110
1000
0010
0100
,
1010
0001
1000
0100
0010
0001
0100
0010
,
1000
0000
0000
0000
0001
0010
1000
0100
0000
0000
1000
0010
0000
0100
0001
0000
,
0011
0000
1100
0000
0001
1000
0010
0100
0000
0000
0010
0100
0000
0001
1000
0000
,
1001
0000
0110
0000
1000
0100
0010
0001
0000
0000
1000
0001
0000
0010
0100
0000
,
1100
0000
0101
0000
1000
0001
0010
0100
0000
0000
1000
0010
0000
0001
0100
0000
,
0101
0000
1010
0000
1000
0100
0010
0001
0000
0000
0010
1000
0000
0001
0100
0000
,
1010
0000
0022
0033
1000
0100
0010
0001
0010
0100
1000
0100
0010
0001
0010
0100
,
1000
0100
0010
0001
0200
0000
0000
0000
0000
0000
0000
0000
0000
0000
0000
0000
,
0000
0000
0000
0000
,
0000
0000
0000
0000
,
0300
0000
0000
0000
;
