#TITLE:Wuv U;
#SUBTITLE:;
#ARTIST:kors k;
#TITLETRANSLIT:;
#SUBTITLETRANSLIT:;
#ARTISTTRANSLIT:;
#GENRE:;
#CREDIT:;
#BANNER:Wuv U.png;
#BACKGROUND:Wuv U-bg.png;
#LYRICSPATH:;
#CDTITLE:;
#MUSIC:Wuv U.ogg;
#OFFSET:0.875000;
#SAMPLESTART:10.743000;
#SAMPLELENGTH:20.000000;
#SELECTABLE:YES;
#DISPLAYBPM:173.000000;
#BPMS:0.000000=173.000000
;
#STOPS:
;
#BGCHANGES:;
#KEYSOUNDS:;
#ATTACKS:;

//---------------dance-single - ----------------
#NOTES:
     dance-single:
     :
     Challenge:
     16:
     0.868862,0.932453,0.580265,0.311624,0.628620,566.000000,512.000000,54.000000,29.000000,0.000000,0.000000,0.868862,0.932453,0.580265,0.311624,0.628620,566.000000,512.000000,54.000000,29.000000,0.000000,0.000000:
0000
0000
0000
0000
,
0000
0000
0000
0000
,
0000
0000
0000
0000
,
0000
0000
0000
0000
,
0000
0000
0000
0000
,
1000
0100
1000
0100
1000
0000
0010
0000
0100
0000
0001
0000
0010
0000
0100
0000
,
0000
1000
1000
0010
0100
0100
0001
1000
,
0001
0100
0001
0100
0010
0100
0010
0100
0010
1000
0010
1000
0001
1000
0001
1000
,
0020
0000
0000
0000
0000
0000
1030
0010
0100
0000
0100
0000
0100
0000
0100
0000
,
0110
0000
0010
1000
0100
0000
0010
0000
0002
0000
0000
0000
0103
0000
1001
0000
,
0000
0000
0001
1000
0010
0000
1000
0000
0200
0000
0010
0000
0310
0000
0000
0000
,
0001
0010
0001
0010
0001
0000
0100
0000
0010
0000
1000
0100
1000
0000
0002
0000
,
0000
0000
0013
0001
0100
0000
0010
0000
2000
0000
0001
0000
3001
0000
0000
0000
,
1100
0000
1000
0010
0100
0000
0001
0000
0020
0000
0000
0000
0031
0000
0101
0000
,
0000
0000
1000
0100
0010
0000
0100
0000
2000
0000
0001
0000
3001
0000
0000
0000
,
0010
0100
0010
1000
0010
0000
0100
0000
0001
0000
1000
0000
1010
0000
0011
0000
,
0000
0000
0001
1000
0010
1000
0001
1000
0020
0000
0000
0000
0130
0000
0000
0000
,
0110
0000
0010
0000
1001
0000
0000
0000
1000
0100
1000
0000
0001
0100
0001
0000
,
1000
0010
1000
0000
0001
0010
0001
0000
1000
0001
1000
0000
0010
0100
0010
0000
,
1010
0000
0001
0000
0101
0000
0000
0000
1000
0100
0010
0100
1000
0000
0000
0000
,
0011
0000
0100
0000
1100
0000
0010
0000
1000
0001
0100
0001
1000
0000
0010
0000
,
1100
0000
1000
0000
1010
0000
0000
0000
0100
0001
0100
0000
0001
1000
0001
0000
,
1000
0010
1000
0000
0010
0100
0010
0000
1000
0100
1000
0000
0001
0010
0001
0000
,
1001
0000
0001
0000
0101
0000
0000
0000
0010
1000
0001
1000
0010
0000
0000
0000
,
0011
0000
0001
0000
0110
0000
0100
0000
0010
1000
0001
1000
0010
0000
0000
0000
,
1001
0000
0010
0000
1010
0000
0000
0000
1000
0100
1000
0000
0100
0010
0100
0000
,
0010
0001
0010
0000
0001
1000
0001
0000
1000
0010
1000
0000
0001
0100
0001
0000
,
0101
0000
0010
0000
1100
0000
0000
0000
0001
1000
0100
0010
0001
0000
0000
0000
,
0011
0000
0001
0000
0110
0000
0010
0000
1000
0001
1000
0001
1000
0001
1000
0000
,
0011
0011
0000
1010
1010
0000
1100
1100
,
0000
0101
0101
0000
0010
0010
0110
0000
,
1001
0000
0100
0000
1001
0000
0000
0000
0001
0010
0100
1000
0100
0000
0000
0000
,
0001
1000
0001
1000
0010
1000
0010
1000
0100
1000
0100
1000
0100
0000
0000
0000
,
0120
0000
0000
0000
0100
0000
0000
1000
0000
1000
0000
0000
0001
0000
0001
0000
,
0001
0000
0000
0000
1000
0000
0000
0001
0000
0001
0000
0000
0100
0000
0100
0000
,
0130
0000
0000
0000
0010
0000
0000
1000
0000
1000
0000
0000
0001
0000
0100
0000
,
0010
0000
0000
0000
1000
0000
0000
0100
0000
0100
0000
0000
0010
0000
0001
0000
,
0100
0000
0010
0000
1000
0000
0001
0100
0000
0001
0100
0000
0010
0000
1000
0000
,
0010
0000
1000
0000
0100
0000
0010
0001
0000
0010
0001
0000
1000
0000
0100
0000
,
1000
0000
0001
0000
0010
0000
0100
1000
0000
0100
1000
0000
0001
0000
0010
0000
,
0100
0000
0000
0000
0100
0000
0010
0001
1000
0000
1000
0000
1000
0000
1000
0000
,
0001
0000
1000
0100
1000
0000
0010
0000
0200
0000
0000
0000
0000
0000
0310
0000
,
0000
0000
0010
1000
0010
0000
0100
0000
0002
0000
0000
0000
0003
0000
0000
0000
,
1000
0001
1000
0001
1000
0000
0010
0000
0100
0000
0010
1000
0010
0000
0200
0000
,
0000
0000
0301
1000
0001
0000
0100
0000
2000
0000
0000
0000
3000
0000
0000
0000
,
0010
0000
1000
0100
0001
0000
0001
0000
1001
0000
1000
0000
0110
0000
0000
0000
,
1000
0000
0010
0100
0001
0000
0001
0000
0101
0000
1000
0000
1010
0000
0000
0000
,
1000
0000
1100
0000
1000
0100
0010
0001
0010
0000
0011
0000
0001
0010
0100
1000
,
0002
0000
0000
0000
0000
0000
0103
0001
1000
0000
1000
0000
1000
0000
1000
0000
,
1100
0000
1000
0001
0100
0000
0010
0000
2000
0000
0000
0000
3100
0000
1001
0000
,
0000
0000
0010
0100
0001
0000
0010
0000
0200
0000
1000
0000
1300
0000
0000
0000
,
1000
0010
0001
0010
1000
0000
0100
0000
0010
0000
0001
0100
0001
0000
2000
0000
,
0000
0000
3100
0010
0001
0000
0100
0000
0102
0000
1000
0000
1003
0000
0000
0000
,
0011
0000
0001
1000
0100
0000
0010
0000
0002
0000
0000
0000
0103
0000
0110
0000
,
0000
0000
0001
1000
0100
0000
0010
0000
0200
0000
1000
0000
1300
0000
0000
0000
,
0010
1000
0100
1000
0100
0000
0010
0000
0001
0000
0100
0001
1000
0000
2020
0000
,
0000
0000
3000
0000
0000
0000
1030
0010
0100
0000
0100
0000
0100
0000
0100
0000
,
0001
0100
1000
0100
0001
0000
1000
0000
0020
0000
0100
0000
0130
0000
0001
0000
,
0000
0000
0001
0010
1000
0000
0010
0000
0200
0000
0001
0000
0310
0000
0000
0000
,
0001
0000
0010
0100
1000
0000
0010
0100
0001
0000
1000
0001
0100
0000
0010
0000
,
0000
0000
0010
1000
0100
0000
1000
0001
0020
0000
0100
0000
0130
0000
0000
0000
,
0010
1000
0010
0001
0010
0000
1000
0000
0200
0000
1000
0000
1300
0000
0001
0000
,
0000
0000
0001
1000
0100
0000
0010
0000
0002
0000
1000
0000
0013
0000
0000
0000
,
0001
0010
0100
1000
1100
1010
0101
0011
,
0000
0000
0001
0100
0010
0100
0001
0100
0010
0000
0000
0000
0110
0000
0000
0000
,
2002
0000
0000
0000
,
0000
0000
0000
3003
;

//---------------dance-single - ----------------
#NOTES:
     dance-single:
     :
     Hard:
     12:
     0.624782,0.628620,0.322369,0.526536,0.059101,407.000000,377.000000,30.000000,49.000000,0.000000,0.000000,0.624782,0.628620,0.322369,0.526536,0.059101,407.000000,377.000000,30.000000,49.000000,0.000000,0.000000:
0000
0000
0000
0000
,
0000
0000
0000
0000
,
0000
0000
0000
0000
,
0000
0000
0000
0000
,
0000
0000
0000
0000
,
1001
0100
0010
0100
,
0001
1000
0100
0010
0001
0010
0100
1000
,
0010
0100
0010
0100
0001
1000
0001
1000
,
1100
0000
0000
0000
0000
0000
0001
0100
0001
0000
0010
0000
0100
0000
1000
0000
,
0010
0000
1000
0001
0200
0000
0310
0101
,
0000
0001
1000
0100
2000
0010
3010
0000
,
1000
0010
0100
0001
0010
0001
0100
2000
,
0000
0000
3100
1000
0100
0000
1000
0000
0002
0000
0010
0000
0013
0000
0000
0000
,
0001
0000
1000
0010
0200
0000
0301
0011
,
0000
0100
0001
1000
0002
0010
0013
0000
,
0001
0001
0010
0010
0100
0100
1000
1000
,
0000
0010
0100
0010
0200
0300
0110
0000
,
2010
0000
3200
0000
1300
0001
0100
0000
,
0001
0010
1000
0010
0001
0010
1000
0010
,
0001
0100
1000
0100
0010
0010
0010
0000
,
1001
0000
0011
0000
1000
0001
0010
0000
,
0102
0000
0203
0000
0310
1000
0100
0000
,
1000
0010
0001
0010
1000
0100
0001
0100
,
1000
0001
0100
0001
0010
0010
0010
0000
,
1100
0000
0110
0000
0010
0100
1000
0000
,
1020
0000
0230
0000
0310
1000
0001
0000
,
0100
0001
0100
1000
0100
0001
0100
1000
,
0100
0001
1000
0001
0010
0010
0010
0000
,
0101
1100
1002
0013
,
0012
0010
0000
0100
0103
0000
1020
1000
,
0000
0100
0130
0000
0110
0001
0100
0000
,
0001
0100
1000
0100
0010
0010
0010
0000
,
0001
0010
0100
1000
0100
0010
0001
0000
,
0020
0200
0300
0230
,
0302
2000
3000
2003
,
3200
2000
3000
2300
,
3002
0020
0030
0023
,
0031
0000
0000
0000
1100
0000
0000
1000
0100
0000
0010
0000
0001
0000
0000
0000
,
0010
0000
0000
0000
0101
0000
0000
1000
0100
0000
0010
0000
0001
0000
0000
0000
,
0100
0000
0000
0000
0011
0000
0000
0100
0010
0000
1000
0000
0001
0000
0000
0000
,
1000
0000
0000
0000
1010
0000
0000
0010
0100
0000
0001
0000
1000
0000
0000
0000
,
0001
0000
1000
0010
0200
0000
0300
0110
,
0000
0100
0001
1000
0020
0000
0030
0000
,
1000
0001
0100
0010
1000
0100
0010
0002
,
0000
0000
1003
0001
1000
0000
0100
0000
0020
0000
0000
0000
0030
0000
0000
0000
,
0001
0000
0001
1000
0020
0000
0230
0000
,
0301
0000
0001
1000
0010
0010
0010
0000
,
1000
1000
0100
0100
0010
0010
0001
0001
,
1001
0000
0000
0000
0000
0000
0010
0100
0010
0000
1000
0000
0001
0000
0100
0000
,
0001
0010
0100
1000
0020
0100
0130
0110
,
0000
1000
0100
0010
0002
1000
1003
0000
,
0100
1000
0100
0010
0001
1000
0001
0020
,
0000
0000
0031
1000
0001
0000
0100
0000
0020
0000
1000
0000
1030
0000
0000
0000
,
1000
0100
1000
0001
0020
0100
0130
0011
,
0000
0001
0100
1000
0020
0100
0130
0000
,
0010
0010
0100
0100
0001
0001
1000
2000
,
0020
0000
0000
0000
3030
0000
0100
0010
0100
0000
0001
0000
1000
0000
0100
0000
,
1000
0100
0001
1000
0020
0100
0130
1010
,
0000
1000
0010
0100
0020
1000
1030
0000
,
0001
1000
0100
0010
0100
0010
0001
2000
,
0000
0000
3001
0100
0001
0000
1000
0000
0200
0000
0010
0000
0310
0000
0000
0000
,
0001
1000
0010
1000
0002
0100
0103
0101
,
0000
0010
0100
0010
2000
0100
3100
0000
,
1000
1000
0001
0001
0100
0100
0010
0010
,
0000
1000
0001
1000
0002
0003
1100
0000
,
1001
0000
0000
0000
;

//---------------dance-single - ----------------
#NOTES:
     dance-single:
     :
     Medium:
     9:
     0.494299,0.558773,0.333115,0.365352,0.000000,322.000000,291.000000,31.000000,34.000000,0.000000,0.000000,0.494299,0.558773,0.333115,0.365352,0.000000,322.000000,291.000000,31.000000,34.000000,0.000000,0.000000:
0000
0000
0000
0000
,
0000
0000
0000
0000
,
0000
0000
0000
0000
,
0000
0000
0000
0000
,
0000
0000
0000
0000
,
1002
0100
0000
0103
,
0000
0001
1000
0010
0100
0010
0100
0010
,
1000
1000
0001
0001
,
1001
0000
0000
1000
0001
1000
0100
0010
,
0001
0000
0001
1000
0200
0000
0000
1300
,
0000
1000
0010
0100
0002
0000
0003
0000
,
0010
0001
0100
0010
1000
0000
0001
2000
,
0000
3010
1000
0001
0200
0000
0300
0000
,
0110
0000
0100
0001
2000
0000
0000
3010
,
0000
0010
1000
0001
0200
0000
0300
0000
,
0001
1000
0001
0010
0100
1000
0010
0100
,
0000
0100
0001
1000
0002
0000
0003
0000
,
0101
0000
0101
0000
1000
0100
1000
0000
,
0001
0100
0001
0000
1000
0001
0100
0000
,
0110
0000
1001
0000
1000
0001
1000
0000
,
0011
0000
1100
0000
0010
1000
0001
0000
,
1100
0000
1100
0000
1000
0010
1000
0000
,
0001
0010
0001
0000
1000
0001
0010
0000
,
1001
0000
0110
0000
0010
0100
0001
0000
,
0101
0000
1010
0000
0001
1000
0100
0000
,
0011
0000
0011
0000
0010
0100
1000
0000
,
0010
1000
0001
0000
1000
0001
0100
0000
,
0010
1000
0010
0000
1000
0001
0100
0000
,
0110
1001
2200
0300
,
3002
0000
0000
2003
0000
0000
3020
0000
,
0000
0200
0030
0000
1000
0000
0301
0000
,
0100
0001
0100
0000
0001
1000
0001
0000
,
1000
0010
0100
0010
2000
0000
0000
0000
,
3001
0001
0001
0000
,
0010
0010
0010
0000
,
0100
0100
0100
0000
,
1000
1000
1000
0000
,
0001
0000
0011
0000
0100
0010
1000
0000
,
0010
0000
1010
0000
1000
0001
0100
0000
,
0010
0000
0110
0000
0100
0001
1000
0000
,
0001
0000
0101
0000
0100
0010
1000
0000
,
0001
1000
0001
0010
,
0100
1000
0010
0100
,
0001
1000
0001
0010
,
0100
1000
0020
0030
,
1002
1000
0200
0303
,
2001
0001
0200
3300
,
1000
0100
1000
0000
0001
0100
0001
0000
,
0110
0000
0000
0010
1000
0100
0010
0001
,
0100
0000
0100
0001
2000
0000
0000
3010
,
0000
1000
0001
1000
0200
0000
0300
0000
,
0010
0001
0100
0001
1000
0000
0100
2000
,
0000
3001
1000
0010
0200
0000
0300
0000
,
0101
0000
0001
1000
0020
0000
0000
0130
,
0000
0010
0100
0001
2000
0000
3000
0000
,
0001
1000
0010
1000
0100
0010
0001
0200
,
0000
0000
0000
0301
1000
0001
1000
0000
,
0010
1000
0100
1000
0020
0000
0030
0110
,
0000
0100
0001
1000
0200
0000
0300
0000
,
0010
0100
1000
0010
1000
0001
0100
0010
,
0000
1000
0001
0010
0200
0000
0300
0000
,
0100
0010
0001
0010
0200
0000
0300
1100
,
0000
1000
0010
0100
0002
0000
0003
0000
,
0010
0001
0010
0001
1000
0100
1000
0200
,
0000
0310
0100
1000
0002
0000
0003
0000
,
1001
0000
0000
0000
;

//---------------dance-single - ----------------
#NOTES:
     dance-single:
     :
     Easy:
     6:
     0.325439,0.419080,0.204167,0.279387,0.000000,212.000000,193.000000,19.000000,26.000000,0.000000,0.000000,0.325439,0.419080,0.204167,0.279387,0.000000,212.000000,193.000000,19.000000,26.000000,0.000000,0.000000:
0000
0000
0000
0000
,
0000
0000
0000
0000
,
0000
0000
0000
0000
,
0000
0000
0000
0000
,
0000
0000
0000
0000
,
2000
0001
0000
0001
,
0000
0001
0100
3001
,
1000
1000
0001
0001
,
1002
0000
0100
0103
,
0001
0010
0200
0300
,
1000
0010
0200
0300
,
0001
1000
0010
1000
,
0100
0010
0002
0003
,
0010
0001
0200
0300
,
0010
1000
0200
0300
,
1000
0010
1000
0001
,
0010
0100
2000
3000
,
1001
0100
0010
0100
,
0001
0010
0100
1000
,
0001
0101
1000
1000
,
0010
1010
0100
0100
,
0110
0100
0001
0010
,
0001
1000
0100
0010
,
0100
1100
0010
0010
,
1000
1010
0001
0001
,
1001
0100
1000
0001
,
0010
0001
0100
0010
,
1000
1010
0100
0100
,
0001
0101
0020
0030
,
1000
0000
0001
0000
,
0100
0000
0110
1001
,
0010
0011
0001
1000
,
0010
1000
0100
1100
,
2000
0000
0000
3000
,
0020
0000
0000
0030
,
0200
0000
0000
0300
,
0002
0000
0000
0003
,
0010
0001
0100
0000
,
0010
1000
0001
0000
,
1000
0100
0010
0000
,
0100
1000
0001
0000
,
1000
1000
0100
0000
,
0001
0001
0100
0000
,
1000
1000
0010
0000
,
0001
0001
0010
0000
,
1000
0001
1001
0000
,
0100
0010
0110
0000
,
1000
0100
0010
0001
,
2001
0000
0100
3100
,
1000
0001
0020
0030
,
0100
0010
0002
0003
,
0100
0001
1000
0001
,
0010
0100
2000
3000
,
0010
1000
0200
0300
,
1000
0001
0020
0030
,
0001
0100
0010
1000
,
2001
0000
0010
3010
,
1000
0001
0020
0030
,
0001
0100
2000
3000
,
0010
0100
0001
0010
,
0100
1000
0002
0003
,
0010
0001
0200
0300
,
0001
0010
2000
3000
,
1000
0001
1000
0001
,
0100
0010
2000
3000
,
1001
0000
0000
0000
;

//---------------dance-single - ----------------
#NOTES:
     dance-single:
     :
     Beginner:
     4:
     0.187281,0.279387,0.085965,0.000000,0.000000,122.000000,114.000000,8.000000,0.000000,0.000000,0.000000,0.187281,0.279387,0.085965,0.000000,0.000000,122.000000,114.000000,8.000000,0.000000,0.000000,0.000000:
// measure 0
0000
0000
0000
0000
,  // measure 1
0000
0000
0000
0000
,  // measure 2
0000
0000
0000
0000
,  // measure 3
0000
0000
0000
0000
,  // measure 4
0000
0000
0000
0000
,  // measure 5
1000
0000
0000
0000
,  // measure 6
0001
0000
0000
0000
,  // measure 7
1000
0000
0001
0000
,  // measure 8
1001
0000
0000
0000
,  // measure 9
0010
0000
0010
0000
,  // measure 10
0100
0000
0100
0000
,  // measure 11
0001
0000
1000
0000
,  // measure 12
0001
0000
1000
0000
,  // measure 13
0100
0000
0100
0000
,  // measure 14
1000
0000
1000
0000
,  // measure 15
0010
0000
0100
0000
,  // measure 16
0001
0000
1000
0000
,  // measure 17
0100
0100
0000
0000
,  // measure 18
1000
0000
0001
0000
,  // measure 19
1000
0000
0010
0000
,  // measure 20
0100
0100
0100
0000
,  // measure 21
0010
0010
0000
0000
,  // measure 22
1000
0000
0001
0000
,  // measure 23
0010
0000
0100
0000
,  // measure 24
1000
1000
1000
0000
,  // measure 25
0001
0001
0000
0000
,  // measure 26
0010
0000
0001
0000
,  // measure 27
1000
0000
0001
0000
,  // measure 28
0010
0010
0010
0000
,  // measure 29
1001
0000
0000
0110
,  // measure 30
0000
0000
1001
0000
,  // measure 31
0001
0001
0001
0000
,  // measure 32
1000
1000
1000
0000
,  // measure 33
1001
0000
0000
0000
,  // measure 34
0000
0000
0000
0000
,  // measure 35
0110
0000
0000
0000
,  // measure 36
0000
0000
0000
0000
,  // measure 37
1000
0000
0000
0000
,  // measure 38
0100
0000
0000
0000
,  // measure 39
0010
0000
0000
0000
,  // measure 40
0001
0000
0000
0000
,  // measure 41
1000
0000
0000
0000
,  // measure 42
0001
0000
0000
0000
,  // measure 43
1000
0000
0001
0000
,  // measure 44
0010
0000
0100
0000
,  // measure 45
1000
1000
0000
0000
,  // measure 46
0010
0010
0000
0000
,  // measure 47
0100
0000
0001
0000
,  // measure 48
1001
0000
0000
0000
,  // measure 49
0001
0000
1000
0000
,  // measure 50
0010
0000
1000
0000
,  // measure 51
0100
0000
0010
0000
,  // measure 52
0100
0000
1000
0000
,  // measure 53
0010
0000
0100
0000
,  // measure 54
0001
0000
0010
0000
,  // measure 55
0001
0000
0100
0000
,  // measure 56
1000
0000
0000
0000
,  // measure 57
0001
0001
0001
0000
,  // measure 58
1000
1000
1000
0000
,  // measure 59
0010
0000
0100
0000
,  // measure 60
0010
0010
0010
0000
,  // measure 61
1000
1000
1000
0000
,  // measure 62
0001
0001
0001
0000
,  // measure 63
1000
0000
0010
0000
,  // measure 64
0100
0100
0100
0000
,  // measure 65
1001
0000
0000
0000
;
