#TITLE:Wings;
#SUBTITLE:;
#ARTIST:Little Mix;
#TITLETRANSLIT:;
#SUBTITLETRANSLIT:;
#ARTISTTRANSLIT:;
#GENRE:;
#CREDIT:;
#BANNER:Wings-bn.png;
#BACKGROUND:Wings-bg.png;
#LYRICSPATH:;
#CDTITLE:;
#MUSIC:Wings.ogg;
#OFFSET:1.000000;
#SAMPLESTART:44.913044;
#SAMPLELENGTH:20.000000;
#SELECTABLE:YES;
#DISPLAYBPM:115.000000;
#BPMS:0.000000=115.000000
;
#STOPS:
;
#BGCHANGES:;
#KEYSOUNDS:;
#ATTACKS:;

//---------------dance-single - ----------------
#NOTES:
     dance-single:
     :
     Hard:
     12:
     0.521897,0.601344,0.499161,0.354477,0.170004,505.000000,436.000000,69.000000,49.000000,0.000000,0.000000,0.521897,0.601344,0.499161,0.354477,0.170004,505.000000,436.000000,69.000000,49.000000,0.000000,0.000000:
0000
0000
0000
0000
,
0000
0000
0000
0000
,
0001
0010
0100
2000
0000
3010
1000
0100
,
0010
0000
0001
0000
1000
0000
0100
0000
0000
0000
0101
0000
0000
1100
0000
0000
,
0001
1000
0010
0200
0000
0301
0010
1000
,
0100
0010
0001
2000
0100
3000
1001
0010
,
1000
0001
0100
0020
0000
0130
0010
1000
,
0100
0010
0001
0200
0000
0310
1000
0001
,
0010
0001
0100
1010
0000
0001
1000
0100
,
0010
0100
0000
0012
1003
0001
0110
0000
,
2002
0000
0000
0000
3003
0000
1000
0100
0000
0100
0010
0000
0001
0000
1000
0000
,
2200
0000
0000
0000
3300
3300
0010
0100
0000
0100
0001
0000
1000
0000
0010
0000
,
0202
0000
0000
0000
0303
0000
0001
0010
0000
0100
1000
0000
0001
0000
0100
0000
,
0001
0000
1000
0000
0010
0000
1000
0000
0200
0000
0000
0000
0310
0001
0100
0000
,
0220
0000
0000
0000
0330
0000
1000
0010
0000
1000
0001
0000
0010
0000
0100
0000
,
0022
0000
0000
0000
0033
0000
1000
0001
0000
1000
0100
0000
0010
0000
0001
0000
,
0200
0320
2030
3002
0000
0103
1010
0000
,
2000
3002
0023
0230
0000
1300
0110
0000
,
2002
0000
0000
0000
3003
0000
0000
0000
1000
0000
0000
0100
0000
0000
0010
0000
,
0022
0000
0000
0000
0033
0000
1000
0000
0001
0000
0000
0100
0000
0000
0010
0000
,
2020
0000
0000
0000
3030
0000
0000
0000
1000
0000
0000
0001
0000
0000
0100
0000
,
0101
1100
0011
1010
,
0010
0000
1000
0000
0100
0000
0001
0000
0100
0000
0010
0030
0001
0000
0100
0000
,
1000
0000
0100
0000
0001
0000
0010
0000
0000
0000
0011
0000
0000
1100
0000
0000
,
0001
0100
0010
0001
0010
1000
0100
0010
,
0100
0001
0100
1000
0010
0000
1001
0100
,
0010
0001
0010
1000
0010
0100
0001
1000
,
0010
0001
0010
1000
0100
0010
0001
1000
,
0010
1000
0100
0001
0100
1000
0010
0100
,
0001
0010
0100
1000
0000
1010
0000
0202
,
0300
0000
0000
1003
0100
0000
0000
0010
0002
0000
0000
0000
1003
0000
0010
0000
,
1000
0000
0100
0000
0010
0000
0001
0000
0100
0010
1000
0000
0001
0000
1000
0000
,
0200
0000
0000
0301
0100
0000
0000
1000
0200
0000
0010
0000
0310
0000
1000
0000
,
0001
0000
0100
0000
0010
0000
1000
0001
0000
1000
0100
0000
0010
0000
0001
0000
,
0100
0010
1000
0100
0001
0100
0010
0001
,
1000
0000
0010
0000
0100
0000
0001
0010
0000
0001
1000
0000
0100
0000
0010
0000
,
0001
0100
1000
0100
0010
0001
0010
1000
,
0100
0010
0001
1000
0000
1100
0000
0101
,
1000
0000
0010
0000
0100
0300
0001
0000
2000
0000
0000
0000
3100
0300
0010
0000
,
0110
1100
0011
1001
,
0010
0100
0001
1000
0200
0000
0310
0001
,
0101
0101
1010
1010
1100
1100
0011
0011
,
0000
0000
1000
0001
1000
0000
0010
0000
0100
0000
0001
0000
1000
0000
0000
0000
,
0010
0100
0010
0100
0010
0000
1000
0000
0001
0000
0100
0000
2002
0000
3003
0000
,
0000
0000
0001
0010
0001
0000
0100
0000
0010
0000
1000
0000
0100
0000
0000
0000
,
1000
0001
1000
0001
1000
0000
0010
0000
0100
0000
0001
0000
0011
0000
0000
0000
,
2200
0000
0000
0000
3300
0000
0000
0000
1000
0000
0000
0001
0000
0000
0100
0000
,
0202
0000
0000
0000
0303
0000
0010
0000
0100
0000
0000
0001
0000
0000
1000
0000
,
0220
0000
0000
0000
0330
0000
0000
0000
0010
0000
0000
1000
0000
0000
0001
0000
,
0011
0110
1100
1001
,
0100
1000
0100
0010
0100
0001
1000
0100
,
0001
0000
0100
0000
1000
0000
0010
0000
0000
0000
1010
0000
0000
1100
0000
0000
,
0001
1000
0010
0001
0010
0100
0010
1000
,
0100
0010
0001
0100
0010
0000
0101
1000
,
0100
0010
1000
0010
0001
0100
0010
0001
,
0010
0100
0010
1000
0100
0010
0001
1000
,
0100
0300
0010
0000
0001
0000
1000
0000
0010
0000
0100
0000
0001
0000
1000
0000
,
0010
1000
0001
0100
0000
0110
0000
1001
,
1000
0000
0000
1000
0001
0000
0100
0000
0010
0000
0110
0000
0110
0000
0000
0000
,
0001
0000
0000
0001
1000
0000
0010
0000
0100
0000
0101
0000
0101
0000
0000
0000
,
0010
0000
0000
0010
1000
0000
0001
0000
0100
0000
1001
0000
1001
0000
0000
0000
,
1000
0000
0000
1000
0100
0000
0010
0000
0001
0000
0011
0000
0011
0000
0000
0000
,
0010
0000
0000
0010
0001
0000
1000
0000
0100
0000
1100
0000
1100
0000
0000
0000
,
1000
0000
0000
0001
0010
0000
0100
0000
1000
0000
1010
0000
1010
0000
0000
0000
,
1000
0000
0000
1000
0001
0000
0100
0000
0010
0000
0101
0000
0101
0000
0000
0000
,
0020
0000
0031
1000
0000
0110
0000
2002
,
0000
0000
3003
0000
;

//---------------dance-single - ----------------
#NOTES:
     dance-single:
     :
     Medium:
     10:
     0.391681,0.384860,0.426819,0.441287,0.028937,379.000000,320.000000,59.000000,61.000000,0.000000,0.000000,0.391681,0.384860,0.426819,0.441287,0.028937,379.000000,320.000000,59.000000,61.000000,0.000000,0.000000:
0000
0000
0000
0000
,
0000
0000
0000
0000
,
0001
0000
1000
0000
0010
0000
0100
0110
,
0001
0000
0010
0000
0100
0000
1000
1100
,
0010
0000
0100
0000
0001
0000
1000
1010
,
0100
0000
0001
0000
1000
0000
0010
0110
,
1000
0000
0100
0000
0010
0000
0001
1001
,
0010
0000
1000
0000
0001
0000
0100
0101
,
0001
0000
0010
0000
0100
0000
1000
1010
,
0001
2000
0000
3002
0000
0103
0110
0000
,
2002
0000
3003
0000
0001
0010
0100
1000
,
2200
0000
3300
0000
0010
1000
0001
0100
,
0202
0000
0303
0000
0100
0010
1000
0001
,
0100
0000
0000
0010
1000
0010
1000
0000
0000
1001
0000
0000
,
0022
0000
0033
0000
0001
0100
0010
1000
,
2020
0000
3030
0000
1000
0001
0100
0010
,
1000
0100
0010
0002
0000
0003
0100
0000
,
0001
0010
0100
2000
0000
3000
1100
0000
,
2002
3000
0100
1003
,
2020
0030
0001
3010
,
0202
0300
0010
0103
,
0002
0023
0230
2300
,
3010
1000
0000
1100
0000
0010
0001
1000
,
0001
0000
0100
0000
0000
0000
0101
0000
0000
0000
0020
0000
0000
0230
0000
0000
,
0301
0010
0000
0110
0000
1000
0001
0100
,
0001
0010
0000
0011
0000
0000
1000
0100
,
1000
0001
0000
1001
0000
0000
1000
0001
,
0010
0100
0000
0110
0000
0000
0000
0001
,
1000
0001
1000
0200
0000
0320
0300
0031
,
2000
0000
3001
0200
0000
0320
0000
2030
,
0000
0000
3000
1000
0100
0000
0000
0010
3002
0000
0000
0000
0003
0000
0000
0000
,
1000
0001
0010
0000
0001
1000
0010
0000
,
0100
0000
0000
0001
1000
0000
0000
0010
0200
0000
0000
0000
0303
0000
1000
0000
,
0001
0010
0100
1000
0001
0100
0010
2000
,
0000
0100
3100
0000
1000
0001
0000
0010
,
0001
0100
0010
1000
0100
0010
0001
2000
,
0000
0010
3010
0000
1000
0001
0000
0010
,
0002
0000
1003
0020
0000
0230
0000
0301
,
1000
0000
1000
0100
0001
0000
0001
0100
,
0110
1001
0110
1001
,
0001
0000
0001
0010
1000
0000
1000
0010
,
0110
1001
0110
1001
,
0000
0001
1000
0010
1000
0001
0000
0000
,
0010
0001
0100
0001
1000
0000
2200
0000
,
3300
1000
0010
0100
0010
1000
0000
0000
,
0001
0010
0001
1000
0100
0000
0011
0000
,
0220
0300
1000
0031
,
0022
0030
0010
0103
,
2200
0300
0100
3001
,
2000
3020
0230
0302
,
0013
0001
0000
1001
0000
1000
0100
0010
,
0001
0000
1000
0000
0000
0000
1100
0000
0000
0000
0020
0000
0000
0230
0000
0000
,
0301
1000
0000
0101
0000
0010
1000
0100
,
1000
0001
0000
0011
0000
0000
1000
0100
,
1000
0001
0000
0110
0000
0000
0001
0100
,
0010
1000
0000
1100
0000
0000
0000
0001
,
1000
0010
0100
0002
0000
2003
0003
3100
,
0020
0000
0031
2000
0000
3002
0000
0103
,
0001
0000
1000
0000
0010
0110
0110
0000
,
0100
0000
0001
0000
1000
1100
1100
0000
,
1000
0000
0010
0000
0100
0101
0101
0000
,
0010
0000
0001
0000
0100
1001
1001
0000
,
1000
0000
0001
0000
0010
0011
0011
0000
,
0001
0000
0100
0000
0010
1010
1010
0000
,
1000
0000
0100
0000
0010
1100
1100
0000
,
0002
0000
1003
0001
0000
0110
0000
2002
,
0000
0000
3003
0000
;

//---------------dance-single - ----------------
#NOTES:
     dance-single:
     :
     Easy:
     7:
     0.257331,0.286475,0.137450,0.000000,0.000000,249.000000,230.000000,19.000000,0.000000,0.000000,0.000000,0.257331,0.286475,0.137450,0.000000,0.000000,249.000000,230.000000,19.000000,0.000000,0.000000,0.000000:
0000
0000
0000
0000
,
0000
0000
0000
0000
,
0001
0010
0001
0100
,
0010
1000
0100
0001
,
0010
0001
0100
0010
,
1000
0100
0001
1000
,
0010
0100
0010
1000
,
0100
0010
0001
1000
,
0001
0100
0010
1000
,
0100
0010
0001
0110
,
1001
0000
0010
1000
,
1100
0000
0001
0100
,
0101
0000
0010
0100
,
0001
0010
0100
1000
,
1010
0000
1000
0001
,
0011
0000
0100
0010
,
1000
0001
1000
0100
,
0010
0001
1000
0010
,
1001
0000
0100
0000
,
0101
0000
1000
0000
,
1100
0000
0001
0000
,
0010
0010
0100
0100
,
1000
0010
1000
0001
,
0010
0100
1000
0001
,
0010
0001
0100
1000
,
0010
0100
0010
1000
,
0100
0010
0001
1000
,
0010
1000
0001
0010
,
0001
0100
0010
1000
,
0100
0010
0001
1000
,
0001
1000
0001
0000
,
0010
0100
1000
0001
,
0100
0010
0100
0000
,
0001
0010
0100
1000
,
0001
0100
0001
0000
,
0010
1000
0100
0010
,
0100
1000
0100
0000
,
1000
0001
0100
0010
,
1000
0100
1000
0001
,
1000
1100
0001
0101
,
0010
0100
0001
1000
,
0001
0011
1000
1010
,
0001
0100
1000
0000
,
0010
0100
0001
0110
,
1000
0010
0100
0000
,
0001
1000
0100
1001
,
0110
0000
1000
0000
,
1010
0000
0001
0000
,
0011
0000
0010
0000
,
0001
0001
1000
1000
,
0010
1000
0100
0001
,
0010
0100
0010
0001
,
0100
0001
0010
0100
,
1000
0001
1000
0001
,
0010
0001
0100
1000
,
0010
1000
0100
0010
,
0100
1000
0001
0100
,
0001
0010
0100
1000
,
0010
0100
0010
0000
,
1000
0100
0010
0001
,
0100
0001
0100
0000
,
0010
0100
0001
1000
,
0100
0010
0001
0000
,
1000
0001
1000
0010
,
1000
0100
0010
0000
,
0001
0100
0010
1000
,
1001
0000
0000
0000
;

//---------------dance-single - ----------------
#NOTES:
     dance-single:
     :
     Beginner:
     3:
     0.127116,0.143237,0.072342,0.000000,0.000000,123.000000,113.000000,10.000000,0.000000,0.000000,0.000000,0.127116,0.143237,0.072342,0.000000,0.000000,123.000000,113.000000,10.000000,0.000000,0.000000,0.000000:
// measure 0
0000
0000
0000
0000
,  // measure 1
0000
0000
0000
0000
,  // measure 2
0001
0000
0001
0000
,  // measure 3
0100
0000
0100
0000
,  // measure 4
0010
0000
0010
0000
,  // measure 5
1000
0000
1000
0000
,  // measure 6
0100
0000
0100
0000
,  // measure 7
0010
0000
0010
0000
,  // measure 8
0001
0000
1000
0000
,  // measure 9
0110
0000
0000
0000
,  // measure 10
1001
0000
0000
0000
,  // measure 11
0010
0000
0000
0000
,  // measure 12
1000
0000
0000
0000
,  // measure 13
0001
0000
1000
0000
,  // measure 14
0110
0000
0000
0000
,  // measure 15
0001
0000
0000
0000
,  // measure 16
0010
0010
0000
0000
,  // measure 17
0100
0100
0000
0000
,  // measure 18
1001
0000
0000
0000
,  // measure 19
0010
0000
0000
0000
,  // measure 20
0100
0000
0000
0000
,  // measure 21
0001
0000
1000
0000
,  // measure 22
0100
0000
0100
0000
,  // measure 23
0010
0000
0010
0000
,  // measure 24
0001
0000
0001
0000
,  // measure 25
1000
0000
1000
0000
,  // measure 26
0001
0000
0001
0000
,  // measure 27
0010
0000
0010
0000
,  // measure 28
0100
0000
0100
0000
,  // measure 29
1000
0000
1000
0000
,  // measure 30
0010
0000
0010
0000
,  // measure 31
1000
0000
0001
0000
,  // measure 32
0100
0000
0100
0000
,  // measure 33
0001
0000
1000
0000
,  // measure 34
0110
0000
0000
0000
,  // measure 35
0010
0000
0100
0000
,  // measure 36
1001
0000
0000
0000
,  // measure 37
1000
0000
0100
0000
,  // measure 38
0010
0000
0010
0000
,  // measure 39
0001
0000
0001
0000
,  // measure 40
1000
0000
1000
0000
,  // measure 41
0100
0000
0100
0000
,  // measure 42
1000
0000
1000
0000
,  // measure 43
0010
0000
0010
0000
,  // measure 44
0100
0000
0100
0000
,  // measure 45
0001
0000
0001
0000
,  // measure 46
0110
0000
0000
0000
,  // measure 47
1000
0000
0000
0000
,  // measure 48
0001
0000
0000
0000
,  // measure 49
0100
0000
0010
0000
,  // measure 50
0100
0000
0100
0000
,  // measure 51
0001
0000
0001
0000
,  // measure 52
0010
0000
0010
0000
,  // measure 53
1000
0000
1000
0000
,  // measure 54
0010
0000
1000
0000
,  // measure 55
0001
0000
0100
0000
,  // measure 56
0001
0000
0010
0000
,  // measure 57
0100
0000
1000
0000
,  // measure 58
0001
0000
1000
0000
,  // measure 59
0100
0000
1000
0000
,  // measure 60
0100
0000
0010
0000
,  // measure 61
0001
0000
0010
0000
,  // measure 62
1001
0000
0000
0000
,  // measure 63
0100
0000
0010
0000
,  // measure 64
0110
0000
0000
0000
,  // measure 65
1000
0000
0001
0000
,  // measure 66
1001
0000
0000
0000
;

//---------------dance-single - ----------------
#NOTES:
     dance-single:
     :
     Challenge:
     14:
     0.624209,0.697559,0.491927,0.260432,0.466607,604.000000,536.000000,68.000000,36.000000,0.000000,0.000000,0.624209,0.697559,0.491927,0.260432,0.466607,604.000000,536.000000,68.000000,36.000000,0.000000,0.000000:
0000
0000
0000
0000
,
0000
0000
0000
0000
,
0001
0010
0100
1000
0010
0100
0001
1000
,
0100
0000
0010
0000
0001
0000
1000
0000
0010
0000
0100
0001
0000
0001
1000
0000
,
0100
0000
0010
0000
0100
0000
1000
0000
0010
0000
0100
0300
0001
0000
1000
0000
,
0001
0010
0100
1000
0010
0100
0001
1000
,
0100
0000
0010
0000
0100
0000
1000
0000
0010
0030
0100
0000
0001
0000
1000
0000
,
0010
1000
0001
0010
0100
1000
0001
0100
,
0001
0010
0100
1000
0010
0100
0010
1000
,
1100
0001
0100
0101
0010
1000
0110
0000
,
1001
0000
0100
0000
0010
0000
0001
1000
0000
1000
0010
0000
0100
0000
0001
0000
,
0011
0000
0010
0000
0100
0000
1000
0010
0000
0010
0100
0000
0001
0000
1000
0000
,
1010
0000
0001
0000
1000
0000
0100
0010
0000
0010
0001
0000
0100
0000
0010
0000
,
1000
0000
0000
0000
0000
0000
0001
0000
0000
0000
0000
0000
0010
0000
0000
0000
0100
0000
0000
0000
1000
0000
0000
0000
0010
0000
0000
0000
0000
0000
0100
0000
0000
0000
0000
0000
0001
0000
0000
1000
0000
0000
3100
0000
0000
0000
0000
0000
,
0110
0000
0010
0000
0001
0000
1000
0100
0000
1000
0010
0000
0100
0000
0001
0000
,
0011
0000
0001
0000
0100
0000
0001
1000
0000
1000
0010
0000
0100
0000
0001
0000
,
0011
0110
1100
1010
0010
0100
0101
0000
,
1010
0110
0101
0011
0100
1000
1010
0000
,
2002
0000
0000
0000
3003
0000
0000
0000
1100
0000
0000
0110
0000
0000
0011
0000
,
0202
0000
0000
0000
0303
0000
0010
0000
1010
0000
0000
1100
0000
0000
0011
0000
,
2200
0000
0000
0000
3300
0000
0000
0000
1001
0000
0000
0101
0000
0000
1010
0000
,
0002
0000
0000
0000
0013
0001
1000
0000
0200
0000
0000
0000
0320
0000
0000
0000
,
0031
0000
0100
0000
0010
0000
1000
0001
0100
0301
1000
0000
0010
0000
0100
0000
,
0010
0000
1000
0000
0100
0000
0010
0001
1000
0001
0100
0000
0010
0000
1000
0000
,
0100
0000
0010
0000
0100
0000
1000
0010
0100
0001
0010
0000
0100
0000
1000
0000
,
0001
0000
1000
0000
0001
0000
0010
0100
1000
0010
0100
0000
0001
0000
0010
0000
,
0100
0000
0010
0000
0100
0000
1000
0010
0100
0001
1000
0000
0100
0000
1000
0000
,
0001
0000
0010
0000
0001
0000
0100
0010
1000
0010
0130
0000
0001
0000
1000
0000
,
0100
0000
0010
0000
0001
0000
1000
0010
0100
0010
1000
0000
0001
0000
0010
0000
,
0100
1000
0001
0100
0010
1000
0100
0010
,
0012
0000
0000
1003
0200
0000
0000
0310
0002
0000
0100
0000
0103
0000
0010
0000
,
1000
0001
0000
0010
0000
0100
0000
1000
0010
0100
0010
0000
1000
0000
0001
0000
,
0201
0000
0000
0301
1000
0000
0000
0010
0200
0000
0001
0000
0301
0000
0010
0000
,
0100
1000
0000
0010
0000
0100
0000
0001
0010
0000
0100
0000
1000
0000
0001
0000
,
0100
0000
0010
1000
0100
0000
0000
0000
0010
0001
0100
0000
0000
0000
0001
0000
,
1000
0001
0000
0010
0000
0100
0000
1000
0001
0000
1000
0000
0010
0000
0100
0000
,
0001
0000
0010
0001
0100
0000
0000
0000
0010
1000
0100
0000
0000
0000
0001
0000
,
0010
0001
0100
0010
1000
0100
1000
0001
,
0010
0001
0000
0100
0000
0010
0000
2000
0001
0000
0000
0000
3100
0000
0010
0000
,
0011
0101
1100
1010
,
0001
1000
0000
0100
0000
0010
0000
0002
0100
0000
0000
0000
1003
0000
0001
0000
,
0011
1010
0101
1100
1010
0101
1100
0011
,
1000
0010
1000
0010
1000
0001
0000
0110
0000
0001
1000
0000
0100
0000
0000
0010
,
0001
0100
1000
0100
0001
0010
0000
0100
0000
1000
0001
0000
2002
0000
3003
0000
,
0010
0001
1000
0001
1000
0010
0000
0101
0000
0001
0010
0000
0100
0000
0000
1000
,
0010
0001
0010
1000
0100
0010
0000
0001
0000
0100
0010
0000
1010
0000
0000
0000
,
0220
0000
0000
0000
0330
0000
0000
0000
0101
0000
0000
0011
0000
0000
1100
0000
,
2020
0000
0000
0000
3030
0000
0001
0000
1001
0000
0000
1100
0000
0000
0110
0000
,
0022
0000
0000
0000
0033
0000
0000
0000
1100
0000
0000
0101
0000
0000
1001
0000
,
0020
0000
0000
0000
1030
0100
0010
0000
0002
0000
0000
0000
2003
0000
0000
0000
,
3100
0000
0010
0000
0100
0000
1000
0001
0010
0001
0100
0000
0010
0000
1000
0000
,
0100
0000
0010
0000
0100
0000
1000
0010
0001
0010
1000
0000
0100
0000
0010
0000
,
0001
0000
0100
0000
0010
0000
0001
0010
1000
0100
1000
0000
0010
0000
0100
0000
,
0001
0000
0010
0000
0100
0000
1000
0010
0100
1000
0100
0000
0001
0000
0010
0000
,
0100
0000
0010
0000
0001
0000
0100
0010
1000
0001
0010
0000
0100
0000
1000
0000
,
0010
0000
1000
0000
0100
0000
0010
1000
0010
0001
0100
0000
0010
0000
0100
0000
,
0001
0000
0010
0000
0100
0000
1000
0001
0010
0100
2000
0000
3002
0000
3103
0000
,
0010
1000
0100
0010
0001
0100
0010
1000
,
1200
0000
0000
1300
0020
0000
0000
0130
0001
1000
0001
0000
0010
0000
0100
0000
,
1000
0001
0000
0010
0000
0001
0000
0100
0010
1000
0010
0000
1000
0000
0100
0000
,
0210
0000
0000
1300
0002
0000
0000
0103
0010
1000
0010
0000
0100
0000
0001
0000
,
0010
0100
0000
1000
0000
0001
0000
0010
0001
0100
0001
0000
1000
0000
0010
0000
,
0100
0000
0000
0001
0010
0000
0100
0000
1000
0010
0100
0000
1001
0000
0001
0000
,
0010
0001
0000
1000
0000
0010
0000
1000
0100
0010
0100
0000
1000
0000
0001
0000
,
0100
0000
0000
0010
1000
0000
0001
0000
0010
0100
1000
0000
1100
0000
0001
0000
,
0012
0000
0103
0101
0000
1100
0000
2002
,
0000
0000
3003
0000
;
