#VERSION:0.83;
#TITLE:White Lovers;
#SUBTITLE:;
#ARTIST:新谷さなえ;
#TITLETRANSLIT:;
#SUBTITLETRANSLIT:;
#ARTISTTRANSLIT:Sana Shintani;
#GENRE:;
#ORIGIN:;
#CREDIT:;
#BANNER:White Lovers.png;
#BACKGROUND:White Lovers-bg.png;
#PREVIEWVID:;
#JACKET:White Lovers-jacket.png;
#CDIMAGE:;
#DISCIMAGE:;
#LYRICSPATH:;
#CDTITLE:;
#MUSIC:White Lovers.ogg;
#OFFSET:0.000000;
#SAMPLESTART:66.567001;
#SAMPLELENGTH:15.000000;
#SELECTABLE:YES;
#DISPLAYBPM:125.000000;
#BPMS:0.000=125.302;
#STOPS:;
#DELAYS:;
#WARPS:;
#TIMESIGNATURES:0.000=4=4;
#TICKCOUNTS:0.000=4;
#COMBOS:0.000=1;
#SPEEDS:0.000=1.000=0.000=0;
#SCROLLS:0.000=1.000;
#FAKES:;
#LABELS:0.000=Song Start;
#BGCHANGES:;
#KEYSOUNDS:;
#ATTACKS:
;

//---------------dance-single - ----------------
#NOTEDATA:;
#CHARTNAME:;
#STEPSTYPE:dance-single;
#DESCRIPTION:;
#CHARTSTYLE:;
#DIFFICULTY:Beginner;
#METER:2;
#RADARVALUES:0.105773,0.145234,0.037970,0.000000,0.000000,78.000000,74.000000,4.000000,0.000000,0.000000,0.000000,0.000000,0.000000,0.000000,0.105773,0.145234,0.037970,0.000000,0.000000,78.000000,74.000000,4.000000,0.000000,0.000000,0.000000,0.000000,0.000000,0.000000;
#CREDIT:;
#DISPLAYBPM:125.000000;
#NOTES:
0000
0000
0000
0000
,
0000
0000
0000
0000
,
0000
0000
0000
0000
,
0000
0000
0000
0000
,
0000
0000
0000
0000
,
1000
0000
0000
0000
,
0001
0000
0000
0000
,
0010
0000
0000
0000
,
0100
0000
0100
0000
,
1000
0000
0000
0000
,
0001
0000
0000
0000
,
1000
0000
0000
0000
,
0001
0000
0000
0000
,
0010
0000
0000
0000
,
0100
0000
0000
0000
,
0010
0000
0000
0000
,
1001
0000
0000
0000
,
0010
0000
0100
0000
,
0010
0000
0100
0000
,
1000
0000
0001
0000
,
1000
0000
0001
0000
,
0010
0000
0010
0000
,
0100
0000
0100
0000
,
1000
0000
0001
0000
,
1001
0000
0000
0000
,
0100
0000
0100
0000
,
0001
0000
0001
0000
,
0100
0000
0100
0000
,
1000
0000
1000
0000
,
0010
0000
0010
0000
,
0001
0000
0100
0000
,
1000
0000
0100
0000
,
0100
0000
0000
0000
,
0010
0000
0000
0000
,
1001
0000
0000
0000
,
0010
0000
1000
0000
,
0010
0000
0100
0000
,
0010
0000
0001
0000
,
0010
0000
0010
0000
,
0100
0000
0001
0000
,
0100
0000
0010
0000
,
0100
0000
1000
0000
,
0010
0000
0000
0000
,
0001
0000
1000
0000
,
0001
0000
0001
0000
,
1000
0000
0001
0000
,
1000
0000
1000
0000
,
0100
0000
0000
0000
,
0010
0000
0000
0000
,
1000
0000
0001
0000
,
0100
0000
0000
0000
,
1001
0000
0000
0000
;

//---------------dance-single - ----------------
#NOTEDATA:;
#CHARTNAME:;
#STEPSTYPE:dance-single;
#DESCRIPTION:;
#CHARTSTYLE:;
#DIFFICULTY:Easy;
#METER:3;
#RADARVALUES:0.135606,0.172762,0.056955,0.028477,0.000000,100.000000,94.000000,6.000000,3.000000,0.000000,0.000000,0.000000,0.000000,0.000000,0.135606,0.172762,0.056955,0.028477,0.000000,100.000000,94.000000,6.000000,3.000000,0.000000,0.000000,0.000000,0.000000,0.000000;
#CREDIT:;
#DISPLAYBPM:125.000000;
#NOTES:
0000
0000
0000
0000
,
0000
0000
0000
0000
,
0000
0000
0000
0000
,
0000
0000
0000
0000
,
0000
0000
0000
0000
,
1000
0000
0000
0000
,
0001
0000
0000
0000
,
1001
0000
0000
0000
,
0100
0100
0100
0100
,
1000
0000
1000
0000
,
0001
0000
0001
0000
,
1000
0000
0100
0000
,
1000
0000
0100
0000
,
0001
0000
0001
0000
,
1000
0000
1000
0000
,
0010
0000
0100
0000
,
1001
0000
0000
0000
,
0010
0000
0100
0000
,
0010
0000
0100
0000
,
1000
0000
0001
0000
,
1000
1000
0100
0000
,
0001
0000
1000
0000
,
0001
0001
0100
0000
,
0010
0000
0010
0000
,
1001
0000
0000
0000
,
0100
0000
0100
0000
,
0001
1000
0001
0000
,
0100
0000
0100
0000
,
1000
0001
1000
0000
,
0010
0000
0010
0000
,
0001
0001
1000
1000
,
0010
0000
0000
0000
,
0110
0000
0000
0000
,
1000
0000
0001
0000
,
1001
0000
0000
0000
,
0010
0000
1000
0000
,
0010
0000
0100
0000
,
0010
0000
0001
0000
,
0010
0000
0010
0010
,
0100
0000
0001
0000
,
0100
0000
0010
0000
,
0100
0000
1000
0000
,
1001
0000
0000
0000
,
0001
0000
1000
0000
,
0001
0001
1000
0000
,
1000
0000
0001
0000
,
1000
1000
0001
0000
,
0200
0000
0300
0000
,
0020
0000
0030
0000
,
1000
0000
0001
0000
,
0010
0000
0100
0000
,
0010
0000
0200
0000
,
0300
0000
0000
0000
;

//---------------dance-single - ----------------
#NOTEDATA:;
#CHARTNAME:;
#STEPSTYPE:dance-single;
#DESCRIPTION:;
#CHARTSTYLE:;
#DIFFICULTY:Medium;
#METER:6;
#RADARVALUES:0.254940,0.300436,0.189849,0.094924,0.000000,188.000000,168.000000,20.000000,10.000000,0.000000,0.000000,0.000000,0.000000,0.000000,0.254940,0.300436,0.189849,0.094924,0.000000,188.000000,168.000000,20.000000,10.000000,0.000000,0.000000,0.000000,0.000000,0.000000;
#CREDIT:;
#DISPLAYBPM:125.000000;
#NOTES:
0000
0000
0000
0000
,
0000
0000
0000
0000
,
0000
0000
0000
0000
,
1001
0000
0000
0000
,
0001
0001
1000
1000
,
0020
0000
0000
0030
,
0200
0000
0000
0300
,
2002
0000
0000
3003
,
0010
0010
0001
1000
,
0110
1000
0001
0100
,
0010
0001
1000
0100
,
0010
0010
1000
0001
,
0001
0100
1000
0100
,
0110
0001
1000
0100
,
0010
1000
0001
0100
,
0110
0000
0110
0000
,
1001
0100
0100
0100
,
0001
0100
0010
0100
,
1000
0100
0010
0100
,
0001
0010
1000
0010
,
0100
0010
1000
0001
,
1000
1000
1001
0000
,
0001
0001
1001
0000
,
0010
0010
0100
0100
,
0110
0000
1001
0000
,
1000
0100
0001
0110
,
0001
0100
1000
0110
,
1000
1000
0001
0001
,
0010
0010
1001
0000
,
0100
0100
0010
0010
,
0001
1000
0001
1000
,
0002
0000
1003
0100
,
2000
0000
3001
0100
,
0110
0000
1001
0000
,
0220
0000
0000
0330
,
1000
1000
0100
0001
,
0010
0001
0100
1000
,
0100
0010
1000
0010
,
0001
0010
1000
0100
,
0001
0001
0100
1000
,
0010
1000
0100
0001
,
0100
0010
0100
0010
,
0001
1000
0001
1000
,
0010
0010
1000
0100
,
0001
0010
0100
0001
,
0010
0010
0001
0100
,
1000
0010
0100
1000
,
0110
0010
1000
0001
,
0110
0010
0001
1000
,
0110
1000
0100
0010
,
0001
0010
0100
1000
,
0020
0000
0000
0200
0000
0000
0000
0000
,
0000
0000
0000
0330
;

//---------------dance-single - ----------------
#NOTEDATA:;
#CHARTNAME:;
#STEPSTYPE:dance-single;
#DESCRIPTION:;
#CHARTSTYLE:;
#DIFFICULTY:Hard;
#METER:10;
#RADARVALUES:0.414955,0.425617,0.170864,0.094924,0.009492,306.000000,288.000000,18.000000,10.000000,0.000000,0.000000,0.000000,0.000000,0.000000,0.414955,0.425617,0.170864,0.094924,0.009492,306.000000,288.000000,18.000000,10.000000,0.000000,0.000000,0.000000,0.000000,0.000000;
#CREDIT:;
#DISPLAYBPM:125.000000;
#NOTES:
0000
0000
0000
0000
,
0000
0000
0000
0000
,
0000
0000
0000
0000
,
0001
0000
0001
0000
,
0110
0100
0100
0100
,
1000
0010
1000
0001
1000
0100
1000
0001
,
0100
0001
0100
0010
0100
1000
0100
0010
,
0100
0000
0110
0000
,
1000
0100
1000
0010
0100
0010
0100
0001
,
0010
0000
0001
0100
0010
1000
0001
0000
,
0010
0000
1000
0100
0010
0001
1000
0000
,
0001
0000
1000
0010
0100
0010
1000
0100
,
0010
0001
0100
0000
0010
1000
0001
0000
,
1010
0000
0001
1000
0100
1000
0010
0000
,
0011
0000
1000
0001
0100
0001
0010
0000
,
1001
1000
0100
0000
1001
0001
0100
0000
,
1001
0010
0010
0010
,
0100
1000
0001
0100
0000
0010
0100
0001
,
1000
0100
1000
0010
0000
1000
0010
0010
,
0100
0000
0001
0010
0000
0100
0000
0000
,
1000
0000
0010
0100
0000
1001
0000
0000
,
0100
0000
1000
0100
0000
0001
0000
0100
,
0010
0100
1000
0100
0000
0001
0100
0001
,
1000
0000
0010
0100
0000
1000
0000
0000
,
0100
0010
0010
0000
0001
1000
1000
0000
,
0010
0100
0010
1000
0100
0001
0100
1000
,
0001
0100
0010
1000
0100
0010
0001
0000
,
0010
1000
0010
0001
1000
0100
1000
0010
,
0100
0001
0100
0010
1000
0001
1001
0000
,
0100
0010
0100
0001
0100
1000
0010
0100
,
0001
0010
0001
1000
0010
0100
0010
1000
,
0001
1000
0100
0020
0000
0031
0000
0100
,
1000
0100
1000
0020
0000
1030
0000
0000
,
0100
0000
0000
0010
0000
0000
0100
0000
0001
0000
0000
0000
1000
0000
0000
0000
,
0220
0000
0000
0330
,
0001
1000
0100
0010
0100
0010
0001
0100
,
0010
1000
0100
0001
0100
0000
1100
0000
,
1000
0001
0100
0010
0100
0010
1000
0100
,
0010
0001
0100
1000
0100
0000
0101
0000
,
0010
0000
1001
0000
0100
0010
0100
1000
,
0001
0010
0100
1000
0001
0100
0010
1000
,
0002
0000
0000
1000
2000
0000
3003
0000
,
0010
0000
0000
0000
0100
0000
0000
0000
0010
0000
0010
0000
1000
0001
0000
0000
,
0010
0001
1000
0001
0100
0010
1000
0100
,
0010
0100
0010
0001
0100
0000
1100
0000
,
0010
1000
0001
1000
0100
0010
0001
1000
,
0100
0001
0100
1000
0001
0000
0110
0000
,
1000
0000
0101
0000
0010
0100
0010
0100
,
0001
0010
0100
1000
0010
1000
0001
0100
,
0020
0000
0000
1000
2000
0000
3030
0000
,
0100
1001
0010
1001
,
0200
0000
0000
0020
0000
0000
0000
0000
,
0000
0000
0000
0330
;

//---------------dance-double - ----------------
#NOTEDATA:;
#CHARTNAME:;
#STEPSTYPE:dance-double;
#DESCRIPTION:;
#CHARTSTYLE:;
#DIFFICULTY:Easy;
#METER:3;
#RADARVALUES:0.146455,0.197443,0.075940,0.028477,0.000000,108.000000,100.000000,8.000000,3.000000,0.000000,0.000000,0.000000,0.000000,0.000000,0.146455,0.197443,0.075940,0.028477,0.000000,108.000000,100.000000,8.000000,3.000000,0.000000,0.000000,0.000000,0.000000,0.000000;
#CREDIT:;
#DISPLAYBPM:125.000000;
#NOTES:
00000000
00000000
00000000
00000000
,
00000000
00000000
00000000
00000000
,
00000000
00000000
00000000
00000000
,
00000000
00000000
00000000
00000000
,
00000000
00000000
00000000
00000000
,
00001000
00000000
00000000
00000000
,
00010000
00000000
00000000
00000000
,
00011000
00000000
00000000
00000000
,
01000000
01000000
01000000
01000000
,
00010000
00000000
00100000
00000000
,
00001000
00000000
00010000
00000000
,
00000010
00000000
00001000
00000000
,
00000100
00000000
00000001
00000000
,
00001000
00000000
00000010
00000000
,
00010000
00000000
00001000
00000000
,
00100000
00000000
00010000
00000000
,
10010000
00000000
00000000
00000000
,
00100000
00100000
01000000
00000000
,
10000000
10000000
00010000
00000000
,
01000000
00000000
00001000
00000000
,
00010000
00000000
00001000
00000000
,
00000010
00000010
00000100
00000000
,
00000001
00000001
00001000
00000000
,
00000100
00000000
00010000
00000000
,
00011000
00000000
00000000
00000000
,
01000000
00000000
01000000
00000000
,
00010000
10000000
00010000
00000000
,
00100000
00000000
00100000
00000000
,
00001000
00010000
00001000
00000000
,
00000100
00000000
00000100
00000000
,
00001000
00000001
00001000
00000000
,
00001001
00000000
00000001
00000000
,
00000110
00000000
00001000
00000000
,
00011000
00000000
00010000
00000000
,
01100000
00000000
00000000
00000000
,
10000000
00010000
00010000
00000000
,
00100000
00000000
00001000
00000000
,
00010000
00000100
00000100
00000000
,
00000010
00000000
00000001
00000000
,
00000001
00001000
00001000
00000000
,
00000010
00000000
00010000
00000000
,
00001000
01000000
01000000
00000000
,
10010000
00000000
00000000
00000000
,
00100000
00000000
01000000
00000000
,
00010000
00001000
00010000
00000000
,
00000010
00000000
00000100
00000000
,
00001000
00010000
00001000
00000000
,
02000000
00000000
03000000
00000000
,
00200000
00000000
00300000
00000000
,
10000000
00000000
01000000
00000000
,
00100000
00000000
00001000
00000000
,
00010000
00000000
00002000
00000000
,
00003000
00000000
00000000
00000000
;

//---------------dance-double - ----------------
#NOTEDATA:;
#CHARTNAME:;
#STEPSTYPE:dance-double;
#DESCRIPTION:;
#CHARTSTYLE:;
#DIFFICULTY:Medium;
#METER:7;
#RADARVALUES:0.256296,0.300436,0.199341,0.094924,0.000000,189.000000,168.000000,21.000000,10.000000,0.000000,0.000000,0.000000,0.000000,0.000000,0.256296,0.300436,0.199341,0.094924,0.000000,189.000000,168.000000,21.000000,10.000000,0.000000,0.000000,0.000000,0.000000,0.000000;
#CREDIT:;
#DISPLAYBPM:125.000000;
#NOTES:
00000000
00000000
00000000
00000000
,
00000000
00000000
00000000
00000000
,
00000000
00000000
00000000
00000000
,
01010000
00000000
00000000
00000000
,
00100000
00100000
01000000
00010000
,
00002000
00000000
00000000
00003000
,
00000200
00000000
00000000
00000300
,
00002002
00000000
00000000
00003003
,
00000010
00000010
00000001
00001000
,
00011000
00100000
10000000
01000000
,
00100000
00010000
00001000
01000000
,
00010000
10000000
01000000
00010000
,
00001000
00000010
00000100
00001000
,
00001001
00000010
00000100
00000100
,
00000101
00001000
00000001
00000100
,
00001100
00000000
00011000
00000000
,
01100000
10000000
10000000
10000000
,
00010000
01000000
00100000
01000000
,
10000000
01000000
00010000
00001000
,
00000100
00000001
00001000
00000001
,
00000010
00000001
00000100
00000100
,
00001000
00010000
00011000
00000000
,
00100000
00100000
01100000
00000000
,
00010000
00010000
10000000
10000000
,
01100000
00000000
00011000
00000000
,
00000010
00001000
00000100
00000101
,
00000010
00000001
00000100
00001100
,
00010000
00010000
00001000
00001000
,
00100000
00100000
10010000
00000000
,
01000000
01000000
00100000
00100000
,
01000000
00010000
01000000
00001000
,
00020000
00000000
00030010
00001000
,
00000200
00000000
00000310
00000001
,
00001001
00000000
00011000
00000000
,
20020000
00000000
00000000
30030000
,
10000000
10000000
01000000
00010000
,
00001000
00000100
00000001
00000010
,
00001000
00000010
00000001
00000100
,
00001000
00010000
01000000
10000000
,
00100000
00100000
10000000
00010000
,
00100000
01000000
00010000
00001000
,
00010000
00100000
00010000
00001000
,
00000100
00001000
00010000
00001000
,
00000010
00000010
00000001
00001000
,
00000010
00000100
00001000
00010000
,
00100000
00100000
00010000
01000000
,
10000000
00100000
01000000
00010000
,
01100000
00010000
00001000
00000100
,
00000110
00001000
00010000
00100000
,
01100000
10000000
01000000
00010000
,
00001000
00000010
00000001
00000100
,
00000002
00000000
00000000
00002000
00000000
00000000
00000000
00000000
,
00000000
00000000
00000000
00003003
;

//---------------dance-double - ----------------
#NOTEDATA:;
#CHARTNAME:;
#STEPSTYPE:dance-double;
#DESCRIPTION:;
#CHARTSTYLE:;
#DIFFICULTY:Hard;
#METER:10;
#RADARVALUES:0.402751,0.400581,0.170864,0.094924,0.009492,297.000000,279.000000,18.000000,10.000000,0.000000,0.000000,0.000000,0.000000,0.000000,0.402751,0.400581,0.170864,0.094924,0.009492,297.000000,279.000000,18.000000,10.000000,0.000000,0.000000,0.000000,0.000000,0.000000;
#CREDIT:;
#DISPLAYBPM:125.000000;
#NOTES:
00000000
00000000
00000000
00000000
,
00000000
00000000
00000000
00000000
,
00000000
00000000
00000000
00000000
,
00010000
00000000
00010000
00000000
,
00110000
01000000
01000000
01000000
,
10000000
01000000
00010000
00001000
,
00000100
00000001
00000100
00001000
,
00011000
00000000
10010000
00000000
,
10000000
01000000
00100000
00001000
00010000
00000100
00000010
00000001
,
00000100
00000000
00000010
00000001
00000100
00001000
00010000
00000000
,
00100000
00000000
00100000
10000000
01000000
00010000
00001000
00000000
,
00000010
00001000
00000100
00000000
00000001
00000100
00001000
00000000
,
00000010
00000100
00000001
00000000
00000100
00001000
00010000
00000000
,
10100000
00000000
00010000
10000000
01000000
10000000
00100000
00000000
,
00110000
00000000
10000000
01000000
00010000
00001000
00010000
00000000
,
00100000
00010000
00010000
00000000
00001000
00010000
00010000
00000000
,
00001010
00000100
00000100
00000100
,
00000010
00001000
00000010
00000000
00001000
00000001
00000100
00000000
,
00001000
00010000
01000000
00000000
10000000
00010000
01000000
00000000
,
00100000
10000000
00010000
00100000
00010000
01000000
00100000
10000000
,
01000000
00000000
00010000
00001000
00000000
00011000
00000000
00000000
,
00000100
00000001
00000100
00000000
00000010
00000100
00000001
00000000
,
00000100
00001000
00010000
00000000
01000000
00100000
00010000
00000000
,
10000000
00100000
01000000
00000000
00100000
10000000
01000000
00000000
,
00010000
01000000
01000000
00000000
00001000
00010000
00010000
00000000
,
00000010
00000100
00000010
00001000
00000100
00000001
00000100
00001000
,
00000010
00000100
00001000
00010000
01000000
10000000
00010000
00000000
,
00100000
01000000
00100000
00010000
10000000
01000000
00010000
00001000
,
00010000
00001000
00000010
00000100
00000001
00000100
00001000
00000000
,
00000001
00000010
00000001
00000100
00001000
00010000
00100000
10000000
,
00100000
10000000
00010000
01000000
00100000
10000000
01000000
00000000
,
00010000
00001000
00010000
00000200
00000000
00000310
00000000
00000001
,
00000100
00001000
00000100
00002000
00000000
00013000
00000000
00000000
,
01000000
00000000
00000000
00100000
00000000
00000000
10000000
00000000
00010000
00000000
00000000
00000000
01000000
00000000
00000000
00000000
,
00022000
00000000
00000000
00033000
,
00000110
00000000
00000001
00001000
00000010
00001000
00000001
00000100
,
00001000
00000100
00000001
00001000
00000100
00000000
00011000
00000000
,
00100000
00000000
10000000
00010000
01000000
00010000
10000000
01000000
,
00010000
01000000
10000000
00010000
01000000
00000000
00011000
00000000
,
00000100
00000000
00001001
00000000
00001000
00000010
00001000
00000100
,
00000001
00000100
00000010
00000001
00000100
00001000
00010000
00100000
,
02000000
00000000
00000000
00010000
00020000
00000000
03030000
00000000
,
00100000
00000000
00000000
00000000
01000000
00000000
00000000
00000000
00010000
00000000
10000000
00000000
00100000
01000000
00000000
00000000
,
00100000
00000000
11000000
00000000
00010000
00001000
00000100
00000001
,
00001000
00000010
00000100
00000001
00000100
00001000
00010000
00000000
,
00100000
10000000
01000000
10000000
01000000
00100000
00010000
10000000
,
01000000
00010000
00001000
00000010
00001000
00000000
00011000
00000000
,
00000100
00000000
00001010
00000000
00000100
00000001
00000100
00001000
,
00010000
00100000
01000000
00010000
00100000
00010000
10000000
00100000
,
02000000
00000000
00000000
00010000
00020000
00000000
03030000
00000000
,
00100000
01010000
00011000
00001100
,
00000020
00000000
00000000
00000002
00000000
00000000
00000000
00000000
,
00000000
00000000
00000000
00000033
;

//---------------dance-single - ----------------
#NOTEDATA:;
#CHARTNAME:;
#STEPSTYPE:dance-single;
#DESCRIPTION:;
#CHARTSTYLE:;
#DIFFICULTY:Challenge;
#METER:13;
#RADARVALUES:0.532933,0.575835,0.455637,0.284773,0.294266,393.000000,345.000000,48.000000,30.000000,0.000000,0.000000,0.000000,0.000000,0.000000,0.532933,0.575835,0.455637,0.284773,0.294266,393.000000,345.000000,48.000000,30.000000,0.000000,0.000000,0.000000,0.000000,0.000000;
#CREDIT:;
#DISPLAYBPM:125.000000;
#NOTES:
// measure 0
0000
0000
0000
0000
,  // measure 1
0000
0000
0000
0000
,  // measure 2
0000
0000
0000
0000
,  // measure 3
0000
0000
0000
0000
,  // measure 4
0000
0000
0000
0000
,  // measure 5
1000
0010
0000
0010
0000
0010
0000
0010
,  // measure 6
0001
0010
0000
0010
0000
0010
0000
0010
,  // measure 7
2000
0000
0000
0100
0000
0000
0000
0000
0000
0001
0000
0000
0002
0000
0000
0000
0000
0000
3003
0000
0000
0100
0000
0010
,  // measure 8
0000
0000
0010
1000
0000
0010
1000
0000
0010
1000
0000
0010
1000
0000
0010
1000
0000
0010
1000
0000
0010
1000
0000
0010
,  // measure 9
0100
0001
0010
0200
0000
0000
1300
0001
,  // measure 10
0010
0001
0010
0001
0010
0000
0200
0000
0000
0000
0000
0000
1000
0000
1300
0000
,  // measure 11
0010
0100
0010
0100
0010
0000
0100
0000
0001
0000
1000
0000
0001
0000
0100
0000
,  // measure 12
0101
1100
0011
1010
,  // measure 13
0001
0100
0001
0100
0001
0000
2000
0000
0000
0000
0000
0000
3010
0000
0100
0000
,  // measure 14
0001
0100
0001
0100
0001
0000
0020
0000
0000
0000
0000
0000
0130
0000
1000
0000
,  // measure 15
0010
1000
0010
1000
0010
0000
0100
0000
0001
0000
0010
0000
0100
0000
1000
0000
,  // measure 16
1001
1100
0110
0011
,  // measure 17
1001
1000
0100
0010
0000
0001
1000
0010
,  // measure 18
0110
0100
0001
1000
0000
0100
1000
0010
,  // measure 19
0100
0001
0010
0100
1000
0001
0010
0000
,  // measure 20
0001
0100
0010
1000
0000
1100
0101
0000
,  // measure 21
0011
0001
1000
0010
0000
1000
0100
0010
,  // measure 22
1001
0001
0100
0010
0000
1000
0001
1000
,  // measure 23
0010
1000
0100
0010
0001
0100
0010
1010
,  // measure 24
0101
0000
0001
0000
0001
1000
0000
0010
0100
0010
0100
0010
1000
0000
0001
0000
,  // measure 25
0010
0000
0001
0000
0001
0000
1000
0000
0010
1000
0000
0200
0000
0000
1000
0000
,  // measure 26
1300
0000
0010
0000
0010
0000
0100
0000
0001
1000
0000
0001
0000
0100
0010
0100
,  // measure 27
0001
0000
1000
0000
1000
0000
0100
0000
0010
0001
0000
0200
0000
0000
0001
0000
,  // measure 28
0301
0000
0100
0000
0100
0000
0010
0000
1000
0100
1000
0100
1000
0001
1000
0001
,  // measure 29
0010
0000
0100
0000
0100
0000
1000
0000
0010
1000
0000
0002
0000
0000
0100
0000
,  // measure 30
0103
0000
0001
0000
0001
0000
1000
0000
0010
1000
0000
0100
0000
0010
0001
0100
,  // measure 31
0001
1000
0010
2000
0000
3100
1100
0001
,  // measure 32
0010
0100
1000
0020
0000
0130
0101
1000
,  // measure 33
0002
0000
0000
0023
0000
0000
0230
0000
2300
0000
0000
0000
3002
0000
0000
0000
,  // measure 34
0103
0010
0100
0010
0100
0010
0100
0010
0100
0000
0000
0000
0101
0000
0000
0000
,  // measure 35
1002
0000
0000
0000
1003
0000
0100
0010
0002
0000
0000
0000
0103
0000
0010
1000
,  // measure 36
0100
1100
0011
0101
,  // measure 37
0120
0000
0000
0000
0130
0000
0001
1000
0020
0000
0000
0000
1030
0000
0100
0010
,  // measure 38
0001
0011
0110
1100
,  // measure 39
1010
0000
0001
0000
0011
0000
0010
0100
1000
0000
0010
0000
0100
0000
0001
0000
,  // measure 40
0010
0000
0001
0000
1000
0000
0000
0000
0010
1000
0000
0010
1000
0000
0100
0000
,  // measure 41
2100
0100
0100
0001
3002
1000
0013
0000
,  // measure 42
1001
0000
0000
0000
0110
0000
0000
0000
0001
0000
0001
0000
0001
1000
0000
0000
,  // measure 43
2100
0000
0000
0000
3010
0000
0100
0001
2000
0000
0000
0000
3010
0000
1000
0100
,  // measure 44
0010
0011
1001
0101
,  // measure 45
2010
0000
0000
0000
3100
0000
1000
0001
0020
0000
0000
0000
0130
0000
1000
0010
,  // measure 46
0100
0110
1010
1100
,  // measure 47
1001
0000
0010
0000
0101
0000
0001
1000
0100
0000
0010
0000
0001
0000
1000
0000
,  // measure 48
0100
0000
1000
0000
0001
0000
0000
0000
0010
0001
0000
0010
0001
0000
0100
0000
,  // measure 49
0020
0000
1000
0000
1030
0000
0100
0010
0002
0000
0100
0000
0103
0000
0000
0000
,  // measure 50
0011
1100
1010
0101
,  // measure 51
1001
0001
0100
0220
0000
0000
0000
0000
,  // measure 52
0000
0000
0000
0330
;
