#TITLE:What Is This Feeling;
#SUBTITLE:;
#ARTIST:Idina Menzel and Kristin Chenoweth;
#TITLETRANSLIT:;
#SUBTITLETRANSLIT:;
#ARTISTTRANSLIT:;
#GENRE:;
#CREDIT:;
#BANNER:What Is This Feeling-bn.png;
#BACKGROUND:What Is This Feeling-bg.png;
#LYRICSPATH:;
#CDTITLE:;
#MUSIC:What Is This Feeling.ogg;
#OFFSET:1.333333;
#SAMPLESTART:44.456142;
#SAMPLELENGTH:20.000000;
#LASTBEATHINT:0.844445;
#SELECTABLE:YES;
#DISPLAYBPM:152.000000;
#BPMS:0.000000=152.000000
;
#STOPS:
;
#BGCHANGES:;
#KEYSOUNDS:;
#ATTACKS:;

//---------------dance-single - ----------------
#NOTES:
     dance-single:
     :
     Hard:
     10:
     0.507355,0.566440,0.593413,0.449555,0.000000,395.000000,329.000000,66.000000,50.000000,0.000000,0.000000,0.507355,0.566440,0.593413,0.449555,0.000000,395.000000,329.000000,66.000000,50.000000,0.000000,0.000000:
0000
0000
0000
0000
,
0000
0000
0000
0000
,
0000
0000
0000
0000
,
0000
0000
0000
0000
,
0000
0000
0000
0000
0000
0000
0001
0101
,
0000
0000
0000
0000
0000
0000
1000
1100
,
0000
0000
0000
0000
0000
0000
0010
1010
,
0000
0000
0000
0000
,
0011
0001
1000
1001
0000
0110
0000
0000
,
0002
0000
2003
0000
3020
0000
0130
0010
,
1000
0000
1000
0001
0000
0010
0100
0000
,
2000
0000
3020
0000
0230
0000
0301
0010
,
0100
0000
1000
0010
0000
0100
0001
0000
,
0002
0000
0023
0000
0032
0000
1003
0010
,
0000
0010
0200
0000
0302
0000
0013
0100
,
2000
0000
3002
0000
2003
0000
3010
0100
,
0000
0100
0002
0000
0023
0000
0130
0000
,
1100
0000
1100
0000
1001
0000
0000
0002
,
0000
2003
0000
3200
0000
1300
0010
0100
,
0101
0000
0101
0000
1001
0000
0000
0020
,
0000
0230
0000
0302
0000
0013
0100
1000
,
1010
0000
1010
0000
1001
0000
0000
0020
,
0000
2030
0000
3200
0000
1300
0100
0010
,
0001
0100
0010
1000
0001
0000
0000
0010
,
0001
1000
0010
0210
0000
0301
1000
0100
,
1000
0000
1100
0000
0101
0000
0001
1000
,
0010
0000
0010
2000
0000
3001
0010
0100
,
1000
0000
1010
0000
0011
0000
0010
0100
,
1000
0000
1000
0010
0100
0001
0100
0001
,
0011
0000
1100
0000
0001
0010
0100
1000
,
0000
1010
0000
0101
0000
0001
0010
0100
,
0110
0000
0011
0000
0001
1000
0010
0100
,
0000
1010
0000
1001
0000
1000
0100
0010
,
0011
0000
0101
0000
0100
0010
1000
0001
,
0000
0010
0001
2000
0000
3010
0100
0000
,
1002
0000
0000
2003
0000
0000
3002
0000
,
0000
1003
0000
1200
0000
1300
0010
0100
,
0001
0000
0101
0000
1000
0010
0100
0001
,
0000
1000
0000
1010
0000
0010
0100
0001
,
1000
0100
0010
0001
0000
0101
0000
0110
,
0000
0010
1000
0200
0000
1300
0010
0100
,
0002
0000
1000
2003
0000
0010
3020
0000
,
0100
0230
0000
0001
0302
0000
1003
0000
,
2100
0001
0010
3100
,
0102
1000
0100
0013
,
1001
0000
1010
0000
0001
0010
0100
1000
,
0000
1100
0000
0101
0001
0010
0001
1000
,
1100
0000
0110
0000
0010
0001
1000
0100
,
0000
0110
0000
0011
0001
1000
0010
0100
,
0110
0000
1001
0000
0001
0010
0100
1000
,
0010
0100
0001
1000
0000
0001
0100
0000
,
0120
0000
0000
0230
0000
0000
0320
0000
,
0000
1030
0000
2100
0000
3001
1000
0010
,
0100
0000
0101
0000
0010
0100
0001
1000
,
0000
0001
0010
0200
0000
1300
0001
0100
,
0010
1000
0001
0100
0000
0102
0000
2003
,
0000
3010
1000
0002
0000
0013
0001
0100
,
0001
0000
0001
1000
0100
0000
0110
0000
,
0010
0001
1000
0000
0010
1000
0001
0000
,
0100
0000
0100
0010
1000
0000
1001
0000
,
0001
0010
0100
0000
0100
0010
0001
0000
,
0101
0000
1000
0001
0100
0000
1010
0000
,
1100
0000
1000
0001
0010
0000
0011
0000
,
1000
0001
1000
0001
1000
0001
1000
0001
,
1001
0000
0010
0200
0000
0301
1000
0000
,
1100
0000
0101
0000
0001
1000
0010
0200
,
0000
0010
0000
1000
0000
0301
0010
0100
,
1000
0000
0010
0100
0000
0101
0000
1100
,
0000
1010
0000
0011
0000
0001
1000
0000
,
0000
0000
0000
0000
,
1001
0000
0000
0000
;

//---------------dance-single - ----------------
#NOTES:
     dance-single:
     :
     Medium:
     8:
     0.371204,0.409095,0.269733,0.143858,0.000000,289.000000,259.000000,30.000000,16.000000,0.000000,0.000000,0.371204,0.409095,0.269733,0.143858,0.000000,289.000000,259.000000,30.000000,16.000000,0.000000,0.000000:
0000
0000
0000
0000
,
0000
0000
0000
0000
,
0000
0000
0000
0000
,
0000
0000
0000
0000
,
0000
0000
0000
0000
0000
0000
0000
1001
,
0000
0000
0000
0000
0000
0000
0000
1100
,
0000
0000
0000
0000
0000
0000
0000
0101
,
0000
0000
0000
0000
,
0001
0010
0100
1000
0000
1001
0000
0000
,
0010
1000
0001
1000
,
0001
0000
1000
0100
0000
1000
0100
0000
,
1000
0010
0100
0001
,
0010
0000
0001
0100
0000
0001
0100
0000
,
1002
0000
0010
0000
0100
0000
0000
1000
,
0000
0013
0001
0000
0100
0000
0000
0000
,
0210
0000
1000
0000
0001
0000
0000
0010
,
0000
0301
0100
0000
0010
0000
1000
0000
,
0001
1000
1001
0000
,
0010
0100
0010
1000
,
0010
0100
0110
0000
,
0001
0010
0001
1000
,
0010
1000
1001
0000
,
0001
0100
0110
0000
,
0000
1000
0001
1000
0001
0000
0000
0100
,
0010
0100
0010
0000
2000
0000
3002
0000
,
0013
0000
0010
0000
0001
0000
1000
0001
,
0000
0000
0000
0100
0000
0010
1000
0000
,
0001
0000
0001
0000
1000
0000
0100
1000
,
0000
0000
0000
0000
0001
1000
0001
0000
,
0010
0000
0100
0000
1000
0010
1000
0000
,
0001
0000
0010
0000
0001
0000
0100
0010
,
1000
0000
0010
0000
0100
0001
0100
0000
,
0001
0000
0010
0000
0001
0000
1000
0100
,
0010
0000
0100
0000
1000
0001
1000
0000
,
0010
0000
0100
0000
0001
0010
0001
0000
,
1100
0000
0000
0101
0000
0000
1001
0000
,
0000
0000
0000
0000
0010
0100
0010
0000
,
1000
0000
0001
0000
0010
0001
0100
0000
,
0010
0000
1000
0000
0100
0010
0001
0000
,
0100
0000
0001
1000
0000
1010
0000
0011
,
0000
0000
0000
0000
0100
0010
0100
0000
,
0002
0000
0000
0023
0000
0000
0230
0000
,
0000
2300
0000
0000
0010
0000
3100
0000
,
2010
0010
0010
3010
,
0102
0100
0100
0103
,
1001
0000
0010
0000
0001
1000
0100
0000
,
1000
0000
0010
0000
0100
0001
1000
0000
,
0001
0000
1000
0000
0010
1000
0100
0000
,
0010
0000
0001
0000
0100
0010
1000
0000
,
0001
0000
1000
0000
0010
1000
0100
0000
,
0010
0000
0001
0000
0100
0010
1000
0000
,
1010
0000
0000
0011
0000
0000
1001
0000
,
0000
0000
0000
0000
1000
0100
1000
0100
,
1000
0000
0001
0000
0010
0100
1000
0000
,
0001
0000
0010
0000
0001
1000
0001
1000
,
0001
0000
0100
0010
0000
0101
0000
1100
,
0000
0000
0000
0000
0010
0100
0010
0100
,
0010
0000
0000
1000
0000
0000
0001
0000
,
0000
0100
0000
0000
0110
0000
1001
0000
,
1000
0000
0000
0100
0000
0000
0010
0000
,
0000
0001
0000
0000
0011
0000
1100
0000
,
0002
0000
0000
1000
0000
0000
0103
0000
,
2000
0000
0000
0001
0000
0000
3100
0000
,
1000
0001
1000
0000
0001
1000
0001
0000
,
1001
0000
0000
0010
0000
0000
0100
0000
,
0001
0000
0011
0000
0010
0001
0100
0000
,
0010
1000
0100
0000
1000
0010
0100
0000
,
0001
0000
0000
2000
0000
3020
0000
0230
,
0000
0302
0000
0013
0000
0001
1000
0000
,
0000
0000
0000
0000
,
1001
0000
0000
0000
;

//---------------dance-single - ----------------
#NOTES:
     dance-single:
     :
     Easy:
     6:
     0.249182,0.314689,0.116884,0.035964,0.000000,194.000000,181.000000,13.000000,4.000000,0.000000,0.000000,0.249182,0.314689,0.116884,0.035964,0.000000,194.000000,181.000000,13.000000,4.000000,0.000000,0.000000:
0000
0000
0000
0000
,
0000
0000
0000
0000
,
0000
0000
0000
0000
,
0000
0000
0000
0000
,
0000
0000
0000
0000
,
0000
0001
1000
0000
,
0000
0010
0100
0000
,
0000
0001
0010
0000
,
0100
1000
0001
0000
,
0010
0001
1000
0001
,
0100
0100
0100
0000
,
0001
0010
0001
1000
,
0100
0100
0100
0000
,
1000
0001
1000
0000
,
0010
0100
0010
0000
,
1000
0001
0010
0100
,
1000
0010
0100
0001
,
1000
1000
1001
0000
,
0000
0000
0000
0000
,
0001
0001
1001
0000
,
0000
0000
0000
0000
,
1000
0001
1001
0000
,
0000
0000
0000
0000
,
0010
0100
0010
0000
,
1000
0001
0100
0010
,
1000
1000
0001
0001
,
0100
0000
0100
0010
,
1000
1000
0001
0001
,
0010
0000
0010
0100
,
1000
1000
1000
0000
,
0001
0010
0100
0000
,
0010
0010
0010
0000
,
0001
1000
0100
0000
,
0100
0100
0100
0000
,
1000
0010
0100
0001
,
0020
0000
0000
0000
,
0000
0000
0001
0031
,
1000
0100
1000
0001
,
0100
0000
0010
0010
,
1000
0010
1000
0001
,
0010
0000
0001
1000
,
1001
0000
0110
0000
,
1001
0000
0110
0000
,
2000
0000
0000
3000
,
0002
0000
0000
0003
,
0010
0010
0010
0000
,
0001
0100
0010
1000
,
0001
0001
0001
0000
,
0010
0001
1000
0100
,
1000
1000
1000
0000
,
0010
0100
0010
1000
,
0200
0000
0000
0000
,
0000
0000
1000
1300
,
0010
1000
0001
1000
,
0010
0000
0100
0010
,
0100
0001
0010
0100
,
1000
0000
0001
1000
,
0010
0000
0010
0000
,
0100
0000
0001
1000
,
0001
0000
0001
0000
,
1000
0000
0010
0100
,
1001
0000
1001
0000
,
0110
0000
0110
0000
,
1000
0001
1000
0001
,
1001
0000
0000
0000
,
0010
0010
0100
0100
,
0001
0001
1000
1000
,
0001
0000
0100
0000
,
0001
0001
0001
0001
,
0000
0000
0000
0000
,
1001
0000
0000
0000
;

//---------------dance-single - ----------------
#NOTES:
     dance-single:
     :
     Beginner:
     2:
     0.114316,0.220282,0.017982,0.000000,0.000000,89.000000,87.000000,2.000000,0.000000,0.000000,0.000000,0.114316,0.220282,0.017982,0.000000,0.000000,89.000000,87.000000,2.000000,0.000000,0.000000,0.000000:
0000
0000
0000
0000
,
0000
0000
0000
0000
,
0000
0000
0000
0000
,
0000
0000
0000
0000
,
0000
0000
0000
0000
,
0000
0001
0000
0000
,
0000
1000
0000
0000
,
0000
0001
0000
0000
,
0100
0000
0100
0000
,
0010
0000
0010
0000
,
0010
0000
0000
0000
,
1000
0000
1000
0000
,
1000
0000
0000
0000
,
0001
0000
0000
0000
,
0010
0000
0000
0000
,
0100
0000
0000
0000
,
1000
0000
0000
0000
,
0010
0010
0000
0000
,
0000
0000
0000
0000
,
0100
0100
0000
0000
,
0000
0000
0000
0000
,
0001
0001
0000
0000
,
0000
0000
0000
0000
,
0000
1000
1000
0000
,
0000
0000
0000
0000
,
0010
0000
0100
0000
,
0010
0000
0000
0000
,
1000
0000
0001
0000
,
1000
0000
0000
0000
,
0001
0001
0000
0000
,
0010
0000
0001
0000
,
1000
1000
0000
0000
,
0010
0000
0100
0000
,
0010
0010
0000
0000
,
0000
0000
1000
0000
,
0001
0000
0000
0000
,
0000
0000
0000
0000
,
1000
0000
0010
0000
,
0100
0000
0000
0000
,
0001
0000
0010
0000
,
0100
0000
0000
0000
,
1000
0000
0000
0100
,
0000
0000
1000
0000
,
0001
0000
0000
0000
,
1000
0000
0000
0000
,
0010
0010
0000
0000
,
1000
0000
0100
0000
,
1000
1000
0000
0000
,
0001
0000
0010
0000
,
0001
0001
0000
0000
,
0000
0000
0100
0000
,
0010
0000
0000
0000
,
0000
0000
0000
0000
,
1000
0000
1000
0000
,
0001
0000
0000
0000
,
0010
0000
0010
0000
,
0100
0000
0000
0000
,
1000
0000
0000
0000
,
0010
0000
0000
0000
,
0100
0000
0000
0000
,
0001
0000
0000
0000
,
0010
0000
0000
0000
,
0100
0000
0000
0000
,
1000
0000
0000
0000
,
1001
0000
0000
0000
,
0010
0010
0010
0000
,
0100
0100
0100
0000
,
0001
0000
0000
0000
,
1000
0000
0000
0000
,
0000
0000
0000
0000
,
1001
0000
0000
0000
;

//---------------dance-single - ----------------
#NOTES:
     dance-single:
     :
     Challenge:
     13:
     0.611395,0.629378,0.647360,0.161840,0.000000,476.000000,404.000000,72.000000,18.000000,0.000000,0.000000,0.611395,0.629378,0.647360,0.161840,0.000000,476.000000,404.000000,72.000000,18.000000,0.000000,0.000000:
// measure 0
0000
0000
0000
0000
,  // measure 1
0000
0000
0000
0000
,  // measure 2
0000
0000
0000
0000
,  // measure 3
0000
0000
0000
0000
,  // measure 4
0000
0000
0000
0000
0000
0000
0001
0011
,  // measure 5
0000
0001
0010
0001
1000
0100
1000
1100
,  // measure 6
0000
0010
1000
0001
1000
0010
0100
0101
,  // measure 7
0000
0001
1000
0100
1000
0001
0000
0000
,  // measure 8
1010
1000
0001
1001
0000
0110
0000
0000
,  // measure 9
0001
0100
1000
0000
0001
0010
0100
1000
,  // measure 10
0010
0000
1000
1100
0000
0001
0101
0000
,  // measure 11
1000
0010
0001
0000
1000
0100
0010
0001
,  // measure 12
0100
0000
0001
0011
0000
1000
1010
0000
,  // measure 13
0020
0000
2030
0000
3200
0000
1300
0010
,  // measure 14
0001
0010
1000
0000
0001
0100
1000
0000
,  // measure 15
0002
0000
0023
0000
0230
0000
1300
0010
,  // measure 16
0001
0010
1000
0000
1001
0000
0110
0000
,  // measure 17
0101
0000
0101
0000
1001
0000
0000
1100
,  // measure 18
0000
0110
0000
0012
0000
0013
0001
1000
,  // measure 19
1100
0000
1100
0000
1001
0000
0000
0011
,  // measure 20
0000
0110
0000
2100
0000
3010
1000
0001
,  // measure 21
0011
0000
0011
0000
1001
0000
0000
1010
,  // measure 22
0000
1001
0000
0102
0000
0013
0010
0010
,  // measure 23
0010
0001
0001
0001
0001
0000
0000
1000
,  // measure 24
1000
1000
1000
1002
0000
0100
0103
0010
,  // measure 25
1000
0001
0010
0000
0001
0100
0010
1000
,  // measure 26
0100
0010
0001
2001
0000
0010
3010
0100
,  // measure 27
0001
1000
0100
0000
1000
0010
0100
0001
,  // measure 28
0010
0000
0010
0001
1000
1000
0100
0100
,  // measure 29
1000
0010
0100
0010
0001
0010
0100
0001
,  // measure 30
0000
0011
0000
1100
1000
0010
0100
0001
,  // measure 31
0010
1000
0010
0100
0010
0001
1000
0010
,  // measure 32
0000
0110
0000
0101
0001
0010
1000
0010
,  // measure 33
0100
0010
1000
0010
0001
0100
0010
1000
,  // measure 34
0000
0001
1000
2010
0000
3001
0011
0000
,  // measure 35
0101
0000
0000
0110
0000
0000
1010
0000
,  // measure 36
0000
1100
0000
0102
0000
0010
0013
0001
,  // measure 37
1000
0010
0100
0001
1000
0100
0010
0001
,  // measure 38
0000
0101
0000
1010
0010
0100
0001
1000
,  // measure 39
0100
0010
0001
1000
0000
1100
0000
0101
,  // measure 40
0001
0010
0100
2100
0000
3010
1000
0001
,  // measure 41
0010
0001
0100
0010
0000
0010
1000
0100
,  // measure 42
1000
0001
0000
0001
0010
0100
1000
0000
,  // measure 43
0120
0000
0100
0000
1000
1000
1030
0000
,  // measure 44
2001
0000
0010
0000
0001
0001
3001
0000
,  // measure 45
1000
0001
0010
1000
0010
0100
0010
0001
,  // measure 46
0100
0010
1000
0001
0000
0001
1000
0100
,  // measure 47
1000
0010
0001
0010
0100
0010
0001
0010
,  // measure 48
1000
0100
0001
0100
0000
0100
1000
0010
,  // measure 49
0100
1000
0100
0001
0100
0010
1000
0001
,  // measure 50
0000
0010
0001
1000
0010
0100
0001
0000
,  // measure 51
0011
0000
0000
1001
0000
0000
1100
0000
,  // measure 52
0000
1010
0000
0101
0001
0010
0100
1000
,  // measure 53
0010
0100
0010
1000
0100
0010
0001
1000
,  // measure 54
0010
1000
0001
0012
0000
0013
0001
1000
,  // measure 55
0001
1000
0010
1000
0100
0010
0001
1000
,  // measure 56
0010
1000
0100
2100
0000
0001
3001
1000
,  // measure 57
0001
0010
0100
1000
0010
0100
0001
0000
,  // measure 58
1000
0010
0100
0001
0010
0100
1000
0000
,  // measure 59
0010
1000
0001
0010
0001
1000
0100
0000
,  // measure 60
1000
0001
1000
0010
0100
0001
0010
0000
,  // measure 61
0001
1000
0010
1000
0100
0010
0001
0000
,  // measure 62
0010
0100
1000
0001
1000
0010
0100
0000
,  // measure 63
1000
1000
0001
0001
1000
1000
0001
0001
,  // measure 64
1001
0000
0001
0011
0000
1000
1010
0000
,  // measure 65
0001
0010
0100
0010
0001
1000
0100
1000
,  // measure 66
0010
0100
0001
1000
0100
0010
0001
1000
,  // measure 67
1010
0000
1100
1100
0000
0011
0000
0101
,  // measure 68
0000
0110
0000
1001
0000
0110
0110
0000
,  // measure 69
0000
0011
0000
1100
0000
0000
0000
0000
,  // measure 70
1001
0000
0000
0000
;
