#VERSION:0.83;
#TITLE:What I Like About You;
#SUBTITLE:;
#ARTIST:The Romantics;
#TITLETRANSLIT:;
#SUBTITLETRANSLIT:;
#ARTISTTRANSLIT:;
#GENRE:;
#ORIGIN:;
#TAGS:;
#CREDIT:;
#BANNER:What I Like About You-bn.png;
#BACKGROUND:What I Like About You-bg.png;
#PREVIEWVID:;
#JACKET:What I Like About You-jacket.png;
#CDIMAGE:;
#DISCIMAGE:What I Like About You.png;
#LYRICSPATH:;
#CDTITLE:;
#MUSIC:What I Like About You.ogg;
#OFFSET:0.000000;
#SAMPLESTART:46.971001;
#SAMPLELENGTH:20.000000;
#SELECTABLE:YES;
#DISPLAYBPM:158.000000:163.000000;
#BPMS:0.000000=160.000000,
8.000000=161.000000,
47.000000=159.000000,
64.000000=158.000000,
80.000000=160.000000,
88.000000=159.000000,
104.000000=160.000000,
112.000000=158.000000,
119.000000=159.000000,
127.000000=161.000000,
144.000000=160.000000,
153.000000=159.000000,
158.000000=158.000000,
176.000000=161.000000,
192.000000=160.000000,
199.000000=162.000000,
212.000000=160.000000,
216.000000=161.000000,
223.000000=159.000000,
234.000000=160.000000,
245.000000=162.000000,
256.000000=161.000000,
262.000000=163.000000;
#STOPS:;
#DELAYS:;
#WARPS:;
#TIMESIGNATURES:0.000000=4=4;
#TICKCOUNTS:0.000000=4;
#COMBOS:0.000000=1;
#SPEEDS:0.000000=1.000000=0.000000=0;
#SCROLLS:0.000000=1.000000;
#FAKES:;
#LABELS:0.000000=Song Start;
#BGCHANGES:;
#KEYSOUNDS:;
#ATTACKS:
;

//---------------dance-single - ----------------
#NOTEDATA:;
#CHARTNAME:;
#CHARTHASH:2147483647:
#STEPSTYPE:dance-single;
#BANNER:;
#DESCRIPTION:;
#CHARTSTYLE:;
#DIFFICULTY:Beginner;
#METER:3;
#METERF:0.000000;
#RADARVALUES:0.176746,0.264987,0.110796,0.000000,0.000000,134.000000,122.000000,12.000000,0.000000,0.000000,0.000000,0.000000,0.000000,0.000000,0.176746,0.264987,0.110796,0.000000,0.000000,134.000000,122.000000,12.000000,0.000000,0.000000,0.000000,0.000000,0.000000,0.000000;
#CREDIT:;
#DISPLAYBPM:158.000000:163.000000;
#NOTES:
0000
0000
0000
0000
,
0000
0000
0000
0000
,
0000
0000
0000
0000
,
0000
0000
0000
0000
,
1000
1000
1000
0000
,
0001
0000
0100
0000
,
0001
0001
0001
0000
,
0100
0000
0000
0110
,
0000
0000
1000
0000
,
0001
0000
0010
0000
,
0001
0000
1000
0000
,
0010
0000
0000
0110
,
0000
0000
0010
0000
,
0100
0000
0001
0000
,
1000
0000
0001
0000
,
1000
0000
0100
0000
,
1001
0000
0000
0000
,
0000
0000
0001
0000
,
1000
0000
0000
0000
,
0000
0000
0000
0000
,
0010
0000
0010
0000
,
0100
0000
0100
0000
,
0001
0000
0000
0000
,
1000
0000
0000
0000
,
0001
0000
1000
0000
,
0010
0010
0010
0000
,
1000
0000
0001
0000
,
0100
0100
0100
0000
,
0001
0001
0001
0000
,
0000
0000
1000
0000
,
0010
0010
0010
0000
,
0000
0000
1000
0000
,
1001
0000
0000
0000
,
0000
0000
1000
0000
,
0010
0000
0000
0000
,
0000
0000
1000
0000
,
0010
0000
1001
0000
,
0001
0000
1000
0000
,
0100
0000
0000
0000
,
0010
0000
0000
0000
,
0001
0000
0100
0000
,
0010
0010
0010
0000
,
1000
0000
0100
0000
,
1000
1000
1000
0000
,
0001
0001
0001
0000
,
0000
0000
0010
0000
,
0100
0100
0100
0000
,
0000
0000
1000
0000
,
0010
0010
0010
0000
,
0000
0000
1000
0000
,
0100
0100
0100
0000
,
0000
0000
1000
0000
,
0001
0001
0001
0000
,
0000
0000
0000
0000
,
0100
0100
0100
0000
,
0000
0000
0000
0000
,
0010
0010
0010
0000
,
0000
0000
0000
0000
,
1000
1000
1000
0000
,
0010
0000
0000
0110
,
0000
0000
0001
0000
,
1000
0000
0100
0000
,
0000
1001
0000
0110
,
0000
1001
0000
0110
,
0000
0000
1000
0000
,
0100
0000
1000
0000
,
0010
0000
0100
0000
,
0001
0000
0000
0110
,
0000
0000
0010
0000
,
0100
0000
0001
0000
,
1000
0000
0100
0000
,
0010
0000
0000
1001
;

//---------------dance-single - ----------------
#NOTEDATA:;
#CHARTNAME:;
#CHARTHASH:2023823011:
#STEPSTYPE:dance-single;
#BANNER:;
#DESCRIPTION:;
#CHARTSTYLE:;
#DIFFICULTY:Easy;
#METER:6;
#METERF:0.000000;
#RADARVALUES:0.311284,0.364358,0.156961,0.000000,0.000000,236.000000,219.000000,17.000000,0.000000,0.000000,0.000000,0.000000,0.000000,0.000000,0.311284,0.364358,0.156961,0.000000,0.000000,236.000000,219.000000,17.000000,0.000000,0.000000,0.000000,0.000000,0.000000,0.000000;
#CREDIT:;
#DISPLAYBPM:158.000000:163.000000;
#NOTES:
0000
0000
0000
0000
,
0000
0000
0000
0000
,
0000
0000
0000
0000
,
0000
0000
0000
0000
,
1000
1000
1000
1000
,
0001
0100
0010
1000
,
0001
0001
0001
0001
,
1000
0010
0100
0110
,
1001
1000
0100
0000
,
1000
0010
0100
0001
,
0010
0100
1000
0000
,
0001
1000
0010
0110
,
1001
1000
0100
0000
,
1000
0010
0100
0001
,
0010
0100
1000
0000
,
0001
1000
0001
0100
,
1001
0000
0100
0000
,
0010
0000
1000
0100
,
1000
0000
0001
0000
,
0010
0000
0001
0000
,
0100
0100
0010
1000
,
0100
0010
0001
1000
,
0010
0000
0100
0000
,
0001
0000
1000
0001
,
0010
0010
0001
1000
,
0100
0100
0100
0000
,
1000
0010
1000
0001
,
0010
0100
1000
0000
,
0001
0100
0001
0000
,
0010
0001
1000
0100
,
1000
0010
1000
0000
,
0010
0100
0010
1000
,
1001
0000
0001
0000
,
0010
0000
0001
1000
,
0001
0000
0100
0000
,
0010
0000
1000
0000
,
0010
0100
1001
0110
,
0001
0010
0001
1000
,
0100
0000
1000
0000
,
0010
0000
1000
0001
,
0010
0010
0001
1000
,
0100
0100
0100
0000
,
1000
0010
1000
0100
,
0010
0001
1000
0000
,
0010
0010
0010
0000
,
0100
0010
1000
0001
,
0100
0100
0010
0000
,
1000
0100
1000
0001
,
0010
0010
0010
0000
,
0001
0100
0010
1000
,
0100
0100
0100
0000
,
1000
0010
1000
0001
,
1000
1000
1000
0000
,
0000
0000
0010
0100
,
0001
0001
0001
0000
,
0000
0000
1000
0010
,
0100
0100
0100
0000
,
0000
0000
0001
1000
,
0010
0010
0010
0000
,
1000
0001
0100
0110
,
1001
0001
0010
0000
,
0001
0100
0010
1000
,
0000
1100
0000
0101
,
0000
1100
0000
0101
,
1000
0001
0010
0000
,
0001
0100
0010
1000
,
0100
0010
0001
0000
,
1000
0001
0100
0110
,
1001
1000
0100
0000
,
1000
0001
0010
0100
,
1000
0010
0100
0000
,
0001
1000
0100
1001
;

//---------------dance-single - ----------------
#NOTEDATA:;
#CHARTNAME:;
#CHARTHASH:2147483647:
#STEPSTYPE:dance-single;
#BANNER:;
#DESCRIPTION:;
#CHARTSTYLE:;
#DIFFICULTY:Medium;
#METER:9;
#METERF:0.000000;
#RADARVALUES:0.451099,0.430605,0.230825,0.295456,0.000000,342.000000,317.000000,25.000000,32.000000,0.000000,0.000000,0.000000,0.000000,0.000000,0.451099,0.430605,0.230825,0.295456,0.000000,342.000000,317.000000,25.000000,32.000000,0.000000,0.000000,0.000000,0.000000,0.000000;
#CREDIT:;
#DISPLAYBPM:158.000000:163.000000;
#NOTES:
0000
0000
0000
0000
,
0000
0000
0000
0000
,
0000
0000
0000
0000
,
0000
0000
0000
0000
0000
1000
0001
1000
,
0001
0001
1000
1000
,
0010
0100
0001
1000
,
0010
0010
0100
0100
,
0001
0000
1000
0010
0000
0000
0110
0000
,
1001
0001
1000
0100
,
1000
0000
0001
0010
0000
0001
1000
0001
,
0000
0001
0010
0100
,
1000
0000
0010
0100
0000
0000
0110
0000
,
1001
0100
0001
0010
,
0001
0000
1000
0100
0000
1000
0001
1000
,
0000
0010
0100
0001
,
1000
0000
0001
0100
0001
0100
0001
0000
,
1001
1000
0010
0100
,
0001
0000
0010
0000
0001
1000
0000
1100
,
0000
1000
0010
0100
,
0001
0010
0001
1000
,
0010
1000
0100
0000
0010
0001
0100
0000
,
0001
0010
0001
0000
1000
0010
1000
0000
,
0100
0010
0001
1000
,
0001
0000
0100
0010
0000
1000
0001
1000
,
0001
0000
0101
0000
0100
0010
1000
0000
,
2000
3002
0203
0310
,
0010
1000
0100
1000
0010
0000
0100
0000
,
0001
0010
0001
1000
0000
0010
0100
0000
,
0002
0023
0032
1003
,
0010
0000
1000
0100
1000
0100
1000
0000
,
1020
0230
0302
1003
,
0100
0000
1000
0001
1000
0001
1000
0000
,
1001
0001
1000
0100
,
1000
0010
1000
0000
0001
0100
0001
0000
,
0011
0001
1000
0100
,
1000
0000
0010
0000
1000
0001
1000
0000
,
0010
0100
1001
0110
,
1000
0001
1000
0000
0001
0010
0001
0000
,
0100
0010
1000
0001
,
1000
0000
0001
0100
0000
0001
1000
0001
,
1000
0000
1010
0000
0001
0100
0010
0000
,
2000
3200
0320
0031
,
1000
0001
0010
0001
1000
0000
0010
0000
,
0100
0001
0100
0001
0000
1000
0100
0000
,
2000
3020
0230
0301
,
0010
0000
0001
1000
0001
1000
0001
0000
,
2001
3020
0230
0310
,
1000
0000
0001
0010
0001
0010
0001
0000
,
0201
0320
2030
3100
,
0010
0000
0001
1000
0001
1000
0001
0000
,
0012
0203
0320
1030
,
0001
0000
0100
0010
0100
0010
0100
0000
,
0002
2003
3100
0000
,
0000
0000
0010
0001
0010
0001
0010
0000
,
0002
0203
0310
0000
,
0000
0000
1000
0100
1000
0100
1000
0000
,
0020
2030
3001
0000
,
0000
0000
0100
0001
0100
0001
0100
0000
,
0020
0000
2030
0000
3100
0000
1000
0001
,
0000
0100
0000
0010
0000
0000
0110
0000
,
1001
0010
1000
0100
,
0010
0000
0001
1000
0000
0010
0100
0010
,
0000
1010
0001
0011
,
1000
1100
0001
0101
,
0010
1000
0001
1000
,
0100
0000
0010
0001
0000
0100
0010
0100
,
0000
0001
1000
0100
,
1000
0000
0010
0100
0000
0000
0110
0000
,
1001
1000
0001
0010
,
0100
0000
1000
0010
0000
1000
0100
1000
,
0000
0001
1000
0010
,
1000
0000
0001
0100
0000
0000
1001
0000
;

//---------------dance-single - ----------------
#NOTEDATA:;
#CHARTNAME:;
#CHARTHASH:2147483647:
#STEPSTYPE:dance-single;
#BANNER:;
#DESCRIPTION:;
#CHARTSTYLE:;
#DIFFICULTY:Hard;
#METER:12;
#METERF:0.000000;
#RADARVALUES:0.585637,0.563098,0.249291,0.350855,0.000000,444.000000,417.000000,27.000000,38.000000,0.000000,0.000000,0.000000,0.000000,0.000000,0.585637,0.563098,0.249291,0.350855,0.000000,444.000000,417.000000,27.000000,38.000000,0.000000,0.000000,0.000000,0.000000,0.000000;
#CREDIT:;
#DISPLAYBPM:158.000000:163.000000;
#NOTES:
// measure 0
0000
0000
0000
0000
,  // measure 1
0000
0000
0000
0000
,  // measure 2
0000
0000
0000
0000
,  // measure 3
0000
0000
0000
0000
0000
1000
1000
1000
,  // measure 4
1002
0000
2003
0000
3002
0000
0103
0010
,  // measure 5
2000
0000
3001
0100
0000
0010
1000
0001
,  // measure 6
1000
0100
0010
0000
0011
0000
0001
1000
,  // measure 7
0020
0000
1030
0002
0000
0103
0110
0000
,  // measure 8
1001
0000
0001
0100
0010
0000
1000
0100
,  // measure 9
0010
0000
0001
0100
0010
1000
0100
0010
,  // measure 10
0001
0000
0100
0010
1000
0000
0100
1000
,  // measure 11
0001
0000
1000
0001
0100
0010
0110
0000
,  // measure 12
0101
0000
0001
1000
0100
0000
1000
0010
,  // measure 13
0100
0000
0001
0010
0001
0100
0010
1000
,  // measure 14
0100
0000
1000
0010
0100
0000
0001
1000
,  // measure 15
0010
0000
1000
0001
1000
0100
0010
0000
,  // measure 16
0011
0000
0001
1000
0010
0000
1000
0100
,  // measure 17
0010
0000
0001
0100
0001
1000
0010
0100
,  // measure 18
0001
0000
1000
0010
1000
0000
0100
0010
,  // measure 19
0002
0000
0103
0020
0000
1030
0001
0000
,  // measure 20
1000
0010
1000
0001
0010
0100
1000
0000
,  // measure 21
0001
1000
0010
1000
0001
0010
0100
1000
,  // measure 22
0010
0000
1000
0001
0100
0000
0010
0100
,  // measure 23
0001
0000
0010
0001
0000
1000
1000
1000
,  // measure 24
1100
0000
0101
0000
1000
0001
0100
0000
,  // measure 25
0001
1000
0010
0100
0010
1000
0001
0000
,  // measure 26
1000
0100
0001
0100
1000
0010
0100
0001
,  // measure 27
0010
1000
0010
0001
0000
0100
0010
1000
,  // measure 28
0002
0000
0023
0000
0230
0000
1300
0010
,  // measure 29
0100
0001
0010
0001
0100
0010
1000
0000
,  // measure 30
1200
0000
2300
0000
3002
0000
0013
0001
,  // measure 31
0100
0000
0001
1000
0001
0100
0010
0000
,  // measure 32
1010
0000
1000
0100
0010
0000
0100
0010
,  // measure 33
0001
0000
0100
0001
1000
0010
1000
0100
,  // measure 34
0010
0000
0001
0100
0001
0000
1000
0010
,  // measure 35
0100
0000
0010
1000
0100
1000
0001
0000
,  // measure 36
0010
0000
0100
0000
1001
0010
0100
0000
,  // measure 37
0001
0010
0001
0100
0010
1000
0100
0010
,  // measure 38
0001
0000
0001
1000
0010
0000
1000
0100
,  // measure 39
0010
0000
0001
0100
0000
1000
1000
1000
,  // measure 40
1100
0000
0101
0000
1000
0001
0100
0000
,  // measure 41
0010
1000
0001
0010
0001
1000
0100
0000
,  // measure 42
1000
0010
0001
0010
1000
0100
0010
0001
,  // measure 43
0100
1000
0100
0001
0000
1000
0001
0010
,  // measure 44
0200
0000
2300
0000
3020
0000
0130
0001
,  // measure 45
0010
0001
1000
0001
1000
0010
0100
0000
,  // measure 46
0102
0000
2003
0000
3200
0000
1300
0010
,  // measure 47
0100
0010
1000
0100
0010
0001
1000
0000
,  // measure 48
1020
0000
2030
0000
3002
0000
0013
0001
,  // measure 49
0100
0001
1000
0100
1000
0010
0100
0000
,  // measure 50
0002
0000
2003
0000
3002
0000
0103
0010
,  // measure 51
1000
0100
0010
0001
0100
0010
1000
0000
,  // measure 52
0002
2003
3010
0000
,  // measure 53
1000
0010
1000
0100
0010
0001
1000
0000
,  // measure 54
0020
0230
0301
0000
,  // measure 55
1000
0010
1000
0100
0010
0001
0100
0000
,  // measure 56
0002
2003
3100
0000
,  // measure 57
1000
0010
0100
0010
1000
0001
0100
0000
,  // measure 58
0020
0000
2030
0000
3100
0000
1000
0010
,  // measure 59
0100
0001
1000
0010
0000
0100
0110
0000
,  // measure 60
1001
0000
0010
1000
0100
0000
0010
0001
,  // measure 61
0100
0000
0001
0010
0001
1000
0010
0100
,  // measure 62
0001
0000
0011
0001
0100
0000
0110
0010
,  // measure 63
1000
0000
1100
1000
0001
0000
1001
0000
,  // measure 64
0101
0000
1000
0010
0100
0000
0010
1000
,  // measure 65
0001
0010
0001
2000
0000
3010
0100
0001
,  // measure 66
1000
0000
0011
0001
1000
0010
1000
0100
,  // measure 67
0010
0001
0100
0020
0000
1030
1100
0000
,  // measure 68
0011
0000
0010
0001
1000
0000
0001
1000
,  // measure 69
0010
1000
0100
0020
0000
0031
1000
0001
,  // measure 70
0100
0000
0010
1000
0001
0000
1000
0100
,  // measure 71
0010
0001
1000
0002
0000
0103
1001
0000
;
