#VERSION:0.83;
#TITLE:Waterfalls;
#SUBTITLE:;
#ARTIST:TLC;
#TITLETRANSLIT:;
#SUBTITLETRANSLIT:;
#ARTISTTRANSLIT:;
#GENRE:;
#ORIGIN:;
#CREDIT:;
#BANNER:Waterfalls-bn.png;
#BACKGROUND:Waterfalls-bg.png;
#PREVIEWVID:;
#JACKET:Waterfalls-jacket.png;
#CDIMAGE:;
#DISCIMAGE:;
#LYRICSPATH:;
#CDTITLE:;
#MUSIC:Waterfalls.ogg;
#OFFSET:0.000000;
#SAMPLESTART:55.872421;
#SAMPLELENGTH:20.000000;
#SELECTABLE:YES;
#DISPLAYBPM:86.000000;
#BPMS:0.000=85.910,
95.667=95.910,
96.000=85.910;
#STOPS:;
#DELAYS:;
#WARPS:;
#TIMESIGNATURES:0.000=4=4;
#TICKCOUNTS:0.000=4;
#COMBOS:0.000=1;
#SPEEDS:0.000=1.000=0.000=0;
#SCROLLS:0.000=1.000;
#FAKES:;
#LABELS:0.000=Song Start;
#BGCHANGES:;
#KEYSOUNDS:;
#ATTACKS:
;

//---------------dance-single - ----------------
#NOTEDATA:;
#CHARTNAME:;
#STEPSTYPE:dance-single;
#DESCRIPTION:;
#CHARTSTYLE:;
#DIFFICULTY:Hard;
#METER:12;
#RADARVALUES:0.469139,0.566486,0.201517,0.082099,0.485133,440.000000,413.000000,27.000000,11.000000,0.000000,0.000000,0.000000,0.000000,0.000000,0.469139,0.566486,0.201517,0.082099,0.485133,440.000000,413.000000,27.000000,11.000000,0.000000,0.000000,0.000000,0.000000,0.000000;
#CREDIT:;
#DISPLAYBPM:86.000000;
#NOTES:
0000
0000
0000
0000
,
0000
0000
0000
0000
,
0000
0000
0000
0000
,
0000
0000
0000
0000
,
0110
0000
0001
0001
1000
1000
0010
0100
,
0001
0010
0100
2000
0000
0001
3001
0100
,
0010
0100
0001
1000
0001
0001
0100
0010
,
1000
0000
0000
0010
0000
0000
0010
0000
0100
0000
0000
0100
0001
0000
0000
0001
0000
0000
1000
0000
0000
0001
0000
0000
,
0010
0010
0001
1000
2100
0000
0100
3100
,
1000
0001
0011
0000
1010
0010
1000
0100
,
1000
0000
0000
1000
0000
0000
0010
0000
0000
0010
0000
0000
0100
0000
0000
0100
0000
0000
0001
0000
0000
0001
0000
1000
,
0010
0000
0000
0100
0000
0000
0101
0000
0000
0000
0000
0001
1000
0000
1000
0100
0000
0000
1000
0000
0000
0001
0000
0000
,
1001
0001
0001
0001
0100
0100
0010
0010
,
1000
0100
1000
0001
0000
0010
0010
0001
,
0010
0010
0001
1000
0100
1000
0010
0200
,
0001
1000
1300
0000
0010
0010
1000
0001
,
0100
0001
0010
0001
1000
1000
0100
0010
,
0001
1000
1000
0010
0000
0100
1001
0100
,
0001
0000
0000
0001
0000
0000
1000
0000
0000
1000
0000
0000
0100
0000
0000
0100
0000
0000
0010
0000
0000
0001
0000
1000
,
0010
0000
0000
0010
0000
0000
1000
0000
0001
0000
0000
0101
0000
0000
2100
0000
0000
0000
3001
0000
0000
0000
0000
0000
,
1001
0100
1010
0001
0011
1000
1100
0001
,
0010
0000
0000
0100
0000
0000
1001
0000
0000
0000
0000
0010
0100
0000
0000
0100
0000
0000
0001
0000
0000
1000
0000
0000
,
0001
0001
0010
0010
0100
0100
1000
1000
,
0010
0000
0000
0110
0000
0000
0001
0000
0000
0000
0000
0000
1000
0000
0100
1000
0000
0000
0001
0000
0100
0001
0000
0000
,
0010
0010
0010
0001
1000
0010
1000
0100
,
1000
0000
0000
0001
0000
0000
0101
0000
0000
0000
0000
0001
0010
0000
0000
0010
0000
0000
0100
0000
0000
1000
0000
0000
,
1100
0000
0000
0011
0000
0000
1001
0000
0000
0110
0000
0000
0010
0000
0000
1000
0000
0000
0001
0000
0000
0100
0000
0100
,
0010
0000
0000
1000
0000
0000
1000
0000
0001
0010
0000
0001
0000
0000
0100
0010
0000
0000
0010
0000
1000
0000
0000
0000
,
1001
0000
1000
0100
0000
1000
0100
0000
0010
0000
0000
0001
1000
0000
0001
0000
0000
0001
0010
0000
0001
1000
0000
0100
,
0000
0000
1000
0010
0000
0010
0100
0000
0100
0001
0000
0001
0010
0000
0010
0001
0000
0001
1000
0000
0010
1000
0000
0010
,
0100
0000
0100
0001
0000
0001
0010
0000
0010
0100
0000
0100
1000
0000
0000
0010
0000
1000
0010
0000
0100
0001
0000
0010
,
0001
0000
0000
0001
0000
1000
0100
0000
0100
1000
0000
1000
0010
0000
0010
0100
0000
0100
0001
0000
0001
1000
0000
0000
,
0000
0000
0010
0100
0000
0010
0100
0000
0001
1000
0000
0100
0000
0000
1000
0001
0000
1000
0001
0000
0100
0010
0000
1000
,
0000
0000
0001
0100
0000
0001
0100
0000
0010
1000
0000
0100
0000
0000
1000
0010
0000
1000
0010
0000
1000
0001
0000
0100
,
0000
0000
0000
1010
0000
0000
0101
0000
0001
1000
0000
0001
0100
0000
0100
0010
0000
0000
1000
0000
0001
0100
0000
0000
,
0001
0000
0000
1000
0000
1000
0001
0000
0000
0100
0000
0100
0010
0000
0010
0100
0000
0000
0110
0000
0000
0000
0000
0001
,
1000
0000
0010
1000
0000
0010
1000
0000
0100
1000
0000
0100
0010
0000
0001
0010
0000
0001
0100
0000
0001
0100
0000
0001
,
2000
0000
3002
0000
0203
0000
0302
0000
2003
0000
3200
0000
0310
0000
0001
0100
0000
0001
0010
0000
0100
1000
0000
0000
,
0000
0000
1010
0000
0000
0010
0100
0000
0100
0010
0000
0010
1000
0000
1000
0001
0000
0001
0100
0000
0000
1001
0000
0000
,
0000
0000
1000
0010
0000
0100
0000
0000
0100
0001
0000
1000
0010
0000
0010
1000
0000
1000
0001
0000
0001
0100
0000
0100
,
0001
0000
0001
1000
0000
1000
0010
0000
0010
0100
0000
0100
0001
0000
0001
0010
0000
0010
0100
0000
0100
1000
0000
1000
,
0010
0000
0010
1000
0000
1000
0001
0000
0001
0100
0000
0100
0001
0000
1000
0100
0000
1000
0001
0000
0000
0011
0000
0000
,
1000
0000
0001
0000
0000
1000
0010
0000
0010
0100
0000
0100
0001
0000
1000
0000
0000
0001
0010
0000
0001
0100
0000
0010
,
0000
0000
0100
0000
0000
0100
0001
0000
1000
0010
0000
1000
0000
0000
0001
1000
0000
1000
0010
0000
0010
1000
0000
1000
,
0200
0000
0000
0000
,
0000
0000
0000
0000
,
0300
0000
0000
0000
;

//---------------dance-single - ----------------
#NOTEDATA:;
#CHARTNAME:;
#STEPSTYPE:dance-single;
#DESCRIPTION:;
#CHARTSTYLE:;
#DIFFICULTY:Medium;
#METER:9;
#RADARVALUES:0.303874,0.426823,0.276152,0.022391,0.000000,285.000000,248.000000,37.000000,3.000000,0.000000,0.000000,0.000000,0.000000,0.000000,0.303874,0.426823,0.276152,0.022391,0.000000,285.000000,248.000000,37.000000,3.000000,0.000000,0.000000,0.000000,0.000000,0.000000;
#CREDIT:;
#DISPLAYBPM:86.000000;
#NOTES:
0000
0000
0000
0000
,
0000
0000
0000
0000
,
0000
0000
0000
0000
,
0000
0000
0000
0000
,
0110
0001
0100
1000
,
0010
0000
0010
1000
0000
0001
0100
0000
,
0010
0000
0100
0000
0010
1000
0001
1000
,
0000
0000
0000
0000
0010
0010
0100
0100
,
0001
1000
0001
0000
1100
0000
0101
0000
,
0001
1000
0100
0000
0010
0000
0010
0000
,
0001
0000
0100
0000
0010
1000
0001
1000
,
0000
0000
1001
0000
0010
0001
1000
0000
,
0001
1000
0100
0000
1000
0001
0010
0000
,
0001
0000
1000
0010
0000
0010
0100
0001
,
1000
0000
0010
0000
1000
0001
0010
0200
,
0000
1300
0000
0000
0010
0100
0010
1000
,
0001
0010
0100
0000
1000
0010
0100
0000
,
0001
1000
0001
0100
0000
0100
0010
0000
,
1000
0000
0001
0000
0010
0001
1000
0200
,
0000
1300
0001
0000
0010
0100
1000
0000
,
1010
0000
1001
0000
0011
0000
0001
1000
,
0010
1000
0001
0000
0100
0010
0100
0000
,
0001
1000
0100
0000
1000
0100
0010
0000
,
0001
1000
0010
0000
0100
0010
0100
0010
,
1000
0100
0010
0000
0001
1000
0100
0000
,
1000
0010
0100
0000
0001
0010
0100
0000
,
1000
0001
0100
0110
0000
0001
0000
1000
,
0000
0001
0010
0001
0000
1000
0100
0000
,
1001
0100
1000
0000
0001
0000
0100
0010
,
1000
0010
1000
0001
0010
0100
1000
1000
,
1000
0001
0100
0010
1010
1010
1010
0001
,
0101
0101
0101
0001
0010
0001
1000
0100
,
0000
1100
1000
0001
0000
0101
0100
0010
,
0000
0110
0010
1000
0000
1001
0001
0100
,
0000
0110
1001
0110
1000
1100
0001
0101
,
0011
0110
1100
0001
1000
0100
0110
0000
,
0001
0010
0001
0100
0010
1000
0100
0010
,
0001
0001
1000
1000
0010
1000
1100
0011
,
0000
0010
0010
0001
1000
0100
1001
0110
,
0000
0010
0100
0001
1000
1000
0001
0100
,
0110
0001
0101
1000
1100
0010
0101
0100
,
0001
0001
0010
0001
0100
0010
1000
1000
,
0000
1100
0001
1000
0010
0000
0010
0100
,
0001
0000
0010
0001
1000
0010
1000
0001
,
0200
0000
0000
0000
,
0000
0000
0000
0300
;

//---------------dance-single - ----------------
#NOTEDATA:;
#CHARTNAME:;
#STEPSTYPE:dance-single;
#DESCRIPTION:;
#CHARTSTYLE:;
#DIFFICULTY:Easy;
#METER:7;
#RADARVALUES:0.208980,0.239021,0.186589,0.037318,0.000000,196.000000,171.000000,25.000000,5.000000,0.000000,0.000000,0.000000,0.000000,0.000000,0.208980,0.239021,0.186589,0.037318,0.000000,196.000000,171.000000,25.000000,5.000000,0.000000,0.000000,0.000000,0.000000,0.000000;
#CREDIT:;
#DISPLAYBPM:86.000000;
#NOTES:
0000
0000
0000
0000
,
0000
0000
0000
0000
,
0000
0000
0000
0000
,
0000
0000
0000
0000
,
1001
0010
0001
1000
,
0010
1000
0100
0010
,
0001
0001
1000
0010
,
0100
0000
0101
0101
,
1000
0001
1001
0010
,
1000
0100
0010
0001
,
0100
0010
1000
0001
,
0010
0000
0000
0000
,
0110
0100
0010
1000
,
0001
0001
1000
0100
,
1000
0010
0100
0001
,
0010
0000
1100
1100
,
0001
0001
1000
0010
,
0100
0100
0010
0110
,
0001
0100
1000
0100
,
0001
0000
1000
0000
0010
0010
0000
0000
,
2000
3002
2003
3002
,
0103
0010
1000
0000
1001
0000
0110
0000
,
1000
0001
0010
0100
,
1000
0001
0100
0000
0101
0000
1100
0000
,
0010
1000
0001
0010
,
0001
1000
0010
0000
1010
0000
0011
0000
,
0001
1000
0001
1000
0000
0000
0000
0000
,
0010
0010
0100
0100
,
1001
0100
0001
1000
,
0001
0000
0010
0000
0100
0000
1000
1000
,
1000
0000
0001
0000
0100
0100
0100
0000
,
0010
0010
0010
0000
1000
0001
1000
0001
,
0000
0011
1000
1010
,
0001
0101
1000
1100
,
0001
0000
0110
0000
1000
0010
0100
0000
,
0001
0010
0100
0000
0010
0010
0010
0000
,
0001
0100
1000
0010
,
1000
0000
0001
0000
1000
0001
0010
0000
,
0110
0000
0010
0000
0001
0100
0001
0000
,
1000
0000
0010
0000
0100
0010
1000
0000
,
0001
0011
1000
1100
,
0010
1010
0100
0101
,
0001
0000
1000
0000
0010
0000
1000
0001
,
0010
0000
0001
0000
0100
0000
0010
1000
,
0200
0000
0000
0000
,
0000
0000
0000
0300
;

//---------------dance-single - ----------------
#NOTEDATA:;
#CHARTNAME:;
#STEPSTYPE:dance-single;
#DESCRIPTION:;
#CHARTSTYLE:;
#DIFFICULTY:Beginner;
#METER:2;
#RADARVALUES:0.091695,0.119511,0.029854,0.007464,0.000000,86.000000,82.000000,4.000000,1.000000,0.000000,0.000000,0.000000,0.000000,0.000000,0.091695,0.119511,0.029854,0.007464,0.000000,86.000000,82.000000,4.000000,1.000000,0.000000,0.000000,0.000000,0.000000,0.000000;
#CREDIT:;
#DISPLAYBPM:86.000000;
#NOTES:
// measure 0
0000
0000
0000
0000
,  // measure 1
0000
0000
0000
0000
,  // measure 2
0000
0000
0000
0000
,  // measure 3
0000
0000
0000
0000
,  // measure 4
1001
0000
0001
0000
,  // measure 5
1000
0000
0001
0000
,  // measure 6
0100
0000
0010
0000
,  // measure 7
1000
0000
0000
0000
,  // measure 8
0001
0000
0010
0000
,  // measure 9
0001
0000
0100
0000
,  // measure 10
0010
0000
1000
0000
,  // measure 11
0100
0000
0000
0000
,  // measure 12
0110
0000
0010
0000
,  // measure 13
0001
0000
1000
0000
,  // measure 14
0010
0000
0100
0000
,  // measure 15
0001
0000
0000
0000
,  // measure 16
0001
0000
1000
0000
,  // measure 17
0001
0000
0010
0000
,  // measure 18
0100
0000
1000
0000
,  // measure 19
0001
0000
0000
0000
,  // measure 20
0010
0010
0010
0000
,  // measure 21
0001
0000
1000
0000
,  // measure 22
0100
0100
0100
0000
,  // measure 23
0010
0000
0001
0000
,  // measure 24
1000
1000
1000
0000
,  // measure 25
0010
0000
0100
0000
,  // measure 26
0001
0001
0000
0000
,  // measure 27
0000
0000
0010
0000
,  // measure 28
1001
0000
0010
0000
,  // measure 29
0100
0000
0010
0000
,  // measure 30
1000
0000
0001
0000
,  // measure 31
0010
0000
0100
0000
,  // measure 32
1000
0000
1000
0000
,  // measure 33
0001
0000
0001
0000
,  // measure 34
0100
0000
0010
0000
,  // measure 35
1000
1000
1000
0000
,  // measure 36
0110
0000
0001
0000
,  // measure 37
0100
0100
0100
0100
,  // measure 38
0000
0001
0000
1000
,  // measure 39
0000
0001
0000
1000
,  // measure 40
1000
0000
0010
0000
,  // measure 41
0100
0000
0001
0000
,  // measure 42
0010
0000
0001
0000
,  // measure 43
1000
0000
0001
0000
,  // measure 44
0200
0000
0000
0000
,  // measure 45
0000
0000
0000
0300
;
