#TITLE:WILD RUSH;
#SUBTITLE:;
#ARTIST:FACTOR-X;
#TITLETRANSLIT:;
#SUBTITLETRANSLIT:;
#ARTISTTRANSLIT:;
#GENRE:;
#CREDIT:;
#BANNER:WILD RUSH.png;
#BACKGROUND:WILD RUSH-bg.png;
#LYRICSPATH:;
#CDTITLE:;
#MUSIC:WILD RUSH.ogg;
#OFFSET:0.000000;
#SAMPLESTART:75.946999;
#SAMPLELENGTH:15.000000;
#SELECTABLE:YES;
#DISPLAYBPM:79.000000:182.000000;
#BPMS:0.000000=79.300003
,4.000000=80.000000
,33.000000=79.800003
,36.000000=100.000000
,68.000000=120.000000
,100.000000=137.000000
,103.000000=143.000000
,106.000000=139.000000
,108.000000=140.000000
,130.000000=141.500000
,132.000000=160.000000
,164.000000=182.000000
,166.000000=181.000000
,168.000000=180.000000
;
#STOPS:
;
#BGCHANGES:;
#KEYSOUNDS:;
#ATTACKS:;

//---------------dance-single - ----------------
#NOTES:
     dance-single:
     :
     Beginner:
     5:
     0.180985,0.325738,0.175416,0.000000,0.000000,130.000000,112.000000,18.000000,0.000000,0.000000,0.000000,0.180985,0.325738,0.175416,0.000000,0.000000,130.000000,112.000000,18.000000,0.000000,0.000000,0.000000:
0000
0000
0000
0000
,
0000
0000
0000
0000
,
0000
0000
0000
0000
,
1000
0000
1000
0000
,
0001
0000
0001
0000
,
0100
0000
0010
0000
,
1000
0000
0010
0000
,
0100
0000
0001
0000
,
1000
1000
0000
0000
,
0001
0001
0000
0000
,
0100
0100
0000
0000
,
0001
0001
0000
0000
,
1000
1000
0000
0000
,
0001
0001
0000
0000
,
0100
0100
0000
0000
,
0001
0001
0000
0000
,
0000
0010
0000
0010
,
0000
1000
0000
1000
,
0000
0100
0000
0100
,
0000
0001
0000
0001
,
0000
1001
0000
1001
,
0000
0110
0000
0110
,
0000
0001
0000
1000
,
0000
0001
0000
1000
,
0000
0001
0001
0001
,
0000
1000
1000
1000
,
0000
0001
0001
0001
,
0000
0100
0100
0100
,
0000
0001
0001
0001
,
0000
0010
0010
0010
,
0000
1000
1000
1000
,
0000
0100
0100
0100
,
0000
0010
0000
0110
,
0000
1000
0000
1001
,
0000
0001
0000
1001
,
0000
0100
0000
0110
,
0000
1001
0000
0110
,
0000
0110
0000
1001
,
0000
1001
1001
1001
,
0000
0110
0110
0110
,
0000
0100
0100
0100
,
0100
0100
0100
0100
,
0000
0001
0001
0001
,
0001
0001
0001
0001
,
0000
1000
1000
1000
,
1000
1000
1000
1000
,
0000
0010
0010
0010
,
0010
0010
0010
0010
;

//---------------dance-single - ----------------
#NOTES:
     dance-single:
     :
     Easy:
     6:
     0.213006,0.238152,0.000000,0.000000,0.000000,153.000000,153.000000,0.000000,0.000000,0.000000,0.000000,0.213006,0.238152,0.000000,0.000000,0.000000,153.000000,153.000000,0.000000,0.000000,0.000000,0.000000:
0000
0000
0000
0000
,
0000
0000
0000
0000
,
0000
0000
0000
0000
,
1000
0001
0001
0001
,
0010
0000
0001
0000
,
1000
0001
0001
0001
,
0010
0000
0001
0000
,
1000
0001
0001
0001
,
0100
0000
0000
0000
0100
0100
0100
0000
,
0001
0100
0100
0100
,
1000
0000
1000
0000
,
0001
1000
0010
1000
,
0100
0000
0100
0000
,
1000
0001
0001
0001
,
0100
0000
0010
0000
,
1000
0001
0001
0001
,
1000
0000
1000
0000
0010
0010
0010
0000
,
1000
0010
1000
0010
,
0100
0001
0100
0001
,
1000
0010
1000
0001
,
1000
0001
0010
0001
,
1000
0001
0010
0001
,
1000
0001
1000
0010
,
1000
0001
0100
0010
,
1000
0000
0001
0000
1000
1000
1000
0000
,
0010
1000
1000
1000
,
0010
0000
0100
0000
,
0001
1000
0010
0100
,
1000
0000
0001
0000
,
0000
0001
0000
0010
,
0010
0010
0100
0100
,
0100
0000
1000
0000
,
0000
0000
0000
0000
0001
0001
0001
0000
,
1000
0100
0100
0100
,
1000
0001
1000
0001
,
0010
0100
0100
0100
,
0001
1000
0001
1000
,
0010
0010
0000
0000
,
1000
0010
0000
0000
,
0001
0000
0000
0000
,
0000
0000
0000
0000
0100
0100
0100
0000
,
0001
0010
1000
0010
,
0001
0000
0001
0000
,
1000
0010
0001
0010
,
1000
0000
1000
0000
,
0010
0100
0100
0100
,
1000
0000
0001
0000
,
1000
0000
0001
1000
,
0001
0000
1000
0000
0001
0000
1000
0100
;

//---------------dance-single - ----------------
#NOTES:
     dance-single:
     :
     Medium:
     7:
     0.278439,0.285783,0.077963,0.000000,0.000000,200.000000,192.000000,8.000000,0.000000,0.000000,0.000000,0.278439,0.285783,0.077963,0.000000,0.000000,200.000000,192.000000,8.000000,0.000000,0.000000,0.000000:
0000
0000
0000
0000
,
0000
0000
0000
0000
,
0000
0000
0100
0100
,
1000
0001
1000
0000
0010
0001
1000
0000
,
0010
0010
0100
0000
,
0001
1000
0010
0000
0001
1000
0001
0000
,
0100
0100
0010
0000
,
1000
0001
0010
0000
1000
0001
0100
0000
,
0001
0000
0000
0000
,
0010
0000
0000
0000
0001
0010
1000
0000
,
0001
0000
1000
0000
0010
0000
0010
1000
,
0010
0000
0000
0000
1000
0010
1000
0000
,
0010
1000
0001
0000
,
0010
0000
0010
1000
,
0001
0000
1000
0000
0001
0000
0010
0001
,
0010
0000
0000
0000
0001
0010
0001
0000
,
1000
0000
0001
0000
1000
0001
0010
0000
,
1001
0100
0100
1000
,
0001
0000
1000
0000
0001
0000
0010
0001
,
1000
0010
1000
0001
,
1000
0001
1000
0001
,
1001
1000
0010
1000
,
0001
0010
0100
0010
,
1001
0100
0100
0100
,
0001
0000
1000
0000
0001
1000
0001
0000
,
1000
0001
1000
0001
,
1000
0010
0100
1001
,
0010
0100
0010
0100
,
0001
0010
0001
0011
,
0001
1000
0001
1000
,
0010
1000
0010
1010
,
0010
0010
0010
0010
,
0001
0000
1000
0000
0000
0001
1000
0001
,
1000
0000
0001
0000
0001
0001
0000
0000
,
1000
0000
1000
1000
0000
0000
0000
0000
,
0001
0000
0100
0000
0100
0100
0000
0000
,
0100
0000
1000
0001
0000
0000
0000
0000
,
0010
0000
1000
0000
0001
1000
0000
0000
,
0010
0000
1000
0001
0000
0000
0000
0000
,
0100
0000
0100
0000
0001
1000
0000
0000
,
0010
0000
1000
0001
0000
0000
0000
0000
,
0010
0001
0010
0001
,
0001
0000
0001
0000
1000
0001
1000
0000
,
0010
1000
0010
1000
,
1000
0000
1000
0000
0001
1000
0001
0000
,
1000
0001
0100
0010
,
1000
0000
1000
0000
0001
1000
0001
0000
,
0010
0100
0110
1001
,
0010
0000
0001
0000
1000
0010
0100
0001
;

//---------------dance-single - ----------------
#NOTES:
     dance-single:
     :
     Hard:
     10:
     0.343872,0.404859,0.000000,0.000000,0.102326,247.000000,247.000000,0.000000,0.000000,0.000000,0.000000,0.343872,0.404859,0.000000,0.000000,0.102326,247.000000,247.000000,0.000000,0.000000,0.000000,0.000000:
0000
0000
0000
0000
,
0000
0000
0000
0000
,
0000
0000
0000
0000
,
1000
0000
0100
0000
1000
0100
1000
0000
,
1000
0000
0000
0000
1000
0000
0000
0000
0000
1000
0100
0010
0001
1000
0100
0010
,
0000
0010
0000
0000
0000
0000
0000
0000
0000
0000
0000
0000
0000
0000
0000
0000
,
0000
0000
0000
0000
,
0001
0000
0100
0000
0001
0100
0001
0000
,
0001
0000
0000
0000
0001
0000
0000
0000
0000
0001
0100
0010
1000
0001
0100
0010
,
1000
0010
0000
0100
,
0000
0001
0000
1000
,
0001
0000
0001
0000
1000
0001
0000
0000
1000
0000
1000
0000
0001
1000
0000
0000
,
0100
0000
0100
0000
0001
0100
0000
0000
0010
0000
0010
0000
1000
0010
0000
0000
,
1000
0000
0001
0000
0001
1000
0000
0000
0001
0000
1000
0000
1000
0001
0000
0000
,
0010
0000
0010
0000
1000
0001
0000
0000
0010
0000
0010
0000
0001
1000
0000
0000
,
0100
0000
0100
0000
1000
0001
0000
0000
0100
0000
0100
0000
0001
1000
0000
0000
,
0010
0000
1000
0000
0001
0100
0000
0000
0001
0000
0100
0000
0010
1000
0000
0000
,
0000
1000
0000
0010
0000
1000
0000
0010
,
0000
0100
0000
0001
0000
0100
0000
0001
,
0000
1000
0000
0010
0000
1000
0000
0001
,
0000
1000
0000
0001
0000
0010
0000
0001
,
0000
1000
0000
0001
0000
0010
0000
0001
,
0000
1000
0000
0001
0000
1000
0000
0010
,
0000
1000
0000
0001
0000
0100
0000
0010
,
0000
1000
0000
0001
0000
0100
0100
0000
,
0001
0100
0000
0001
0000
1000
0001
0010
,
0001
1000
0000
0001
0000
0100
0001
1000
,
0001
0010
0000
0001
0000
1000
0001
0100
,
0100
0001
0000
0100
0000
0010
0100
1000
,
0100
0010
0000
0100
0000
0001
0100
0010
,
0100
1000
0000
0100
0000
0001
0100
0010
,
0010
0100
0000
0010
0000
1000
0001
0100
,
0010
1000
0000
0010
0000
1000
0010
0001
,
0010
0000
0010
0000
0100
0100
0000
0010
,
0001
0000
0001
0000
0100
0100
0000
0000
,
0001
0000
0001
0000
1000
1000
0000
0001
,
0100
0000
0100
0000
0001
0001
0000
0000
,
0010
0000
0010
0000
0001
0001
0000
1000
,
0010
0000
0010
0000
1000
1000
1000
1000
,
0001
0010
0000
0000
,
1000
1000
0000
1000
0000
0001
0000
0000
,
0001
0010
0001
0010
,
0100
1000
0100
1000
,
0001
0010
0001
0010
0001
0010
0001
0000
,
0100
1000
0100
1000
0100
1000
0100
0000
,
1000
0001
1000
0001
0100
0010
0100
0010
,
0100
0000
0010
0000
1000
0001
1000
0000
,
0001
0100
0001
0100
0010
1000
0010
0000
,
0010
1000
0001
0100
0010
1000
0001
1000
;

//---------------dance-double - ----------------
#NOTES:
     dance-double:
     :
     Easy:
     5:
     0.256164,0.213789,0.000000,0.000000,0.000000,184.000000,184.000000,0.000000,0.000000,0.000000,0.000000,0.256164,0.213789,0.000000,0.000000,0.000000,184.000000,184.000000,0.000000,0.000000,0.000000,0.000000:
00000000
00000000
00000000
00000000
,
00000000
00000000
00000000
00000000
,
00000000
00000000
00000000
00000000
,
10000000
01000000
00010000
01000000
,
00001000
00010000
00000010
00000100
,
00000001
00001000
00000100
00000100
,
00010000
00001000
00100000
01000000
,
10000000
10000000
00010000
00010000
,
01000000
00001000
00010000
00000100
,
00000001
00000100
00001000
00000100
,
00010000
00001000
00100000
01000000
,
10000000
10000000
01000000
01000000
,
00010000
00010000
00001000
00001000
,
00000100
00000100
00000001
00000001
,
00001000
00001000
00000100
00010000
,
00100000
00100000
01000000
01000000
,
00010000
10000000
01000000
01000000
,
10000000
01000000
00010000
01000000
,
00001000
00010000
00000010
00000100
,
00000001
00000100
00000010
00000100
,
00001000
00000100
00010000
00001000
,
00010000
01000000
10000000
01000000
,
00010000
01000000
10000000
01000000
,
00010000
00001000
00000100
00000001
,
00001000
00000100
00000001
00001000
,
00000001
00000100
00001000
00000100
,
00010000
00001000
00100000
01000000
,
10000000
10000000
00010000
00010000
,
00100000
01000000
00010000
00001000
,
00000100
00000100
00000001
00000001
,
00001000
00001000
00000100
00010000
,
00001000
00100000
01000000
01000000
,
00010000
00001000
00000100
00000001
,
00000001
00000100
00001000
00000100
,
00010000
00001000
00100000
01000000
,
10000000
10000000
01000000
01000000
,
00010000
00010000
00001000
00001000
,
00000100
00000001
00001000
00000100
,
00010000
00001000
00100000
01000000
,
10000000
10000000
00010000
01000000
,
00001000
00010000
00000010
00001000
,
00000001
00000100
00001000
00000100
,
00010000
00001000
00100000
01000000
,
10000000
10000000
00010000
00010000
,
01000000
00001000
00010000
00000100
,
00000010
00000010
00000001
00000100
,
00001000
00000100
00010000
00001000
,
00100000
01000000
00010000
10000000
,
10000000
01000000
00010000
00001000
;

//---------------dance-double - ----------------
#NOTES:
     dance-double:
     :
     Medium:
     9:
     0.339695,0.333413,0.038981,0.000000,0.000000,244.000000,240.000000,4.000000,0.000000,0.000000,0.000000,0.339695,0.333413,0.038981,0.000000,0.000000,244.000000,240.000000,4.000000,0.000000,0.000000,0.000000:
00000000
00000000
00000000
00000000
,
00000000
00000000
00000000
00000000
,
00000000
00000000
00000000
00000000
,
10000000
00000000
01000000
00000000
00010000
00010000
01000000
00000000
,
00001000
00010000
00001000
00010000
00000010
00000100
00000100
00000000
,
00000001
00000000
00001000
00000000
00000100
00000100
00000100
00000000
,
00010000
00010000
00001000
00000000
00100000
00100000
01000000
00000000
,
00010000
00010000
00001000
00000000
00001000
00001000
00000100
00000000
,
00001000
00000000
00010000
00000000
00001000
00000010
00000001
00000100
,
00000001
00000000
00000100
00000000
00001000
00001000
00000100
00000000
,
00010000
00001000
00010000
00001000
00100000
01000000
01000000
00000000
,
10000000
00000000
10000000
00000000
01000000
01000000
01000000
00000000
,
00010000
00000000
00010000
00000000
00001000
00001000
00001000
00000000
,
00000100
00000000
00000100
00000000
00000001
00000001
00000001
00000000
,
00001000
00000000
00001000
00000000
00000100
00010000
00001000
00000000
,
00100000
00000000
00100000
00000000
01000000
01000000
01000000
00000000
,
00010000
00000000
10000000
00000000
01000000
01000000
01000000
00000000
,
10000000
00000000
01000000
00000000
00010000
00010000
01000000
00000000
,
00001000
00010000
00001000
00010000
00000010
00000100
00000100
00000000
,
00000001
00000100
00001000
00000100
,
00001000
00000000
00000100
00000000
00010000
00001000
00010000
00000000
,
00001000
01000000
00100000
01000000
,
00010000
00000000
01000000
00000000
10000000
01000000
10000000
00000000
,
00100000
00001000
00000100
00000001
,
00001000
00000000
00000100
00000000
00000001
00001000
00000001
00000000
,
00000001
00000000
00000100
00000000
00001000
00001000
00000100
00000000
,
00010000
00001000
00010000
00001000
00100000
01000000
01000000
00000000
,
10000000
11000000
00010000
01010000
,
00001000
00011000
00000010
00001001
,
00000010
00000100
00000010
00000000
00010000
00001000
00010000
00000000
,
00100000
01000000
00100000
00000000
00010000
10000000
00010000
00000000
,
00100000
00100000
01000000
01000000
,
00010000
00001000
00000100
00000001
,
00000001
00000000
00000100
00000000
00001000
00001000
00000100
00000000
,
00010000
00001000
00010000
00001000
00100000
01000000
01000000
00000000
,
10000000
10000000
01000000
01000000
,
00010000
00000000
00010000
00000000
00001000
00000100
00000001
00000000
,
00000100
00000000
00000001
00000000
00001000
00000100
00000100
00000000
,
00010000
00000000
00001000
00000000
00100000
01000000
01000000
00000000
,
10000000
00000000
10000000
00000000
00010000
01000000
00010000
00000000
,
00001000
00000000
00010000
00000000
00000010
00001000
00000100
00000000
,
00000001
00000000
00000100
00000000
00001000
00001000
00000100
00000000
,
00010000
00001000
00010000
00001000
00100000
01000000
01000000
00000000
,
10000000
00000000
10000000
00000000
00010000
10000000
00010000
00000000
,
01000000
00000000
00001000
00000000
00010000
00001000
00010000
00000000
,
00000010
00000000
00000010
00000000
00001000
00000001
00000100
00000000
,
00001000
00000000
00000100
00000000
00010000
00001000
01000000
00000000
,
00100000
00000000
01000000
00000000
00010000
10000000
01000000
00000000
,
10000000
00000000
01000000
00000000
00010000
00001000
00010000
00001000
;

//---------------dance-double - ----------------
#NOTES:
     dance-double:
     :
     Hard:
     11:
     0.363362,0.428674,0.185162,0.000000,0.063345,261.000000,242.000000,19.000000,0.000000,0.000000,0.000000,0.363362,0.428674,0.185162,0.000000,0.063345,261.000000,242.000000,19.000000,0.000000,0.000000,0.000000:
00000000
00000000
00000000
00000000
,
00000000
00000000
00000000
00000000
,
00000000
00000000
00000000
00000000
,
10000000
00000000
00000000
00000000
01000000
00000000
00000000
00000000
00010000
00000000
10000000
00010000
01000000
00000000
00000000
00000000
,
00001000
00010000
00001000
00000000
00010000
00000000
00000000
00000000
00000000
00000010
00001000
00000100
00000010
00000001
00000100
00000001
,
00000000
00000100
00000000
00000000
00001000
00000000
00000000
00000000
00000000
00000001
00000100
00000000
00000000
00000000
00000000
00000000
,
00000000
00000000
00000000
00000000
,
01000000
00000000
00000000
00000000
00000000
00000000
00000000
00000000
00000000
00010000
00000000
00000000
00000000
00000000
00000000
00000000
,
00001000
00000000
00000000
00000000
00010000
00000000
00000000
00000000
00000000
00001000
00000010
00000001
00000000
00000100
00000001
00001000
,
00000100
00000100
00001000
00000100
,
00010000
00001000
00100000
01000000
,
10000000
00000000
01100000
00000000
00001000
00010000
00011000
00000000
,
00000100
00000000
00000110
00000000
00000001
00001000
00000101
00000000
,
00000010
00001000
00001100
00000000
00010000
00001000
00011000
00000000
,
00100000
00010000
01010000
00000000
10000000
01000000
11000000
00000000
,
00100000
00000000
00011000
00000000
00000010
00001000
00000101
00000000
,
00001000
00000000
00011000
00000000
00010000
10000000
11000000
00000000
,
00010000
00000000
01000000
00000000
10000000
01000000
11000000
00000000
,
10000000
00100000
00010000
00001000
00000010
00000001
00000100
00000000
,
00000001
00000000
00000100
00000000
00001000
00000001
00000101
00000000
,
00001000
00000100
00010000
00001000
00100000
00010000
10000000
00000000
,
01000000
00000000
00100000
00000000
00010000
10000000
11000000
00000000
,
00010000
01000000
10000000
01000000
00010000
01000000
00001000
00000000
,
00100000
00000000
00001000
00000000
00000100
00000001
00001000
00000000
,
00001000
00000100
00000001
00000100
00001000
00000100
00010000
00000000
,
00100000
00000000
10000000
00000000
01000000
00010000
00001000
00000000
,
00010000
00001000
00000100
00000001
00000100
00001000
00010000
00000000
,
00100000
11000000
00010000
00011000
,
00000100
00000101
00001000
00011000
,
00100000
10000000
01000000
00000000
00100000
00010000
01000000
00000000
,
00000010
00001000
00000100
00000000
00000010
00000001
00000100
00000000
,
00001000
00001000
00100000
01000000
,
00010000
00000000
00001000
00000100
00000000
00000000
00000000
00000000
,
00000001
00000000
00001000
00000000
00000100
00001000
00000000
00000000
,
00100000
00001000
00010000
00000000
00100000
01000000
00000000
00000000
,
00010000
10000000
01000000
00000000
00010000
00001000
00000000
00000000
,
00000001
00000000
00000001
00000000
00001000
00000100
00000001
00000000
,
00000100
00000000
00001000
00000000
00010000
00001000
00000000
00000000
,
00100000
00000000
01000000
00000000
10000000
01000000
10000000
01000000
,
10000000
00000000
10000000
00000000
00010000
01000000
00010000
01000000
,
00001000
00010000
00000000
00000010
00000000
00001000
00000000
00000000
,
00000001
00001000
00000100
00000000
00001000
00010000
00001000
00000000
,
00100000
00010000
01000000
00000000
00010000
10000000
01000000
00000000
,
10000000
00000000
00010000
01000000
00010000
00000000
00001000
00000000
,
00010000
00000000
00000010
00001000
00000100
00000000
00000000
00000000
,
00000001
00000000
00001000
00000100
00001000
00000000
00000000
00000000
,
00010000
00000000
00010000
01000000
10000000
00000000
00000000
00000000
,
00100000
01000000
00010000
10000000
00010000
10000000
01000000
00010000
,
00001000
00000100
00000001
00000100
00001000
00000100
00000001
00001000
;

//---------------dance-couple - ----------------
#NOTES:
     dance-couple:
     :
     Medium:
     6:
     0.200476,0.357228,0.000000,0.000000,0.000000,144.000000,144.000000,0.000000,0.000000,0.000000,0.000000,0.200476,0.381043,0.000000,0.000000,0.000000,144.000000,144.000000,0.000000,0.000000,0.000000,0.000000:
00000000
00000000
00000000
00000000
,
00000000
00000000
00000000
00000000
,
00000000
00000000
00000000
00000000
,
10000001
00010000
00010001
00010000
,
00100001
00000000
00010001
00000000
,
10001000
00000001
10000001
00000001
,
10000010
00000000
10000001
00000000
,
10001000
00010001
00010001
00010001
,
01000100
00000000
00000000
00000000
01000100
01000100
01000100
00000000
,
00100010
00000000
00000000
00000000
00010000
00100000
10000000
00000000
,
00010001
00000000
10001000
00000000
00100010
00000000
00000010
00001000
,
00000010
00000000
00000000
00000000
10000000
00100000
10000000
00000000
,
00100010
10001000
00010001
00000000
,
00100000
00000000
00000010
10001000
,
00010001
00000000
10001000
00000000
00010001
00000000
00100000
00010000
,
00100000
00000000
00000000
00000000
00000001
00000010
00000001
00000000
,
10001000
00000000
00010001
00000000
00001000
00000001
00000010
00000000
,
00000000
10001000
00000000
00100010
00000000
10001000
00000000
00100010
,
00000000
01000100
00000000
00010001
00000000
01000100
00000000
00010001
,
00000000
10001000
00000000
00100010
00000000
10001000
00000000
00010001
,
00000000
10001000
00000000
00010001
00000000
00100010
00000000
00010001
,
00000000
10001000
00000000
00010001
00000000
00100010
00000000
00010001
,
00000000
10001000
00000000
00010001
00000000
10001000
00000000
00100010
,
00000000
10001000
00000000
00010001
00000000
01000100
00000000
00100010
,
00000000
10001000
00000000
00010001
00000000
01000100
01000100
00000000
,
00010000
10000001
00100000
01000001
,
10000000
00000001
00010000
00000001
,
00000001
10001000
00000010
10000100
,
00001000
10000000
00000001
10000000
,
00000000
10001000
00000000
00000010
,
00000010
00000010
01000000
01000000
,
01000000
00000000
00100100
00000000
,
00000000
00000000
00000000
00000000
00010001
00010001
00010001
00000000
,
10000000
00000000
00010000
00000000
00010000
00010000
00000000
00000000
,
10000000
00000000
10000000
10000000
00000000
00000000
00000000
00000000
,
00001000
00000000
00000001
00000000
00000001
00000001
00000000
00000000
,
00001000
00000000
00001000
00001000
00000000
00000000
00000000
00000000
,
00100000
00000000
10000000
00000000
00010000
10000000
00000000
00000000
,
00100000
00000000
10000000
00010000
00000000
00000000
00000000
00000000
,
00000010
00000000
00001000
00000000
00000001
00001000
00000000
00000000
,
00000010
00000000
00001000
00000001
00000000
00000000
00000000
00000000
,
10000000
00100000
10000000
00100000
,
00000100
00000001
00000100
00000001
,
00010000
00100000
00010000
00100000
00010000
00100000
00010000
00000000
,
00000100
00001000
00000100
00001000
00000100
00001000
00000100
00000000
,
10001000
00010001
10001000
00010001
01000100
00100010
01000100
00100010
,
01000100
00000000
00100010
00000000
10001000
00010001
10001000
00000000
,
00010001
01000100
00010001
01000100
00100010
10001000
00100010
00000000
,
00100010
10001000
00010001
01000100
00100010
10001000
00010001
10001000
;

//---------------dance-solo - ----------------
#NOTES:
     dance-solo:
     :
     Easy:
     7:
     0.213006,0.238152,0.000000,0.000000,0.000000,153.000000,153.000000,0.000000,0.000000,0.000000,0.000000,0.213006,0.238152,0.000000,0.000000,0.000000,153.000000,153.000000,0.000000,0.000000,0.000000,0.000000:
000000
000000
000000
000000
,
000000
000000
000000
000000
,
000000
000000
000000
000000
,
010000
000001
000001
000001
,
000010
000000
000010
000000
,
010000
000001
000001
000001
,
000010
000000
000010
000000
,
100000
000001
000001
000001
,
001000
000000
000000
000000
001000
001000
001000
000000
,
000001
001000
001000
001000
,
100000
000000
100000
000000
,
000010
010000
010000
010000
,
001000
000000
001000
000000
,
100000
000001
000001
000001
,
001000
000000
000100
000000
,
100000
000001
000001
000001
,
100000
000000
100000
000000
000100
000100
000100
000000
,
100000
010000
100000
010000
,
100000
000100
100000
000100
,
010000
000100
010000
000010
,
010000
000001
000100
000001
,
010000
000010
000100
000001
,
010000
000010
100000
000100
,
100000
000001
001000
000100
,
100000
000000
000001
000000
010000
010000
010000
000000
,
000100
100000
100000
100000
,
010000
000000
000010
000000
,
000001
010000
010000
010000
,
100000
000000
000001
000000
,
000000
000001
000000
000100
,
000100
000100
001000
001000
,
001000
000000
100000
000000
,
000000
000000
000000
000000
000001
000001
000001
000000
,
010000
001000
001000
001000
,
010000
000001
010000
000001
,
000010
001000
001000
001000
,
000010
100000
000010
100000
,
000100
000100
000000
000000
,
010000
010000
000000
000000
,
000010
000000
000000
000000
,
000000
000000
000000
000000
010000
010000
010000
000000
,
000010
010000
100000
010000
,
000001
000000
000001
000000
,
010000
000010
000001
000010
,
100000
000000
100000
000000
,
000100
001000
001000
001000
,
100000
000000
000010
000000
,
010000
000000
000001
100000
,
000010
000000
010000
000000
000001
000000
100000
001000
;

//---------------dance-solo - ----------------
#NOTES:
     dance-solo:
     :
     Medium:
     8:
     0.278439,0.285783,0.077963,0.000000,0.000000,200.000000,192.000000,8.000000,0.000000,0.000000,0.000000,0.278439,0.285783,0.077963,0.000000,0.000000,200.000000,192.000000,8.000000,0.000000,0.000000,0.000000:
000000
000000
000000
000000
,
000000
000000
000000
000000
,
000000
000000
001000
001000
,
100000
000001
100000
000000
010000
000010
010000
000000
,
000100
000100
001000
000000
,
000010
010000
000010
000000
000001
100000
000001
000000
,
001000
001000
000100
000000
,
010000
000010
010000
000000
100000
000001
001000
000000
,
000001
000000
000000
000000
,
000100
000000
000000
000000
000010
000010
010000
000000
,
000001
000000
100000
000000
000100
000000
000100
100000
,
010000
000000
000000
000000
100000
010000
100000
000000
,
000100
100000
000001
000000
,
000100
000000
000100
100000
,
000010
000000
010000
000000
000001
000000
000100
000001
,
000010
000000
000000
000000
000001
000010
000001
000000
,
010000
000000
000010
000000
010000
000010
000100
000000
,
100001
001000
001000
100000
,
000001
000000
100000
000000
000001
000000
000100
000010
,
010000
000100
010000
000010
,
100000
000010
010000
000001
,
010010
100000
000100
010000
,
000001
000100
001000
000100
,
100001
001000
001000
001000
,
000001
000000
010000
000000
000010
010000
000010
000000
,
100000
000001
100000
000001
,
100000
000100
001000
100001
,
000100
001000
000100
001000
,
000001
000010
000001
000011
,
000001
100000
000001
100000
,
010000
100000
010000
110000
,
000100
000100
000100
000100
,
000001
000000
100000
000000
000000
000010
010000
000010
,
010000
000000
000001
000000
000001
000001
000000
000000
,
100000
000000
100000
100000
000000
000000
000000
000000
,
000010
000000
001000
000000
001000
001000
000000
000000
,
001000
000000
100000
000001
000000
000000
000000
000000
,
000100
000000
010000
000000
000010
100000
000000
000000
,
000100
000000
010000
000001
000000
000000
000000
000000
,
001000
000000
001000
000000
000001
100000
000000
000000
,
000100
000000
010000
000010
000000
000000
000000
000000
,
000100
000010
000010
000001
,
000001
000000
000001
000000
010000
000001
010000
000000
,
000100
010000
010000
100000
,
100000
000000
100000
000000
000010
100000
000010
000000
,
100000
000001
001000
000100
,
100000
000000
100000
000000
000010
010000
000010
000000
,
000100
001000
001100
100001
,
010000
000000
000010
000000
010000
000010
100000
000001
;

//---------------dance-solo - ----------------
#NOTES:
     dance-solo:
     :
     Hard:
     10:
     0.343872,0.404859,0.000000,0.000000,0.102326,247.000000,247.000000,0.000000,0.000000,0.000000,0.000000,0.343872,0.404859,0.000000,0.000000,0.102326,247.000000,247.000000,0.000000,0.000000,0.000000,0.000000:
000000
000000
000000
000000
,
000000
000000
000000
000000
,
000000
000000
000000
000000
,
100000
000000
001000
000000
100000
001000
100000
000000
,
100000
000000
000000
000000
100000
000000
000000
000000
000000
100000
001000
000100
000001
100000
001000
000100
,
000000
000100
000000
000000
000000
000000
000000
000000
000000
000000
000000
000000
000000
000000
000000
000000
,
000000
000000
000000
000000
,
000001
000000
001000
000000
000001
001000
000001
000000
,
000001
000000
000000
000000
000001
000000
000000
000000
000000
000001
001000
000100
100000
000001
001000
000100
,
100000
000100
000000
001000
,
000000
000001
000000
100000
,
000001
000000
000001
000000
010000
000001
000000
000000
100000
000000
100000
000000
000010
100000
000000
000000
,
001000
000000
001000
000000
000001
001000
000000
000000
000100
000000
000100
000000
100000
000100
000000
000000
,
010000
000000
010000
000000
000001
010000
000000
000000
000010
000000
000010
000000
100000
000010
000000
000000
,
000100
000000
000100
000000
010000
000010
000000
000000
000100
000000
000100
000000
000001
100000
000000
000000
,
001000
000000
001000
000000
010000
000001
000000
000000
001000
000000
001000
000000
000010
100000
000000
000000
,
010000
000000
000010
000000
000100
000001
000000
000000
010000
000000
000010
000000
100000
000100
000000
000000
,
000000
100000
000000
010000
000000
100000
000000
010000
,
000000
100000
000000
000100
000000
100000
000000
000100
,
000000
010000
000000
000100
000000
010000
000000
000010
,
000000
010000
000000
000001
000000
000100
000000
000001
,
000000
010000
000000
000010
000000
000100
000000
000001
,
000000
010000
000000
000010
000000
100000
000000
000100
,
000000
100000
000000
000001
000000
001000
000000
000100
,
000000
100000
000000
000001
000000
001000
001000
000000
,
000001
001000
000000
000001
000000
100000
000001
010000
,
000001
000100
000000
000001
000000
000010
000001
000100
,
000001
010000
000000
000001
000000
100000
000001
001000
,
001000
000001
000000
001000
000000
000010
001000
000100
,
001000
010000
000000
001000
000000
100000
001000
010000
,
001000
000100
000000
001000
000000
000010
001000
000001
,
000001
001000
000000
000100
000000
100000
000001
001000
,
000100
100000
000000
010000
000000
100000
000010
000001
,
000100
000000
000100
000000
001000
001000
000000
000100
,
000001
000000
000001
000000
001000
001000
000000
000000
,
000010
000000
000010
000000
100000
100000
000000
000001
,
010000
000000
010000
000000
000001
000001
000000
000000
,
000100
000000
000100
000000
000010
000010
000000
010000
,
000100
000000
000100
000000
100000
100000
100000
100000
,
000010
010000
000000
000000
,
100000
100000
000000
100000
000000
000001
000000
000000
,
000100
000001
000010
000001
,
000100
100000
010000
100000
,
000010
000001
000010
000001
000010
000001
000010
000000
,
010000
100000
010000
100000
010000
100000
010000
000000
,
100000
000001
100000
000001
001000
000100
001000
000100
,
001000
000000
000100
000000
010000
000010
010000
000000
,
000001
001000
000010
001000
000100
100000
010000
000000
,
010000
100000
000100
010000
000010
000100
000001
100000
;

//---------------dance-single - ----------------
#NOTES:
     dance-single:
     :
     Challenge:
     13:
     0.619526,0.775730,0.438541,0.194907,0.458032,445.000000,400.000000,45.000000,20.000000,0.000000,0.000000,0.619526,0.775730,0.438541,0.194907,0.458032,445.000000,400.000000,45.000000,20.000000,0.000000,0.000000:
0000
0000
0000
0000
,
0000
0000
0000
0000
,
0000
0000
0000
0000
,
0011
0000
0000
1010
0000
0000
1001
0000
0000
0000
0101
0000
0000
1100
0000
0000
,
1010
0000
0000
0110
0000
0000
0101
0000
0000
0001
0001
0010
0001
0010
0100
1000
,
0000
2200
0000
0000
0000
0000
3000
0000
0000
1000
1300
0100
0010
0010
0001
0100
,
0101
0000
0100
0110
0000
1000
1100
0000
0000
1000
1000
0001
0010
0001
0100
0100
,
0000
0001
0001
0010
0100
0100
0010
0001
1000
1000
0010
0010
1000
0100
0001
0100
,
0000
0000
0100
0000
1001
0000
0000
0000
0010
0001
0000
0010
0001
0000
0100
0000
0000
0000
0010
0000
0010
0000
0100
0000
0001
0000
0010
0000
0100
0000
1000
0000
,
1001
0000
0000
0000
1000
0100
0010
0001
0000
0000
0000
0000
0001
0010
0100
1000
,
0000
0000
0000
0000
0010
0100
0001
1000
0000
0000
0000
0000
1000
0010
0100
0001
,
0101
0000
0101
0000
0010
0100
0001
1000
0100
0000
0100
0000
1000
0001
0100
0010
,
1000
0000
1000
0000
0010
1000
0100
0010
0001
0000
0001
0000
0100
0001
0100
0010
,
0110
0000
0110
0000
1000
0001
1000
0100
0010
0000
0010
0000
0001
0100
0001
0010
,
0100
0000
0100
0000
1000
0001
0010
0100
0010
0000
0010
0000
0001
1000
0001
1000
,
1100
0000
1100
0000
0001
1000
0100
0010
0001
0000
0001
0000
0100
0010
1000
0010
,
0100
0000
0100
0000
0001
1000
0100
0010
0001
0000
0001
0000
0202
0000
0000
0303
,
1001
0100
0010
1000
0001
0010
0001
0100
,
1000
0100
0001
0010
0100
0010
0001
0011
,
1001
0010
0001
0100
0010
1000
0100
0010
,
0100
0000
0001
0000
0100
0000
1000
0000
0010
0000
0100
0001
0000
1000
0100
0000
,
0110
0000
0010
0000
0001
0000
0100
0000
0010
0000
1000
0001
0000
1000
0100
0000
,
0010
0000
0001
0100
0000
0100
0010
0000
1000
0000
0010
1000
0000
0001
1000
0000
,
1100
0000
1000
0000
0001
0000
0010
0000
0001
0000
0100
0010
0000
1000
0100
0000
,
1000
0000
0010
0100
0000
0100
0001
0000
0010
0000
0001
0100
0000
0001
1000
0000
,
1001
0000
0010
0000
0100
0000
0001
0000
0100
0000
0010
0000
1000
0001
1000
0000
,
0001
0000
0010
0000
0001
0000
0100
0000
0010
0000
1000
0000
0100
1000
0100
0000
,
0110
0000
0010
0000
0001
0000
1000
0000
0010
0000
1000
0000
0100
0001
0100
0000
,
2000
0000
3200
0000
0320
0000
0032
0000
0103
0010
0100
0000
0001
1000
0001
0000
,
0011
0000
0001
0000
0100
0000
0010
0000
1000
0000
0100
0000
0001
1000
0001
0000
,
0010
0000
0001
0000
0100
0000
0010
0000
1000
0000
0100
0000
1000
0010
1000
0000
,
0001
0000
0010
0000
0001
0000
0100
0000
0010
0000
1000
0000
0100
1000
0100
0000
,
2000
3002
0203
0320
0000
0100
0130
0000
,
0210
0000
0000
0000
0010
0000
0000
0000
0301
0000
0101
0000
0000
0000
1000
0010
,
2000
0001
0001
0000
3100
1100
0000
0001
,
0012
0000
0000
0000
0100
0000
0000
0000
1003
0000
1001
0000
0000
0000
0010
0100
,
0020
1000
1030
0000
0010
0100
0001
1000
,
2100
0000
0000
0000
0010
0000
0000
0000
3100
0000
1001
0000
0000
0000
0001
0010
,
0001
0000
0100
0000
1000
0000
0000
0000
0010
0100
0010
0100
0010
0100
0010
0100
,
0010
0000
0000
0000
1100
0000
0000
1001
0000
0000
0101
0000
0000
0000
0000
0000
,
0110
0110
0000
1010
0000
0202
0303
0000
,
0100
0010
1001
0000
1000
0100
0001
0000
,
0010
0001
0100
0010
1000
0100
0001
0000
,
1000
0010
0101
0000
0010
0100
0001
0000
,
1000
0010
1000
0001
0100
0010
1000
0001
,
0010
0001
0100
0001
1000
0100
0010
0001
,
0100
0010
0100
0001
0010
0100
1000
0100
,
1000
0001
0010
0100
0001
0010
1000
0100
,
0001
0001
1000
1000
0010
0010
0100
0200
,
0000
0000
0000
0300
;

//---------------dance-solo - ----------------
#NOTES:
     dance-solo:
     :
     Challenge:
     13:
     0.615349,0.775730,0.370323,0.272870,0.487268,442.000000,404.000000,38.000000,28.000000,0.000000,0.000000,0.615349,0.775730,0.370323,0.272870,0.487268,442.000000,404.000000,38.000000,28.000000,0.000000,0.000000:
000000
000000
000000
000000
,
000000
000000
000000
000000
,
000000
000000
000000
000000
,
100010
000000
000000
001100
000000
000000
010010
000000
000000
000000
001001
000000
000000
010100
000000
000000
,
101000
000000
000000
100001
000000
000000
000110
000000
000000
000001
000010
000001
100000
000100
010000
001000
,
000000
022000
000000
000000
000000
000000
000000
003000
000000
030010
010000
001000
100000
000001
001000
000100
,
200100
000000
300001
000012
000000
100003
210000
000000
300100
100000
001000
010000
000010
100000
000001
000100
,
000000
000010
010000
001000
100000
000100
001000
000001
000100
000010
001000
000001
000000
100000
001000
010000
,
000000
000000
000100
000000
001100
000000
000000
000000
100000
000001
000000
100000
000001
000000
002000
000000
000000
000000
000010
000000
003010
000000
010000
000000
000100
000000
000100
000000
100000
000000
000001
000000
,
100001
000000
100000
000000
100000
001000
010000
000001
000000
000000
000000
000100
000001
010000
000010
000000
,
001000
000000
001000
000000
001000
000010
100000
000001
000000
000000
000000
010000
000100
100000
000001
000000
,
000101
000000
101000
000000
000100
100000
000100
001000
000010
000000
010000
000000
000001
100000
000100
001000
,
000010
000000
010000
000000
001000
100000
000001
001000
000100
000000
010000
000000
000010
010000
000100
100000
,
010100
000000
000010
000000
100000
000001
000100
000000
000010
000000
010000
000000
001000
100000
000001
000100
,
000010
000000
001000
000000
000100
100000
001000
000000
010000
000000
000001
000000
000100
000010
010000
001000
,
101000
000000
000001
000000
000100
000010
100000
001000
010000
000000
000100
000000
001000
000001
000100
000010
,
100000
000000
001000
000000
010000
000001
000100
001000
100000
000000
000010
000000
010000
000001
001000
000100
,
100100
000000
100000
000000
000010
000000
000100
000000
000001
000000
010000
001000
000000
010000
000010
000000
,
000100
000000
000001
000000
001000
000000
000010
000000
100000
000000
001000
010000
000000
000001
100000
000000
,
100010
000000
000010
000000
000100
000000
001000
000000
100000
000000
000001
010000
000000
000010
001000
000000
,
000100
000000
100000
001000
000000
010000
000001
000000
000010
000000
000001
001000
000000
000100
100000
000000
,
100001
000000
000001
000000
000100
000000
000010
000000
001000
000000
000100
100000
000000
000001
010000
000000
,
001000
000000
100000
000010
000000
000100
000001
000000
010000
000000
001000
100000
000000
000010
000100
000000
,
000110
000000
000010
000000
100000
000000
001000
000000
010000
000000
000001
000100
000000
000001
010000
000000
,
000010
000100
000010
000100
000000
000001
100000
000000
001000
010000
001000
010000
000000
000001
100000
000000
,
110000
000000
100000
000000
000100
000000
001000
000000
000010
000000
010000
000000
000001
000100
000001
000000
,
010000
000010
000100
001000
100000
000001
001000
001100
,
100001
000000
000001
000000
000100
000000
000010
000000
010000
000000
000001
000000
100000
001000
100000
000000
,
000020
000230
000302
020003
030200
002300
003200
200300
,
302000
000000
203000
000000
300001
000000
000100
000000
000010
000000
010000
000000
000100
001000
000100
000000
,
100000
000010
000100
000001
010000
000010
001000
000100
,
100000
000001
000100
001000
010000
001000
100000
000010
,
200000
300200
002300
003002
000000
010000
000013
000000
,
020010
000000
000000
000000
001000
000000
000000
000000
000001
000000
030001
000000
000000
000000
100000
000100
,
200000
000010
300010
000000
101000
101000
000000
000001
,
000201
000001
000001
000000
000010
000310
000000
100000
,
201000
000000
300002
000000
010003
000100
001000
000010
,
100000
000000
000000
000000
000001
000000
000000
000000
000100
000000
000100
000000
000000
000000
000010
010000
,
000010
000000
100000
000000
100000
000000
000000
000000
000100
010000
000100
010000
000100
010000
000100
000000
,
001100
000000
000000
000000
001001
000000
000000
100100
000000
000000
011000
000000
000000
000000
000011
000000
,
000000
101000
000000
000110
000000
100001
000000
000000
,
010000
000010
100000
000200
000000
001000
001300
000000
,
000001
000100
000010
100000
000100
010000
001000
000000
,
100000
000001
000200
000010
000000
010000
010300
000000
,
000001
100000
001000
010000
000100
100000
000010
000100
,
000001
000000
100000
000000
001000
000000
010000
000000
000000
000000
000100
000000
001000
000010
001000
000010
,
001000
000001
100000
001000
010000
000010
000100
000000
,
000001
000000
100000
000000
000100
000000
001000
000000
000010
000000
000100
000000
000001
000000
010000
000010
,
010000
000100
100000
001000
000100
000001
010000
000020
,
000000
000000
000000
000030
;

//---------------dance-solo - ----------------
#NOTES:
     dance-solo:
     :
     Beginner:
     6:
     0.172632,0.238152,0.000000,0.000000,0.000000,124.000000,124.000000,0.000000,0.000000,0.000000,0.000000,0.172632,0.238152,0.000000,0.000000,0.000000,124.000000,124.000000,0.000000,0.000000,0.000000,0.000000:
// measure 0
000000
000000
000000
000000
,  // measure 1
000000
000000
000000
000000
,  // measure 2
000000
000000
000000
000000
,  // measure 3
010000
000010
000000
000000
,  // measure 4
001000
000000
001000
000000
,  // measure 5
000010
010000
000000
000000
,  // measure 6
001000
000000
001000
000000
,  // measure 7
010000
000010
000000
000000
,  // measure 8
000000
000000
000000
000000
000010
000010
000010
000000
,  // measure 9
000000
000000
000000
000000
,  // measure 10
010000
000000
001000
000000
,  // measure 11
000010
000000
000010
000000
,  // measure 12
001000
000000
001000
000000
,  // measure 13
000010
000000
001000
000000
,  // measure 14
010000
000000
010000
000000
,  // measure 15
000010
000000
010000
000000
,  // measure 16
000000
000000
001000
000000
010000
010000
010000
000000
,  // measure 17
000000
010000
000000
000010
,  // measure 18
000000
001000
000000
010000
,  // measure 19
000000
000010
000000
001000
,  // measure 20
000000
010000
000000
000010
,  // measure 21
001000
001000
010000
010000
,  // measure 22
000010
000010
001000
001000
,  // measure 23
010000
000010
001000
010000
,  // measure 24
000010
000000
001000
000000
001000
001000
001000
000000
,  // measure 25
000000
000010
000000
010000
,  // measure 26
000010
010000
000010
010000
,  // measure 27
000000
000010
000000
001000
,  // measure 28
000010
001000
000010
001000
,  // measure 29
000000
000010
000000
001000
,  // measure 30
001000
001000
001000
001000
,  // measure 31
001000
000000
010000
000000
,  // measure 32
000000
000000
000000
000000
000010
000010
000010
000000
,  // measure 33
000000
010000
000010
000000
,  // measure 34
010000
000010
010000
000010
,  // measure 35
000000
010000
000000
001000
,  // measure 36
010000
001000
010000
001000
,  // measure 37
001000
001000
001000
001000
,  // measure 38
010000
000000
000000
000000
,  // measure 39
000010
000000
000000
000000
,  // measure 40
000000
000000
000000
000000
010000
010000
010000
000000
,  // measure 41
000000
001000
000000
001000
,  // measure 42
000010
010000
000010
010000
,  // measure 43
000000
001000
000000
001000
,  // measure 44
010000
000010
010000
000010
,  // measure 45
010000
000010
010000
000010
,  // measure 46
001000
000000
001000
000000
,  // measure 47
010000
000000
000010
001000
,  // measure 48
001000
000000
010000
000000
000010
000000
010000
000010
;
