#TITLE:WH1TE RO5E;
#SUBTITLE:;
#ARTIST:Y&Co.;
#TITLETRANSLIT:;
#SUBTITLETRANSLIT:;
#ARTISTTRANSLIT:;
#GENRE:;
#CREDIT:;
#BANNER:WH1TE RO5E.png;
#BACKGROUND:WH1TE RO5E-bg.png;
#LYRICSPATH:;
#CDTITLE:;
#MUSIC:WH1TE RO5E.ogg;
#OFFSET:0.000000;
#SAMPLESTART:57.889999;
#SAMPLELENGTH:15.000000;
#SELECTABLE:YES;
#DISPLAYBPM:85.000000:170.000000;
#BPMS:0.000000=170.615997
,4.000000=169.977997
,100.000000=85.005997
,132.000000=169.983002
;
#STOPS:
;
#BGCHANGES:;
#KEYSOUNDS:;
#ATTACKS:;

//---------------dance-single - ----------------
#NOTES:
     dance-single:
     :
     Beginner:
     3:
     0.121713,0.204786,0.020530,0.020530,0.000000,83.000000,81.000000,2.000000,2.000000,0.000000,0.000000,0.121713,0.204786,0.020530,0.020530,0.000000,83.000000,81.000000,2.000000,2.000000,0.000000,0.000000:
0000
0000
0000
0000
,
0000
0000
0000
0000
,
0000
0000
0000
0000
,
0000
0000
0000
0000
,
0000
0000
0000
0000
,
0100
0000
0000
0000
,
0100
0000
0000
0000
,
0010
0000
0000
0000
,
0010
0000
0000
0000
,
0001
0000
0001
0000
,
0001
0000
0000
0000
,
1000
0000
1000
0000
,
1000
0000
0000
0000
,
0010
0000
0010
0000
,
0010
0000
0000
0000
,
0001
0000
0001
0000
,
0001
0000
0000
0000
,
1000
0000
1000
0000
,
0100
0000
0000
0000
,
0010
0000
0000
0000
,
0100
0000
0000
0000
,
0001
0000
0001
0000
,
0100
0000
0000
0000
,
0010
0000
0000
0000
,
0100
0000
0010
0000
,
0100
0000
0001
0000
,
1000
1000
1000
0000
,
0010
0000
1000
0000
,
0001
0001
0001
0000
,
0010
0000
0010
0000
,
0100
0000
0100
0000
,
0001
0000
1000
0000
,
0001
1000
1001
0000
,
0100
0000
0100
0000
,
0100
0000
0000
0000
,
0001
0000
0001
0000
,
0001
0000
0000
0000
,
1000
0000
1000
0000
,
1000
0000
0000
0000
,
0010
0000
0010
0000
,
0010
0000
0000
0000
,
0200
0300
0000
0000
,
0010
0000
0100
0000
,
0010
0000
0000
0000
,
0001
0000
0001
0000
,
0100
0000
0000
0000
,
1000
0000
1000
0000
,
0100
0000
0000
0000
,
0010
0000
0000
0000
,
1001
0000
0000
0000
,
0001
0000
0000
0000
,
0010
0000
0010
0000
,
0100
0000
0100
0000
,
1000
0000
0000
0001
,
0000
0000
0000
0000
,
0100
0000
0010
0000
,
1000
0000
0200
0000
,
0300
0000
0000
0000
,
0000
0000
0000
0000
;

//---------------dance-single - ----------------
#NOTES:
     dance-single:
     :
     Easy:
     5:
     0.219963,0.321100,0.082120,0.133444,0.000000,150.000000,142.000000,8.000000,13.000000,0.000000,0.000000,0.219963,0.321100,0.082120,0.133444,0.000000,150.000000,142.000000,8.000000,13.000000,0.000000,0.000000:
0000
0000
0000
0000
,
0000
0000
0000
0000
,
0000
0000
0000
0000
,
0000
0000
0000
0000
,
0000
0000
0000
0000
,
0001
0000
0001
0000
,
0001
0000
0001
0000
,
1000
0000
1000
0000
,
2002
0000
3003
0000
,
0100
0100
0000
0001
,
0000
0010
0000
0001
,
0100
1000
0000
0010
,
0000
1000
0000
0100
,
0010
0100
0000
0010
,
0000
1000
0000
0001
,
1000
0010
0000
0010
,
1000
0001
1000
0001
,
0100
0010
0000
0100
,
0000
0001
0000
1000
,
0100
0010
0000
0001
,
0000
0100
0000
0010
,
0100
0001
0000
1000
,
0000
0010
0000
1000
,
0000
0010
0000
0100
,
0200
0000
0310
0000
,
2000
3000
0002
0003
,
0200
0300
0020
0030
,
1000
1000
1000
0000
,
0001
0001
0001
0000
,
1001
0000
1001
0000
,
0110
0000
0110
0000
,
1000
0001
1000
0001
,
1000
0001
1000
0001
2000
0000
0000
0000
,
3100
0000
0010
0100
,
0100
0010
1000
0001
,
0100
0000
0100
0010
,
0010
0100
0010
1000
,
0100
0000
0100
1000
,
0100
0010
0100
0001
,
0100
0000
0010
0001
,
0010
0100
0010
1000
,
0020
0130
0000
1000
,
0001
0001
1000
0010
,
0100
0000
0001
1000
,
1000
0010
0100
0001
,
1000
0000
1000
0001
,
0001
0100
0010
1000
,
0001
0000
1000
0001
,
0010
0000
0110
0000
,
0001
2002
0000
3003
,
0220
0000
0330
0000
,
1000
0000
1000
0000
,
0001
0000
0001
0000
,
0010
0000
0000
0010
0000
0000
0010
0000
,
0000
0000
0000
0000
,
0010
0000
0100
0000
,
0010
0000
1000
0000
0001
0000
0100
0100
,
0000
0000
0000
0000
;

//---------------dance-single - ----------------
#NOTES:
     dance-single:
     :
     Medium:
     9:
     0.362206,0.501699,0.143709,0.215564,0.030795,247.000000,233.000000,14.000000,21.000000,0.000000,0.000000,0.362206,0.501699,0.143709,0.215564,0.030795,247.000000,233.000000,14.000000,21.000000,0.000000,0.000000:
0000
0000
0000
0000
,
0000
0000
0000
0000
,
0000
0000
0000
0000
,
0000
0000
0000
0000
,
0000
0000
0000
0000
,
0100
0000
0010
0100
0000
0000
0000
0000
,
0100
0000
0001
0100
0000
0000
0000
0000
,
0100
0000
1000
0100
0000
0000
0000
0000
,
0001
1000
0000
0010
0200
0000
0000
0000
,
0310
0000
0100
0010
0000
0000
0010
0000
,
0100
0000
0001
0010
0000
0000
0001
0000
,
0010
0000
0100
1000
0000
0000
0010
0000
,
0100
0100
0001
0100
,
0001
0000
1000
0020
0000
0000
0130
0000
,
0001
0000
0010
0002
0000
0000
1003
0000
,
0100
0000
1000
0200
0000
0000
0310
0000
,
0100
0010
0100
0000
0100
0000
1001
0000
,
1000
0000
0010
0100
0001
0000
0100
0000
,
0001
0000
0100
0010
0100
0000
1000
0000
,
0100
0010
1000
0000
0001
0000
0010
0000
,
0101
0000
0010
0100
,
0001
0000
1000
0000
0001
0010
0100
0000
,
1000
0100
0010
0001
,
0100
0010
0100
0000
0001
0000
1000
0000
,
1001
0000
0000
0000
0000
0000
0000
0000
0100
0000
0000
0100
0000
0000
0100
0000
,
0002
1000
2003
0010
,
3020
0100
0230
0001
,
0301
0001
1000
0000
0100
0100
0010
0000
,
1000
0010
0010
0000
0001
1000
1000
0000
,
0020
0100
0130
0000
2000
0100
3100
0000
,
0002
0010
0013
0000
0200
0010
0310
0000
,
1000
0100
1000
0100
0001
0100
0001
0100
,
1100
0000
0101
0000
2002
0000
0000
3003
,
0010
0010
0000
0000
0100
0000
0110
0000
,
0010
0000
0010
0000
0010
0001
0010
0000
,
0100
0100
0000
0000
1000
0000
1001
0000
,
0001
0000
0001
0000
1000
0100
1000
0000
,
0000
0001
0001
0000
0100
0000
1100
0000
,
0010
0100
0010
0100
,
1000
1000
0000
0000
0010
0000
0011
0000
,
0010
1000
0001
0100
,
0110
0000
1001
0000
0000
0000
0010
0100
,
1000
0001
0100
0010
,
1000
0100
0000
0000
1000
0000
0010
1000
,
0100
0000
0001
0000
0100
0010
0100
0000
,
0000
0001
0000
1000
1000
0000
0010
0100
,
0010
0000
1000
0000
1000
0001
1000
0000
,
0010
0100
0000
0000
0001
0000
0010
0000
,
0020
0000
0000
0000
0000
0000
0000
0000
0130
0000
0000
0100
0000
0000
0100
0000
,
0010
0000
0000
0000
1000
0000
0000
1000
0000
0000
1000
0000
0100
0000
0000
0000
,
2200
0000
0000
0000
0000
0000
0000
3300
0000
0000
0000
0000
0000
0000
0000
0000
,
0101
0000
0000
0000
0000
0000
0000
0000
0010
0000
0000
0010
0000
0000
0010
0000
,
0100
0000
0001
1000
0002
0000
1003
1000
,
0001
0000
0100
0000
0000
0000
0001
0000
0100
0000
0000
0000
0001
0000
0000
0010
,
0000
0000
0100
0000
0000
1000
0000
0000
0100
0000
0000
0000
0020
0000
0000
0000
,
0130
0000
1000
0100
0010
0001
0010
0000
,
0100
0000
1000
0010
0200
0300
0010
0002
,
0000
0000
0003
0000
,
0000
0000
0000
0000
;

//---------------dance-single - ----------------
#NOTES:
     dance-single:
     :
     Hard:
     13:
     0.588034,0.944374,0.338743,0.092384,0.338743,401.000000,368.000000,33.000000,9.000000,0.000000,0.000000,0.588034,0.944374,0.338743,0.092384,0.338743,401.000000,368.000000,33.000000,9.000000,0.000000,0.000000:
0000
0000
0000
0000
,
0000
0000
0000
0000
,
0000
0000
0000
0000
,
0000
0000
0000
0000
,
0000
0000
0000
0000
,
0100
0000
0001
1000
0000
0000
1000
0000
,
0100
0000
0010
0001
0000
0000
0001
0000
,
0100
0000
0010
1000
0000
0000
1000
0000
,
0100
0000
0010
0000
0000
0000
0010
0000
0100
0000
0000
0100
0000
0000
0010
0000
,
1001
0000
0001
0100
0010
0010
0010
1000
,
0100
0000
0010
0001
0000
0000
0100
0010
,
0100
0000
1000
0001
0100
0100
0100
0010
,
1000
0000
0000
0000
0010
0000
0000
0100
0000
0000
0100
0000
0010
0000
0000
0000
,
0100
0000
1000
0001
0010
0010
0010
0100
,
0010
0000
1000
0010
0000
0000
0100
0010
,
0100
0000
0001
1000
0010
0010
0010
1000
,
0100
0010
0110
0000
1000
0001
1001
0000
,
0020
0000
1030
1000
0000
0010
0010
0100
,
0001
0001
0000
1000
1000
0100
0010
0001
,
0100
0100
0000
0010
0010
0000
1000
0010
,
1000
0000
0000
0000
0000
0100
0001
0100
,
0010
0010
0000
1000
0010
0000
0100
0010
,
0100
0100
0001
0000
1000
1000
0100
0000
,
0010
0010
0000
0001
0001
0000
1000
0010
,
1000
0000
0000
0000
1100
0000
0000
0000
0001
0000
0000
0010
0000
0000
0100
0000
,
1100
0000
1000
0100
1000
0000
0010
0010
0000
0100
0100
0000
0001
0010
0100
0000
,
0011
0000
0100
0100
0001
0000
1000
1000
0000
0010
0010
0000
0100
0010
1000
0000
,
0001
0001
0000
0010
0010
0000
0100
0100
0000
1000
1000
0000
0001
1000
0001
0000
,
0010
0100
0000
0100
1000
0000
1000
0010
0000
0010
0100
0000
0100
0001
0100
0000
,
1001
0000
0010
0100
0010
0100
0010
0000
1100
0000
0001
0010
0100
0010
0001
0000
,
0101
0000
1000
0100
0010
0100
1000
0000
0110
0000
0001
1000
0001
1000
0001
0000
,
1100
0100
0010
0000
0101
0100
0010
0000
1010
0010
0100
0000
0011
0010
0100
0000
,
1000
0100
0001
0100
1000
0100
0001
0100
0020
0000
0000
0000
0000
0030
0100
0010
,
0110
0100
0000
1000
1100
0000
0001
0001
,
0000
0101
0000
0010
1000
0001
1000
0010
,
0100
0100
0000
0001
0101
0000
1000
1000
,
0100
0010
0010
0000
0110
0000
0001
0000
,
0000
1000
0000
0100
0110
0000
0001
0001
,
1000
1000
0000
0010
1010
0000
0001
0100
,
0001
0001
0000
1000
1100
0000
0010
0100
,
0010
0010
0000
0000
1001
0000
1001
0000
,
0120
0000
0100
0000
1030
0000
0000
0200
0000
0000
0010
0000
0310
0000
0000
0000
,
0001
0001
0000
1000
1001
0000
0010
0100
,
0001
0001
0100
1000
1000
0000
0100
0100
,
0010
1000
1000
0000
0001
0001
0100
0000
,
0000
1001
0000
0100
0110
0000
0001
1000
,
0010
0010
0100
0001
0001
0000
1010
0000
,
0110
0100
0010
0100
0100
0000
0001
1000
,
1001
0000
0000
0000
0000
0000
0000
0000
1001
0000
0000
0100
0000
0000
0010
0000
,
1001
0000
0000
0000
0010
0000
1000
0010
0000
1000
0010
0000
0200
0000
0000
0000
,
0301
0000
1000
0000
1000
0100
1000
0010
0000
0010
0100
0010
0100
0001
0000
0000
,
0001
0010
0001
0010
0100
0000
0000
0000
1000
0000
0100
1000
0000
0100
0000
0000
,
0010
0000
0000
0000
0001
0010
0100
1000
0002
0000
0000
0000
0103
0000
0100
0000
,
0010
0000
0020
0000
0000
0000
0130
0000
0001
0000
1000
0000
0001
0100
0000
0010
,
1000
0000
0001
0010
0001
0010
0000
0100
0010
0000
0100
0000
2000
0000
0000
0000
,
3001
0010
0000
0000
0001
1000
0001
1000
0010
0100
0010
0000
1000
0000
0000
0000
,
1000
0100
1000
0000
0010
0001
0010
0001
0100
0000
0000
0100
0010
0000
0200
0000
,
0000
0000
0300
0000
;

//---------------dance-double - ----------------
#NOTES:
     dance-double:
     :
     Easy:
     5:
     0.190635,0.321100,0.061590,0.174504,0.000000,130.000000,124.000000,6.000000,17.000000,0.000000,0.000000,0.190635,0.321100,0.061590,0.174504,0.000000,130.000000,124.000000,6.000000,17.000000,0.000000,0.000000:
00000000
00000000
00000000
00000000
,
00000000
00000000
00000000
00000000
,
00000000
00000000
00000000
00000000
,
00000000
00000000
00000000
00000000
,
00000000
00000000
00000000
00000000
,
01000000
00000000
00000000
00000000
,
00000100
00000000
00000000
00000000
,
00100000
00000000
00000000
00000000
,
00022000
00000000
00033000
00000000
,
00000020
00000000
00000030
00000000
,
00000200
00000000
00000300
00000000
,
00020000
00000000
00030000
00000000
,
00200000
00000000
00300000
00000000
,
20000000
00000000
30000000
00000000
,
00200000
00000000
00300000
00000000
,
00020000
00000000
00030000
00000000
,
00000200
00000000
00000300
00000000
,
00000010
00000100
00000000
00000010
,
00000000
00000001
00000000
00001000
,
00000100
00001000
00000000
00000100
,
00000000
00010000
00000000
00001000
,
00010000
00001000
00000000
00100000
,
00000000
00010000
00000000
01000000
,
00000000
10000000
00000000
01000000
,
01000000
00100000
01000000
00000000
,
00100000
01000000
00100000
00000000
,
00010000
00001000
00010000
00000000
,
00000100
00000010
00000100
00000000
,
00000001
00001000
00000001
00000000
,
00001001
00000000
00000100
00000000
,
00011000
00000000
00100000
00000000
,
10010000
01000000
00100000
01000000
,
00001000
00010000
00001000
00010000
00002000
00000000
00000000
00003000
,
00010000
00000000
01000000
00100000
,
00100000
01000000
00100000
00000000
,
00010000
00000000
00000010
00000100
,
00000100
00000010
00000100
00000000
,
00001000
00000000
01000000
00100000
,
01000000
10000000
01000000
00000000
,
00010000
00000000
00000100
00001000
,
00000100
00000010
00000100
00000000
,
00020000
00031000
00000000
00001000
,
00010000
00010000
01000000
00100000
,
01000000
00000000
00010000
00010000
,
00001000
00001000
00000100
00000010
,
00000100
00000000
00000001
00000001
,
00001000
00001000
00000100
00000100
,
00010000
00000000
00000000
00000000
00001000
00010000
00001000
00000000
,
00200000
00000000
01300000
00000000
,
01000000
20020000
00000000
30030000
,
02200000
00000000
03300000
00000000
,
00001000
00000000
00000000
00000000
,
01000000
00000000
01000000
00000000
,
00010000
00000000
00000000
00010000
00000000
00000000
00010000
00000000
,
00000000
00000000
00000000
00000000
,
00000001
00000000
00000010
00000000
,
00000100
00000000
00010000
00000000
00001000
00000000
01000000
01000000
,
00000000
00000000
00000000
00000000
;

//---------------dance-double - ----------------
#NOTES:
     dance-double:
     :
     Medium:
     9:
     0.363672,0.501699,0.112914,0.215564,0.030795,248.000000,237.000000,11.000000,21.000000,0.000000,0.000000,0.363672,0.501699,0.112914,0.215564,0.030795,248.000000,237.000000,11.000000,21.000000,0.000000,0.000000:
00000000
00000000
00000000
00000000
,
00000000
00000000
00000000
00000000
,
00000000
00000000
00000000
00000000
,
00000000
00000000
00000000
00000000
,
00000000
00000000
00000000
00000000
,
00000001
00000000
00000010
00000100
00000000
00000000
00000000
00000000
,
00001000
00000000
00000010
00000100
00000000
00000000
00000000
00000000
,
00001000
00000000
00010000
00001000
00000000
00000000
00000000
00000000
,
00100000
01000000
00000000
01000000
00200000
00000000
00300000
00000000
,
01100000
00000000
00100000
01000000
00000000
00000000
01000000
00000000
,
10000000
00000000
01000000
10000000
00000000
00000000
01000000
00000000
,
00100000
00000000
01000000
00100000
00000000
00000000
01000000
00000000
,
00010000
00001000
00000010
00000100
,
00000010
00000000
00000001
00000100
00000000
00000000
00000010
00000000
,
00001000
00000000
00000100
00001000
00000000
00000000
00000010
00000000
,
00000100
00000000
00001000
00010000
00000000
00000000
00001000
00000000
,
00010000
00001000
00010000
00000000
00001000
00000000
00011000
00000000
,
01000000
00100000
10000000
01000000
,
00100000
01000000
00100000
01000000
,
00100000
00010000
00000000
00100000
00001000
00000000
00010000
00000000
,
00001000
00000100
00000010
00000100
,
00000010
00000000
00000100
00000000
00000010
00000000
00001000
00000001
,
00000000
00000010
00000001
00000000
00000010
00000100
00000000
00000010
,
00000100
00000010
00000000
00000000
00000100
00000000
00010000
00000000
,
00001000
00000000
00000000
00000000
00011000
00000000
00000000
00000000
00100000
00000000
00000000
00100000
00000000
00000000
00100000
00000000
,
00020000
00000000
01000000
00000000
10030000
10000000
10000000
10000000
,
00200000
00000000
01000000
00000000
00310000
00010000
00010000
00010000
,
00002000
00000000
00010000
00000000
00003010
00000010
00000010
00000010
,
00000200
00000000
00000001
00000000
00001300
00001000
00001000
00001000
,
00000200
00000000
00000310
00000010
00000020
00000000
00000031
00000001
,
00000002
00000000
00001003
00001000
00002000
00000000
00013000
00010000
,
00010000
01000000
00010000
00100000
00010000
01000000
00010000
00100000
,
00001000
00001000
00010000
00010000
00022000
00000000
00000000
00033000
,
00011000
00000000
00000010
00000100
,
00000100
00000000
00000010
00000000
00000100
00000010
00000100
00000000
,
00000001
00000001
00000000
00000000
00001000
00000000
00000100
00000000
,
00010000
00001000
00100000
01000000
,
00100000
00100000
00000000
00000000
01000000
00000000
01100000
00000000
,
10000000
00100000
00010000
01000000
,
00100000
00100000
00000000
00000000
00010000
00000000
00011000
00000000
,
00000100
00000010
00000100
00000010
,
00000220
00000000
00000330
00000000
00000000
00000000
00000100
00000010
,
00000001
00000100
00001000
00010000
,
00100000
01000000
00000000
00000000
00010000
00000000
00100000
00000000
,
01000000
00000000
10000000
00000000
00100000
01000000
00010000
00000000
,
00000000
01000000
00100000
00100000
01000000
00000000
00010000
00100000
,
00001000
00000000
00010000
00000000
00000100
00000010
00000100
00000000
,
00000100
00000010
00000000
00000000
00000001
00000000
00000010
00000000
,
00000220
00000000
00000000
00000000
00000330
00000000
00000000
00000000
00000010
00000000
00000000
00000010
00000000
00000000
00000010
00000000
,
00001000
00000000
00000000
00000000
00100000
00000000
00000000
00100000
00000000
00000000
00100000
00000000
01000000
00000000
00000000
00000000
,
02200000
00000000
03300000
00000000
,
00011000
00000000
00000000
00000000
00000000
00000000
00000000
00000000
00000100
00000000
00000000
00000100
00000000
00000000
00000100
00000000
,
00000010
00000000
00000001
00000100
00002000
00000000
00003100
00000100
,
00000010
00000000
00000010
00000000
00000000
00000000
00000100
00000000
00000010
00000000
00000000
00000000
00000100
00000000
00000000
00001000
,
00000000
00000000
00010000
00000000
00000000
00100000
00000000
00000000
10000000
00000000
00000000
00000000
00200000
00000000
00000000
00000000
,
01300000
00000000
01000000
00001000
00010000
00000010
00001000
00000000
,
00000100
00010000
00001000
00100000
02000000
03000000
00100000
02000000
,
00000000
00000000
03000000
00000000
,
00000000
00000000
00000000
00000000
;

//---------------dance-double - ----------------
#NOTES:
     dance-double:
     :
     Hard:
     13:
     0.552840,0.885351,0.307948,0.184769,0.292551,377.000000,347.000000,30.000000,18.000000,0.000000,0.000000,0.552840,0.885351,0.307948,0.184769,0.292551,377.000000,347.000000,30.000000,18.000000,0.000000,0.000000:
00000000
00000000
00000000
00000000
,
00000000
00000000
00000000
00000000
,
00000000
00000000
00000000
00000000
,
00000000
00000000
00000000
00000000
,
00000000
00000000
00000000
00000000
,
00000010
00000000
00000100
00000010
00000000
00000000
00001000
00000000
,
00010000
00000000
01000000
00100000
00000000
00000000
00010000
00000000
,
00001000
00000000
00000100
00000010
00000000
00000000
00001000
00000000
,
00000100
00000000
00000010
00000000
00000000
00000000
00001000
00000000
00010000
00000000
00000000
00001000
00000000
00000000
00010000
00000000
,
00011000
00000000
00010000
01000000
00100000
00100000
00100000
00000000
,
10000000
00000000
00100000
01000000
00000000
00000000
00010000
00001000
,
00010000
00000000
00000010
00000100
00000010
00000010
00000010
00000000
,
00001000
00000000
00000000
00000000
00000001
00000000
00000000
00000010
00000000
00000000
00000010
00000000
00000001
00000000
00000000
00000000
,
00000100
00000000
00000010
00001000
00000100
00000100
00000100
00000000
,
00000010
00000000
00000001
00000100
00000000
00000000
00001000
00010000
,
00001000
00000000
00010000
00100000
01000000
01000000
01000000
00000000
,
00100000
01000000
01000000
00000000
10000000
00010000
10010000
00000000
,
11000000
00000000
00100000
01000000
00000000
01000000
00010000
00000000
,
00010000
00001000
00000000
00001000
00000100
00000000
00000100
00000010
,
00000100
00000010
00000000
00000010
00000001
00000000
00000001
00000010
,
00000100
00000000
00000001
00000000
00000010
00000100
00010000
00001000
,
00001000
00010000
00000000
00010000
01000000
00000000
01000000
00100000
,
01000000
00000000
01100000
00000000
01000000
10000000
00100000
00010000
,
00001000
00010000
00000000
00010000
00001000
00000000
00001000
00000100
,
00000010
00000000
00000000
00000000
00000110
00000000
00000000
00000000
00000001
00000000
00000000
00001000
00000000
00000000
00010000
00000000
,
00011000
00000000
00001000
00100000
00100000
00000000
01000000
01000000
00000000
00100000
00100000
00000000
01000000
00010000
00001000
00000000
,
00011000
00000000
00001000
00000100
00000100
00000000
00000010
00000010
00000000
00000100
00000100
00000000
00000010
00000100
00001000
00000000
,
00001000
00010000
00000000
00010000
00100000
00000000
00100000
01000000
00000000
01000000
00100000
00000000
10000000
01000000
00010000
00000000
,
00010000
00001000
00000000
00001000
00000010
00000000
00000010
00000100
00000000
00000100
00000010
00000000
00000001
00000010
00001000
00000000
,
00022000
00000000
00033000
00000000
00001000
00010000
00100000
00000000
02200000
00000000
03300000
00000000
01000000
10000000
01000000
00000000
,
02200000
00000000
03300000
00000000
00100000
00010000
00001000
00000000
00000220
00000000
00000330
00000000
00000100
00000001
00000010
00000000
,
00000011
00000000
00000001
00000100
00000110
00000000
00000010
00010000
00011000
00000000
00010000
00100000
01100000
00000000
00100000
10000000
,
00010000
01000000
00100000
10000000
01000000
00010000
00001000
00000010
00000200
00000000
00000000
00000000
00000000
00000000
00000300
00000000
,
00000010
00000010
00000000
00000100
00000101
00000000
00001000
00000001
,
00000100
00000010
00000000
00000100
00001000
00000000
00001000
00010000
,
00001000
00001000
00000000
00100000
00101000
00000000
01000000
01000000
,
10000000
00100000
01000000
00000000
01100000
00000000
10010000
00000000
,
00000000
00001000
00000000
00000100
00000110
00000000
00001000
00001000
,
00000001
00000100
00000010
00000100
00000100
00000000
00000010
00010000
,
00001000
00000100
00000000
00000100
00001000
00000000
00001000
00010000
,
00001000
00001000
00000000
00000000
00011000
00000000
00011000
00000000
,
02100000
00000000
00000000
00000000
03100000
00000000
00000000
00002000
00000000
00000000
01000000
00000000
01003000
00000000
00000000
00000000
,
00001000
00001000
00000000
00010000
00011000
00000000
00010000
00000010
,
00000100
00000100
00000000
00000001
00000001
00000000
00000100
00000110
,
00000000
00000100
00000010
00010000
00001000
00000000
00011000
00000000
,
00000000
01100000
00000000
10000000
11000000
00000000
01000000
00100000
,
01000000
00100000
01000000
10000000
10000000
00000000
01000000
00000000
,
00010000
00001000
00000000
00001000
00000100
00000000
00000100
00000010
,
00000110
00000000
00000000
00000000
00000000
00000000
00000000
00000000
00000001
00000000
00000000
00001000
00000000
00000000
00010000
00000000
,
00011000
00000000
00000000
00000000
00100000
00000000
00001000
00100000
00000000
00001000
00100000
00000000
02000000
00000000
00000000
00000000
,
13000000
00000000
00100000
00000000
00010000
00000000
00001000
00010000
00000000
00001000
00010000
00001000
00010000
00000100
00000000
00000000
,
00000010
00000001
00000010
00000001
00000100
00000000
00000000
00000000
00000001
00000000
00000010
00000100
00000000
00000010
00000000
00000000
,
00000100
00000000
00000000
00000000
00001000
00000100
00000010
00000001
00002000
00000000
00000000
00000000
00003010
00000000
00000010
00000000
,
00000100
00000000
00002000
00000000
00000000
00000000
00013000
00000000
00001000
00000000
00010000
00000000
00001000
00010000
00000000
00001000
,
00100000
00000000
00001000
01000000
00001000
01000000
00000000
00100000
01000000
00000000
00100000
00000000
20000000
00000000
00000000
00000000
,
31000000
00100000
01000000
00000000
00020000
00000000
00000000
00000000
00031000
00100000
00001000
00000000
00020000
00000000
00000000
00000000
,
00030100
00000010
00000100
00000000
00000010
00000001
00000010
00000000
00000001
00000000
00000000
00000100
00001000
00000000
00020000
00000000
,
00000000
00000000
00030000
00000000
,
00000000
00000000
00000000
00000000
;

//---------------dance-single - ----------------
#NOTES:
     dance-single:
     :
     Challenge:
     16:
     0.897449,1.600561,0.698016,0.020530,0.995699,612.000000,544.000000,68.000000,2.000000,0.000000,0.000000,0.897449,1.600561,0.698016,0.020530,0.995699,612.000000,544.000000,68.000000,2.000000,0.000000,0.000000:
// measure 0
0000
0000
0000
0000
,  // measure 1
0000
0000
0000
0000
,  // measure 2
0000
0000
0000
0000
,  // measure 3
0000
0000
0000
0000
,  // measure 4
0000
0000
0000
0000
,  // measure 5
0010
0000
1000
0000
0100
0000
0010
0000
0000
0001
1000
0000
0010
0000
0000
0000
,  // measure 6
0100
0000
0001
0000
0010
0000
0100
0000
0000
1000
0001
0000
0010
0000
0000
0000
,  // measure 7
0001
0000
1000
0000
0010
0000
0100
0000
0000
0010
1000
0000
0100
0000
0000
0000
,  // measure 8
1100
0000
1100
0000
0000
0000
0001
0000
0011
0000
0000
0101
0000
0000
1010
0000
,  // measure 9
1001
0000
0010
0000
1000
0001
0000
0010
0000
0100
0000
1000
0010
0000
0100
0000
,  // measure 10
0001
0000
0000
0000
0010
0001
0000
1000
0000
0010
0000
1000
0100
0000
0010
0000
,  // measure 11
0100
0000
1000
0000
0010
0100
0000
0001
0000
0010
0000
0001
1000
0000
0010
0000
,  // measure 12
0100
0000
0000
0000
0010
1000
0000
0100
0000
0010
0000
0001
0100
0000
0001
0000
,  // measure 13
1000
0000
0001
0000
0010
0100
0000
0010
0000
0001
0000
1000
0010
0000
0100
0000
,  // measure 14
0001
0000
0000
0000
0010
0001
0000
1000
0000
0010
0000
0100
0001
0000
1000
0000
,  // measure 15
0100
0000
0010
0000
0001
0100
0000
0010
0000
1000
0000
0100
1000
0000
0001
0000
,  // measure 16
0010
0000
0001
0000
0100
0010
0000
1000
0100
0000
0010
0000
0001
1000
0001
0000
,  // measure 17
0011
0000
1001
1000
0100
0110
0001
0000
,  // measure 18
0101
0001
1000
0100
1100
0001
0101
0000
,  // measure 19
0110
0010
1000
0100
1100
0001
0100
0101
,  // measure 20
0001
0000
0010
0000
0100
0000
1000
0010
0000
1000
0001
0000
0100
0000
0000
0000
,  // measure 21
0110
0010
1000
0001
0011
0010
0100
1100
,  // measure 22
0001
1000
1010
0010
1000
1100
0010
0001
,  // measure 23
0101
0100
0010
1000
1010
0001
1000
0001
,  // measure 24
0100
0010
0100
0010
1000
0001
1000
0001
0010
0000
0000
0011
0000
0000
1100
0000
,  // measure 25
1001
0000
0100
0100
0100
0010
1000
0001
0010
0100
1000
0001
0101
0000
1100
0000
,  // measure 26
1010
0010
1000
0001
0011
0010
0100
1000
0000
0001
0001
0000
0011
0000
1100
0010
,  // measure 27
1010
0101
0000
0011
1100
0000
1001
0110
0000
0101
1100
0000
0011
0000
1010
0000
,  // measure 28
1001
1000
0100
0010
0110
0100
1000
0010
0000
0100
0001
0000
0011
0000
1100
0001
,  // measure 29
1001
0000
0001
0000
0100
0000
0000
0010
0000
1000
0000
0100
0010
0000
0001
1000
0001
0000
0010
0000
0100
0000
0000
1000
0000
0010
0000
1000
0100
0000
0010
0001
,  // measure 30
0100
0000
0010
0000
1000
0000
0000
0100
0000
0010
0000
0001
0100
0000
0001
0010
0100
0000
1000
0000
0001
0000
0000
0010
0000
0001
0000
0100
0010
1000
0001
0100
,  // measure 31
0001
0000
0010
0000
0100
0000
1000
0010
1000
0000
0001
0000
0100
0000
0010
1000
0100
0000
0010
0000
0001
0000
0100
0001
1000
0000
0010
0000
0100
0001
1000
0001
,  // measure 32
0010
0001
0010
0001
0100
0001
0100
0001
1000
0100
1000
0100
1000
0010
1000
0010
0100
0010
0100
0010
1000
0010
1000
0010
1000
0001
1000
0001
0100
0000
0010
0000
,  // measure 33
0110
0010
1000
0001
0011
0010
0100
1000
,  // measure 34
0010
0000
0101
0000
0001
0000
1000
0000
0010
1000
0010
0000
1000
0100
1000
0000
,  // measure 35
1100
1001
0100
0001
0011
0010
0100
1000
,  // measure 36
0001
0000
0101
0000
1000
0000
0000
0000
0010
0100
0010
0000
0100
0001
0100
0000
,  // measure 37
0001
1010
0010
0100
0101
0001
1000
0010
,  // measure 38
1000
0000
1001
0000
0001
0000
0010
0000
0100
1000
0100
0000
1000
0001
1000
0000
,  // measure 39
0011
0101
1000
1100
1010
0010
0110
1001
,  // measure 40
0010
0000
1100
0000
1000
0000
0010
0000
0100
0001
0100
0001
1000
0100
1000
0100
,  // measure 41
0010
0000
0000
0000
1001
0000
0010
0000
0000
1000
0000
0100
1000
0000
0001
0000
,  // measure 42
0010
0000
0001
0000
0100
0000
0001
0000
0100
0010
1000
0000
0001
1000
0100
0000
,  // measure 43
1000
0000
0010
0000
0100
0000
0001
0010
0001
0000
0100
0000
0010
1000
0010
0000
,  // measure 44
1000
0000
0001
0010
0100
0000
1000
0000
0010
0100
0001
0000
0100
0001
1000
0000
,  // measure 45
0001
0000
0100
0010
0100
0000
0001
0000
0010
0100
1000
0000
0010
0000
1000
0001
,  // measure 46
1000
0000
0010
0000
0100
0001
0100
0000
0001
0000
0010
0100
1000
0000
0000
0000
,  // measure 47
1000
0100
1000
0000
0010
0000
0100
0001
1000
0000
0001
0000
0010
0001
0100
0000
,  // measure 48
0010
1000
0010
1000
0010
1000
0010
1000
0001
0000
0000
0011
0000
0000
0110
0000
,  // measure 49
1100
0000
0001
0100
0001
0000
1000
0100
0000
1000
0001
0000
0100
0000
0000
0000
,  // measure 50
0010
1000
0010
0100
0001
0010
0100
1000
0000
0010
0000
0100
0001
0000
1000
0010
,  // measure 51
0100
0001
1000
0001
0100
0000
0000
0000
0010
0000
1000
0001
0000
0001
0100
0000
,  // measure 52
0001
0010
0001
0000
0100
0010
0100
0010
1000
0100
1000
0100
0010
0001
1000
0000
,  // measure 53
0001
0010
0100
0010
0001
0000
0100
0010
1000
0001
0100
0000
0001
0010
0000
0100
,  // measure 54
1000
0000
0001
0100
0000
0010
1000
0100
1000
0000
0001
0000
0010
0000
0000
0000
,  // measure 55
0001
1000
0000
1000
0100
0010
0100
0010
0001
0000
0100
0000
0010
0000
1000
0000
,  // measure 56
0001
0010
0001
0010
0100
1000
0100
1000
0010
0100
0010
0100
0010
0000
2002
0000
,  // measure 57
0000
0000
0000
3003
;
