#TITLE:WE ARE THE DREAMERS;
#ARTIST:500MASTER;
#BANNER:WE ARE THE DREAMERS-bn.png;
#BACKGROUND:WE ARE THE DREAMERS-bg.png;
#JACKET:WE ARE THE DREAMERS-jacket.png;
#DISCIMAGE:WE ARE THE DREAMERS.png;
#MUSIC:WE ARE THE DREAMERS.ogg;
#OFFSET:0.8;
#SAMPLESTART:23.198;
#SAMPLELENGTH:20;
#DISPLAYBPM:130;
#BPMS:0=130.01;
#BGCHANGES:0=WE ARE THE DREAMERS.avi=1=0=0=0,
268=WE ARE THE DREAMERS-jacket.png=1=1=0=0=StretchNoLoop==CrossFade==,
;

//---------------dance-single - ----------------
#NOTES:
     dance-single:
     :
     Beginner:
     2:
     :
0000
0000
0000
0000
,
0000
0000
0000
0000
,
0000
0000
0000
0000
,
0000
0000
0000
0000
,
0000
0000
0000
0000
,
1000
0000
0000
0000
,
0010
0000
0000
0000
,
1000
0000
0000
0000
,
0100
0000
0000
0000
,
0010
0000
0000
0000
,
0001
0000
0000
0000
,
0100
0000
0000
0000
,
0001
0000
0000
0000
,
1001
0000
0000
0000
,
0000
0000
0000
0000
,
1000
0000
0000
0000
,
0000
0000
0000
0000
,
1001
0000
0000
0000
,
0000
0000
0000
0000
,
0001
0000
0000
0000
,
0000
0000
0000
0000
,
0010
0000
0010
0000
,
0001
0000
0001
0000
,
1000
0000
0000
0000
,
1000
0000
0000
0000
,
0100
0000
0100
0000
,
1000
0000
1000
0000
,
0001
0000
0000
0000
,
0001
0000
0000
0000
,
0100
0000
0100
0000
,
0010
0000
0010
0000
,
1000
0000
0000
0000
,
1000
0000
0000
0000
,
0001
0000
0001
0000
,
0100
0000
0100
0000
,
0010
0000
0000
0000
,
0010
0000
0000
0000
,
1001
0000
0000
0000
,
0000
0000
0000
0000
,
0010
0000
0000
0000
,
0000
0000
0000
0000
,
1001
0000
0000
0000
,
0000
0000
0000
0000
,
0100
0000
0000
0000
,
0001
0000
0001
0000
,
0010
0000
0010
0000
,
0100
0000
0100
0000
,
1000
0000
1000
0000
,
0010
0000
0010
0000
,
1000
0000
1000
0000
,
0001
0000
0001
0000
,
0100
0000
0100
0000
,
0001
0000
1000
0000
,
0001
0000
0010
0000
,
0001
0000
0100
0000
,
0010
0000
1000
0000
,
0100
0000
1000
0000
,
0010
0000
0100
0000
,
0001
0000
0010
0000
,
0100
0000
1000
0000
,
0010
0000
1000
0000
,
0001
0000
0000
0000
,
0010
0000
0000
0000
,
0100
0000
0000
0000
,
1000
0000
0000
0000
,
1001
0000
0000
0000
;

//---------------dance-single - ----------------
#NOTES:
     dance-single:
     :
     Easy:
     6:
     :
0000
0000
0000
0000
,
0000
0000
0000
0000
,
0000
0000
0000
0000
,
0000
0000
0000
0000
,
0000
0000
0000
0000
,
1000
0001
0010
0010
,
0001
1000
0100
0100
,
1000
0010
0100
0001
,
0010
0001
1000
0100
,
0010
0100
1000
1000
,
0010
0100
0001
0001
,
1000
0001
0010
0100
,
1000
0010
0100
0001
,
1001
0000
0100
0100
,
0200
0000
0000
0300
,
0110
0000
0001
0001
,
0002
0000
0000
0003
,
1001
0000
0010
0010
,
0020
0000
0000
0030
,
0110
0000
1000
1000
,
2000
0000
0000
3000
,
0010
1000
0100
0010
,
0100
1000
0010
1000
,
0001
0010
0001
0100
,
0010
1000
0100
0010
,
0001
0100
0001
1000
,
0001
0010
0001
0100
,
0010
0100
0001
1000
,
0010
1000
0100
0010
,
0100
0010
0001
0100
,
0001
1000
0010
1000
,
0001
0010
0001
0100
,
0010
0100
0010
0100
,
0001
0010
0100
1000
,
0010
1000
0100
0010
,
0100
1000
0001
0100
,
0001
1000
0001
1000
,
1001
0000
1000
0001
,
2000
0000
0000
3000
,
0110
0000
0010
0100
,
0020
0000
0000
0030
,
1001
0000
0010
1000
,
0002
0000
0000
0003
,
0110
0000
1000
0001
,
0200
0000
0000
0300
,
0001
0010
0100
0010
,
0100
0010
1000
0010
,
0100
0001
0010
1000
,
0001
1000
0001
0010
,
0001
0100
0001
1000
,
0100
0010
0100
0010
,
0001
0100
1000
0001
,
1000
0001
0010
0100
,
0010
0001
1000
0001
,
1000
0010
1000
0001
,
0010
0100
0010
0001
,
0100
0001
1000
0100
,
0010
0001
1000
0010
,
0001
1000
0100
0010
,
0001
0100
0010
1000
,
0001
0010
0001
0100
,
0010
0100
0001
1001
,
0010
0100
1000
1001
,
0001
1000
0010
0100
,
0001
0010
0100
1000
,
2002
0000
0000
0000
,
0000
0000
0000
0000
,
3003
0000
0000
0000
;

//---------------dance-single - ----------------
#NOTES:
     dance-single:
     :
     Medium:
     10:
     :
0000
0000
0000
0000
,
0000
0000
0000
0000
,
0000
0000
0000
0000
,
0000
0000
0000
0000
,
0000
0000
0000
0000
,
1000
0010
1000
0000
0001
0010
0001
0000
,
1000
0100
1000
0000
0001
0100
0001
0000
,
0010
0100
0010
0000
0001
1000
0001
0000
,
1000
0001
1000
0000
0100
0010
0100
0000
,
1000
0010
0100
0000
0001
0010
0100
0000
,
1000
0001
0010
0000
0001
1000
0010
0000
,
0100
0001
0010
0000
0001
1000
0100
0000
,
1000
0010
0100
0000
0010
1000
0001
0000
,
1001
0000
0000
0000
1000
0001
0100
0010
,
2000
0002
0000
3003
,
0110
0000
0000
0000
0010
1000
0001
0100
,
0020
0200
0000
0330
,
0101
0000
0000
0000
0001
1000
0100
0010
,
0002
0200
0000
0303
,
1010
0000
0000
0000
1000
0001
0010
0100
,
2000
0020
0000
3030
,
1000
0001
0010
0000
0001
1000
0010
0100
,
0010
1000
0100
0000
1000
0001
0010
0100
,
0010
0001
0100
0000
0001
1000
0100
1000
,
0010
1000
0001
0000
0010
0100
1000
0000
,
0010
0100
0001
0000
0010
0001
1000
0100
,
1000
0010
0100
0000
0010
0100
0001
1000
,
0010
1000
0001
0000
1000
0010
0100
0001
,
1000
0001
0100
0000
0010
0100
0001
0000
,
0010
0001
0100
0001
1000
0100
0010
0000
,
0100
1000
0010
1000
0001
0010
0100
0000
,
1000
0010
1000
0001
0010
0100
1000
0000
,
0010
0100
0001
0000
0010
0001
1000
0000
,
0010
0100
0010
1000
0100
0010
0001
0000
,
0100
0001
1000
0010
1000
0100
0010
0000
,
0100
1000
0010
1000
0001
0010
0100
0000
,
0010
0100
1000
0000
0001
1000
0100
0000
,
1100
0000
0000
0000
0001
0010
0001
1000
,
0020
0200
0000
0330
,
0101
0000
0000
0000
0010
0001
1000
0100
,
2000
0002
0000
3003
,
0011
0000
0000
0000
0010
0100
1000
0001
,
2000
0200
0000
3300
,
1010
0000
0000
0000
0100
0010
1000
0001
,
0020
0002
0000
0033
,
0001
0010
0100
1000
0010
1000
0001
0010
,
0001
0100
0010
1000
0001
1000
0100
0000
,
0010
0100
1000
0010
1000
0001
0100
0001
,
0010
0001
0100
0001
1000
0010
0100
0000
,
0010
1000
0100
0010
0100
1000
0001
0100
,
0001
1000
0010
1000
0100
0010
0001
0000
,
0010
0100
0010
0001
1000
0010
1000
0100
,
1000
0001
0010
0001
1000
0100
0010
0000
,
0001
0010
0001
1000
0010
0100
0010
1000
,
0100
0010
0001
0100
0010
1000
0001
1000
,
0010
1000
0100
0010
0100
1000
0010
0100
,
0001
1000
0001
0010
0100
1000
0010
0000
,
0100
0010
1000
0001
0010
0100
1000
0010
,
1000
0001
1000
0100
0010
0100
0010
0001
,
0100
0001
0010
0001
1000
0010
1000
0100
,
0010
0100
1000
0010
1000
0001
0010
0000
,
0001
1000
0001
0000
0010
0100
0010
0000
,
0001
0100
0001
0000
1000
0100
1000
0000
,
0010
0100
0010
0000
1000
0001
1000
0000
,
0001
0010
0001
0000
1000
0010
1000
0000
,
2002
0000
0000
0000
,
0000
0000
0000
0000
,
3003
0000
0000
0000
;

//---------------dance-single - ----------------
#NOTES:
     dance-single:
     :
     Hard:
     13:
     :
0000
0000
0000
0000
,
0000
0000
0000
0000
,
0000
0000
0000
0000
,
0000
0000
0000
0000
,
0000
0000
0000
0000
,
1000
0001
0000
0010
0001
0000
1000
0000
0020
0000
0100
0000
0130
0000
0000
0000
,
0001
1000
0000
0001
0010
0000
0100
0000
2000
0000
0010
0000
3010
0000
0000
0000
,
1000
0000
0100
0000
1001
0000
0000
0000
0001
0000
1000
0010
0000
0100
0010
0000
,
0100
0000
0001
1000
0000
0001
0010
0000
0100
0000
0010
0000
0101
0000
0000
0000
,
1000
0010
1000
0001
0010
0100
1000
0000
,
0001
1000
0010
1000
0100
0010
0001
0000
,
0010
0100
0010
0001
1000
0001
0100
0000
,
0010
0100
0001
0010
0001
1000
0100
1000
,
2002
0000
0000
0000
3003
0000
0000
0000
0010
0001
0000
0001
0100
0000
0010
0000
,
2000
0002
0000
3003
,
0220
0000
0000
0000
0330
0000
0000
0000
0010
1000
0000
1000
0100
0000
0010
0000
,
0002
0100
2000
3003
,
2020
0000
0000
0000
3030
0000
0000
0000
0001
1000
0000
1000
0100
0000
0010
0000
,
0002
0200
0000
0303
,
0202
0000
0000
0000
0303
0000
0000
0000
0001
0100
0000
0100
0010
0000
1000
0000
,
1100
0101
1100
0101
,
0010
0000
0001
0000
1000
0000
0001
0000
0010
0000
0100
0000
1000
0000
0010
0100
,
0010
0000
0100
0000
0001
0000
0010
0000
0100
0000
1000
0000
0001
0000
1000
0100
,
1000
0000
0010
0000
0100
0000
0001
0000
0010
0000
0001
0000
1000
0000
0100
0010
,
0100
0000
1000
0000
0001
0000
0100
0000
0010
0000
1000
0000
0001
0000
0010
0001
,
0010
0000
0100
0000
1000
0001
1000
0000
0001
0000
1000
0000
0010
0000
0100
0001
,
0100
0000
0001
0000
0010
0001
0010
0000
0100
0000
1000
0000
0001
0000
1000
0010
,
1000
0000
0001
0000
0010
0100
0010
0000
0001
0000
1000
0000
0100
0000
1000
0010
,
1000
0000
0100
0000
0010
0001
0010
0000
0100
0000
1000
0000
0001
0000
0100
0000
,
0010
1000
0010
0000
0100
0000
0001
0000
1000
0000
1000
0000
1010
0000
0000
0000
,
0001
0010
0001
0000
0100
0000
0010
0000
1000
0000
1000
0000
0001
0000
0010
0000
,
0001
0000
1000
0000
0010
0000
1000
0000
0100
0000
0100
0000
0100
0000
0010
0001
,
0010
0000
0001
0000
1000
0100
1000
0000
0001
0000
0010
0000
0100
0000
1000
0000
,
0010
0100
0010
0000
1000
0000
0001
0000
0100
0000
0100
0000
0101
0000
0000
0000
,
0010
1000
0010
0000
0100
0000
0001
0000
0010
0000
0001
0000
1000
0000
0100
0000
,
1000
0000
0010
0000
1000
0000
0001
0000
0010
0000
0100
0000
1000
0000
0001
0100
,
0001
0000
1000
0000
0010
0100
0010
0000
1000
0000
0100
0000
0010
0000
0001
0000
,
0022
0000
0000
0000
0033
0000
1000
0000
1000
0001
0000
0100
0010
0000
0100
0000
,
0002
2000
0000
3003
,
2200
0000
0000
0000
3300
0000
0001
0000
0001
0010
0000
0100
1000
0000
0010
0000
,
2000
0001
0020
3030
,
0220
0000
0000
0000
0330
0000
0100
0000
0001
1000
0000
1000
0100
0000
0010
0000
,
0002
1000
0200
0303
,
2002
0000
0000
0000
3003
0000
0010
0000
0001
0100
0000
0100
0010
0000
1000
0000
,
1010
0011
1010
0011
,
1000
0000
0010
0000
1000
0001
0100
0000
0010
0000
0000
0100
0001
0000
0010
0000
,
0100
0000
1000
0000
0010
1000
0001
0000
0010
0000
0000
0001
1000
0000
0100
0000
,
0010
0000
0100
0000
1000
0001
0010
0000
0001
0000
0000
1000
0010
0000
0100
0000
,
0001
0000
0010
0000
0001
1000
0100
0000
0010
0000
0000
0100
1000
0000
0010
0000
,
1000
0001
0010
0000
0100
0000
1200
0000
0000
0000
1300
0000
0101
0000
0000
0100
,
0010
0000
1000
0001
0100
0000
0102
0000
0000
0000
1003
0000
0110
0000
0000
0010
,
1000
0000
0100
0010
0001
0000
0021
0000
0000
0000
0031
0000
1100
0000
0000
1000
,
0010
0000
1000
0000
0001
0000
0010
0000
0100
0000
1000
0001
1000
0000
0100
0000
,
0010
0001
0100
0000
0001
0000
2010
0000
0000
0000
3100
0000
1001
0000
0000
1000
,
0001
0000
1000
0100
0010
0000
0021
0000
0000
0000
0031
0000
1010
0000
0000
0010
,
0001
1000
0010
1000
0100
0010
0001
0100
,
0001
1000
0010
0100
0010
1000
0100
0010
,
0001
0100
0001
0000
0010
0000
0210
0000
0000
0000
1300
0000
0101
0000
0000
0001
,
0010
0001
1000
0000
0010
0000
0201
0000
0000
0000
0301
0000
1010
0000
0000
0100
,
0010
1000
0100
0000
0010
0000
2001
0000
0000
0000
3001
0000
0110
0000
0000
0100
,
0001
0010
0100
1000
0010
0100
0001
1000
,
0010
1000
0000
0001
0010
0000
0100
0000
2000
0000
0001
0000
3001
0000
0000
0000
,
0010
0100
0000
0010
0001
0000
1000
0000
0020
0000
0100
0000
0130
0000
0000
0000
,
0010
0000
1000
0000
0101
0000
0000
0000
0001
0000
0010
0100
0000
1000
0001
0000
,
0100
0010
1000
0001
0010
0100
1000
0001
,
2002
0000
0000
0000
,
0000
0000
0000
0000
,
3003
0000
0000
0000
;

//---------------dance-single - ----------------
#NOTES:
     dance-single:
     :
     Challenge:
     17:
     :
0000
0000
0000
0000
,
0000
0000
0000
0000
,
0000
0000
0000
0000
,
0000
0000
0000
0000
,
0000
0000
0000
0000
,
1000
0010
0100
0001
0010
0100
1000
0001
,
0100
0010
0001
0010
0100
0001
0010
0100
,
1000
0001
0100
0010
1000
0010
0100
0001
,
0010
0100
0001
0100
1000
0010
0100
0000
,
0001
0100
0010
1000
0100
0010
0001
1000
,
0010
0100
1000
0100
0010
1000
0100
0010
,
0001
1000
0010
0100
0001
0100
0010
1000
,
0100
0010
1000
0010
0001
0100
0010
1000
,
0200
0000
0000
0000
0000
0000
0310
0000
0001
0000
0000
0001
0000
0000
0001
0000
,
0100
0001
0000
0010
0001
0000
0000
0000
1000
0000
0000
0000
0000
0000
1000
0000
,
0020
0000
0000
0000
0000
0000
0130
0000
0001
0000
0000
0001
0000
0000
0001
0000
,
0010
0001
0000
0100
0000
0000
0100
0000
1000
0000
0010
0000
0100
0000
0001
0000
,
1001
0000
0000
0000
0000
0000
1000
0000
0100
0000
0000
0100
0000
0000
0100
0000
,
0110
0000
0000
0000
0000
0000
0010
0000
0001
0000
0000
0001
0000
0000
0001
0000
,
0101
0000
0000
0100
0110
0000
0000
0010
,
1010
0000
1100
0000
0110
0011
0101
0110
,
0010
1000
0100
0010
0100
1000
0010
0100
0001
0010
0001
1000
0010
0100
0001
0010
,
0100
0010
1000
0010
0001
0100
0010
1000
0100
0010
0001
1000
0010
0100
0001
1000
,
0010
0100
1000
0100
0001
0010
0100
0010
0001
1000
0100
0010
0001
0100
0010
1000
,
0100
0010
1000
0010
0001
0100
0010
1000
0100
1000
0010
0100
0001
0010
0100
1000
,
0010
1000
0100
0010
0100
1000
0010
0100
0001
0010
0001
1000
0010
0100
0001
0010
,
0100
0010
1000
0010
0001
0100
0010
1000
0100
0010
0001
1000
0010
0100
0001
1000
,
0010
0100
1000
0100
0001
0010
0100
0010
0001
1000
0100
0010
0001
0100
0010
1000
,
0100
0010
1000
0010
0001
0100
0010
1000
0100
1000
0010
0100
0001
0010
0100
1000
,
0100
1000
0010
0100
0010
1000
0100
0010
0001
0100
0001
1000
0100
0010
0001
0100
,
0010
0100
1000
0100
0001
0010
0100
1000
0010
0100
0001
1000
0100
0010
0001
1000
,
0100
0010
1000
0010
0001
0100
0010
0100
0001
1000
0010
0100
0001
0010
0100
1000
,
0010
0100
1000
0100
0001
0010
0100
1000
0010
1000
0100
0010
0001
0100
0010
1000
,
0100
1000
0010
0100
0010
1000
0100
0010
0001
0100
0001
1000
0100
0010
0001
0100
,
0010
0100
1000
0100
0001
0010
0100
1000
0010
0100
0001
1000
0100
0010
0001
1000
,
0100
0010
1000
0010
0001
0100
0010
0100
0001
1000
0010
0100
0001
0010
0100
1000
,
0010
0100
1000
0100
0001
0010
0100
1000
0010
1000
0100
0010
0001
0100
0010
1000
,
0200
0000
0000
0000
0000
0000
0310
0000
0001
0000
0000
0001
0000
0000
0001
0000
,
0100
0001
0000
0010
0001
0000
0000
0000
1000
0000
0000
1000
0000
0000
1000
0000
,
0020
0000
0000
0000
0000
0000
0130
0000
0001
0000
0000
0001
0000
0000
0001
0000
,
0010
0001
0000
0100
0000
0000
0100
0000
0010
0000
0000
0010
0000
0000
0010
0000
,
0110
0000
0000
0000
0000
0000
0010
0000
1000
0000
0000
1000
0000
0000
1000
0000
,
1001
0000
0000
0000
0000
0000
0001
0000
0100
0000
0000
0100
0000
0000
0100
0000
,
0101
0000
0000
0001
0011
0000
0000
0010
,
0110
0000
1100
0000
1001
0101
0110
1010
,
0001
0000
1000
0000
0010
0000
1000
0000
0010
0000
1000
0000
0001
1000
0001
0000
0010
0000
0001
0000
1000
0000
0001
0000
0010
0000
0001
0000
1000
0000
0001
0000
,
0010
0000
0001
0000
0010
0000
0001
0000
0010
0001
1000
0000
0100
0000
1000
0000
0100
0000
1000
0000
0001
0000
1000
0000
0100
0000
1000
0000
0001
0000
1000
0000
,
0001
0000
0100
0000
0010
0000
0100
0000
0010
1000
0001
0000
0100
0000
0001
0000
1000
0000
0001
0000
0100
0000
0001
0000
0100
0000
0001
0000
1000
0000
0001
0000
,
0100
0000
0010
0000
0100
0000
0010
0000
1000
0001
0010
0000
0100
0000
0010
0000
0100
0000
0010
0000
0001
0000
0010
0000
0100
0000
0010
0000
0100
0000
0010
0000
,
0001
0000
1000
0000
0100
0000
1000
0000
0100
0000
1000
0000
0010
1000
0001
0000
0100
0000
0001
0000
1000
0000
0001
0000
0100
0000
0001
0000
1000
0000
0001
0000
,
0100
0000
0001
0000
0100
0000
0001
0000
0100
0001
1000
0000
0010
0000
1000
0000
0010
0000
1000
0000
0001
0000
1000
0000
0010
0000
1000
0000
0001
0000
1000
0000
,
0001
0000
0010
0000
0100
0000
0010
0000
0100
1000
0001
0000
0010
0000
0001
0000
1000
0000
0001
0000
0010
0000
0001
0000
0010
0000
0001
0000
1000
0000
0001
0000
,
0010
0000
0100
0000
0010
0000
0100
0000
1000
0001
0100
0000
0010
0000
0100
0000
0010
0000
0100
0000
0001
0000
0100
0000
0010
0000
0100
0000
0010
0000
0100
0000
,
0001
0000
1000
0000
0010
0000
1000
0000
0010
0000
1000
0000
0001
1000
0001
0000
0010
0000
0001
0000
1000
0000
0001
0000
0010
0000
0001
0000
1000
0000
0001
0000
,
0010
0000
0001
0000
0010
0000
0001
0000
0010
0001
1000
0000
0100
0000
1000
0000
0100
0000
1000
0000
0001
0000
1000
0000
0100
0000
1000
0000
0001
0000
1000
0000
,
0001
0000
0100
0000
0010
0000
0100
0000
0010
1000
0001
0000
0100
0000
0001
0000
1000
0000
0001
0000
0100
0000
0001
0000
0100
0000
0001
0000
1000
0000
0001
0000
,
0100
0000
0010
0000
0100
0000
0010
0000
1000
0001
0010
0000
0100
0000
0010
0000
0100
0000
0010
0000
0001
0000
0010
0000
0100
0000
0010
0000
0100
0000
0010
0000
,
0001
0000
1000
0000
0100
0000
1000
0000
0100
0000
1000
0000
0001
1000
0001
0000
0100
0000
0001
0000
1000
0000
0001
0000
0100
0000
0001
0000
1000
0000
0001
0000
,
0100
0000
0001
0000
0100
0000
0001
0000
0100
0001
1000
0000
0010
0000
1000
0000
0010
0000
1000
0000
0001
0000
1000
0000
0010
0000
1000
0000
0001
0000
1000
0000
,
0001
0000
0010
0000
0100
0000
0010
0000
0100
1000
0001
0000
0010
0000
0001
0000
1000
0000
0001
0000
0010
0000
0001
0000
0010
0000
0001
0000
1000
0000
0001
0000
,
0010
0000
0100
0000
0010
0000
0100
0000
1000
0001
0100
0000
0010
0000
0100
0000
0010
0000
0100
0000
0001
0000
0100
0000
0010
0000
0100
0000
0010
0000
0100
0000
,
0001
0000
1000
0000
0100
0000
0010
0001
,
0010
0000
0100
0000
1000
0001
0000
1000
,
0010
0000
0100
0000
0001
1000
0000
0001
,
0010
0000
0100
0000
1000
0010
1000
0010
,
0200
0000
0000
0000
,
0000
0000
0000
0000
,
0300
0000
0000
0000
;
