#TITLE:Voyager;
#SUBTITLE:;
#ARTIST:lapix;
#TITLETRANSLIT:;
#SUBTITLETRANSLIT:;
#ARTISTTRANSLIT:;
#GENRE:;
#CREDIT:;
#BANNER:Voyager-bn.png;
#BACKGROUND:Voyager-bg.png;
#LYRICSPATH:;
#CDTITLE:;
#MUSIC:Voyager.ogg;
#OFFSET:0.000000;
#SAMPLESTART:77.777779;
#SAMPLELENGTH:20.000000;
#SELECTABLE:YES;
#DISPLAYBPM:145.000000;
#BPMS:0.000000=145.000000
;
#STOPS:
;
#BGCHANGES:;
#KEYSOUNDS:;
#ATTACKS:;

//---------------dance-single - ----------------
#NOTES:
     dance-single:
     :
     Hard:
     12:
     0.564030,0.624891,0.215658,0.049767,0.273720,476.000000,450.000000,26.000000,6.000000,0.000000,0.000000,0.564030,0.624891,0.215658,0.049767,0.273720,476.000000,450.000000,26.000000,6.000000,0.000000,0.000000:
// measure 0
0000
0000
0000
0000
,  // measure 1
0000
0000
0000
0000
,  // measure 2
0000
0000
0000
0000
,  // measure 3
1000
0001
0010
0100
1000
0000
0010
0100
,  // measure 4
0001
0000
1000
0100
0010
0000
0100
1000
,  // measure 5
0001
0000
0010
0001
0100
0010
1000
0001
,  // measure 6
0010
0100
0010
0001
1000
0000
0010
0000
,  // measure 7
1000
0001
1000
0100
0010
0000
0001
0100
,  // measure 8
0010
0000
0100
0010
1000
0001
0010
0100
,  // measure 9
1000
0000
0000
0010
0000
0000
1000
0000
0001
0000
0000
0010
0001
0000
0100
0000
,  // measure 10
0001
1000
0000
0001
0000
1000
0100
0000
0010
0000
0000
0010
0000
0000
0010
0000
,  // measure 11
1001
0000
0010
1000
0001
0010
0100
1000
,  // measure 12
0001
0000
1000
0001
0010
0001
1000
0100
,  // measure 13
0010
0000
0100
1000
0010
1000
0001
1000
,  // measure 14
0200
0000
0000
0000
1000
0000
0000
0000
0001
0000
0000
0000
1300
0000
0010
0100
,  // measure 15
0010
0000
0000
0000
1000
0000
0001
1000
0000
0000
0010
0000
0100
0000
0001
0000
,  // measure 16
1000
0010
0000
1000
0000
0000
0000
0000
0001
0100
0000
0001
0000
0000
0100
0010
,  // measure 17
0100
0000
0000
0000
0001
0000
1000
0001
0000
0000
0010
0000
0100
0000
1000
0000
,  // measure 18
0001
0000
0000
0000
0100
0000
0010
0100
0000
0000
0000
0000
0000
0000
0001
1000
,  // measure 19
0001
0000
0000
0000
0010
0000
0001
1000
0000
0000
0100
0000
1000
0000
0010
0000
,  // measure 20
0100
0001
0000
1000
0000
0000
0000
0000
0010
1000
0000
0001
0000
0000
0100
0010
,  // measure 21
0100
0000
0000
0101
0000
0000
1100
0000
0000
0000
0001
0000
1000
0000
0001
0000
,  // measure 22
0010
0000
0000
0000
0001
0000
1000
0100
0000
0000
0000
0000
0000
0000
0000
0000
,  // measure 23
0010
0001
1000
0001
0010
1000
0010
0001
,  // measure 24
0100
1000
0100
0010
0001
0010
1000
0000
,  // measure 25
0010
0000
0000
1000
0000
0000
1010
0000
0001
0000
0000
0100
0000
0000
0101
0000
,  // measure 26
0010
0100
1000
0010
0001
0010
1000
0000
,  // measure 27
0100
0010
0100
0001
0100
0010
0001
0100
,  // measure 28
1000
0100
0010
0100
1000
0100
0001
0010
,  // measure 29
0100
0000
0000
1000
0000
0000
1100
0000
0010
0000
0000
0001
0000
0000
0011
0000
,  // measure 30
2000
0000
0000
0000
3001
1000
0100
0010
,  // measure 31
0110
0010
0001
0100
,  // measure 32
0001
0010
0100
0010
0100
1000
0001
1000
,  // measure 33
0010
1000
0001
0100
,  // measure 34
0001
1000
0100
0010
0100
0010
0001
1000
,  // measure 35
0010
0100
0001
1000
,  // measure 36
0001
0010
0001
1000
0100
0010
0100
1000
,  // measure 37
0010
0100
0001
0000
0010
0100
1000
0000
,  // measure 38
0001
0000
0001
0000
0001
1000
0000
0100
0000
0000
0000
0000
0000
0000
0000
0000
,  // measure 39
1002
0000
0000
0000
0100
0000
0000
0000
0013
0000
0000
0001
0000
0000
1000
0000
,  // measure 40
0010
0000
1000
0000
0001
0000
0100
0000
0000
0110
0000
0000
1000
0000
0001
0000
,  // measure 41
0010
0001
1000
0000
0010
1000
0001
0000
,  // measure 42
1000
0010
0100
0001
0010
0100
1000
0000
,  // measure 43
0001
0000
0000
0101
0000
0000
0100
0000
0010
0000
0000
1010
0000
0000
1000
0000
,  // measure 44
0100
0000
0000
1100
0000
0000
1000
0000
0001
0000
0000
1001
0000
0000
0000
0000
,  // measure 45
1000
0000
0001
0100
0000
0000
0001
0000
1000
0100
0000
0000
,  // measure 46
1000
0001
1000
0001
1000
0001
1000
0000
0000
0101
0000
0000
,  // measure 47
0001
1000
0010
0100
0001
0000
1000
0100
,  // measure 48
0010
0000
0001
0100
0001
0000
0010
0100
,  // measure 49
1000
0000
0010
1000
0001
0010
0001
0100
,  // measure 50
0001
0010
0001
1000
0100
0000
1010
0000
,  // measure 51
0001
0010
0001
0100
0010
0000
1000
0100
,  // measure 52
1000
0000
0001
1000
0010
1000
0100
0010
,  // measure 53
0001
0000
0000
1000
0000
0000
0010
0000
1000
0000
0000
0001
0100
0000
0010
0000
,  // measure 54
1000
0100
0000
0010
0000
0001
0100
0000
0001
1000
0000
0010
0000
1000
0100
0000
,  // measure 55
1000
0000
0010
0000
0100
0000
0001
1000
0001
0000
0000
0000
0010
0000
0100
0000
,  // measure 56
1000
0000
0000
0000
0000
0000
0001
0000
0100
0000
0001
0000
0100
0000
0000
0000
0000
0000
0010
0000
0000
0100
0000
0000
,  // measure 57
1001
0000
0100
0010
0001
0100
0001
1000
,  // measure 58
0010
0000
0000
1000
0001
1000
0001
0000
0000
0110
0000
0000
,  // measure 59
1000
0000
0010
0000
1000
0000
0001
0100
0001
0000
0000
0000
0010
0000
0100
0000
,  // measure 60
1000
0000
0000
0011
0000
0000
0100
0010
0100
0010
0100
0010
,  // measure 61
0100
0000
0000
0001
0000
0000
1000
0000
0001
0000
0000
0010
0100
0000
1000
0000
,  // measure 62
0001
0100
0000
0010
0000
1000
0100
0000
1100
0000
0000
0101
0000
0000
1010
0000
,  // measure 63
1001
0000
0001
0010
0001
1000
0010
0100
,  // measure 64
0110
0000
0010
0100
0001
1000
0100
0010
,  // measure 65
0011
0000
0010
0001
0100
0001
1000
0100
,  // measure 66
0020
0001
1000
0031
,  // measure 67
1000
0010
0001
0010
1000
0000
0001
0100
,  // measure 68
1000
0100
0001
0000
0010
1000
0010
0100
,  // measure 69
0010
0000
0001
0100
0010
1000
0100
0010
,  // measure 70
2200
0000
0000
0000
,  // measure 71
0000
0000
0000
3300
;

//---------------dance-single - ----------------
#NOTES:
     dance-single:
     :
     Medium:
     10:
     0.466865,0.476108,0.248837,0.091240,0.004147,394.000000,364.000000,30.000000,11.000000,0.000000,0.000000,0.466865,0.476108,0.248837,0.091240,0.004147,394.000000,364.000000,30.000000,11.000000,0.000000,0.000000:
0000
0000
0000
0000
,
0000
0000
0000
0000
,
0000
0000
0000
0000
,
1000
0000
0001
0010
0100
0000
0000
0000
,
1000
0000
0010
0100
0001
0000
1000
0000
,
0001
0000
0010
0000
0001
1000
0010
0100
,
0001
0000
0100
0010
1000
0000
0000
0000
,
0010
0000
0100
0001
1000
0000
0000
0000
,
0001
0000
1000
0000
0010
0100
0010
1000
,
0001
0000
0100
0001
1000
0000
0010
1000
,
0100
0010
0100
0000
1100
0000
0101
0000
,
1001
0000
0010
0000
0001
1000
0100
0000
,
0110
0000
1000
0000
0001
0100
0010
0000
,
1010
0000
1000
0000
0100
0010
0001
0000
,
0012
1000
1000
1003
,
0010
0000
1000
0001
0100
0000
0001
1000
,
0010
0100
0010
0000
1000
0001
1000
0000
,
0001
0000
0010
0001
1000
0000
0010
1000
,
0100
0000
1000
0001
0100
0000
0000
0000
,
0001
0000
0010
0100
1000
0000
0010
0100
,
0001
0010
0001
0000
1000
0100
1000
0000
,
0010
0000
0000
0010
0000
0000
0010
0000
0000
0000
0000
0000
1000
0000
0001
0000
,
0010
0000
0001
1000
0100
0000
0000
0000
,
0010
0001
1000
0010
1000
0001
0100
0000
,
0001
0010
0100
1000
0010
1000
0001
0000
,
1000
1100
0001
0101
,
0010
0001
0100
0000
0010
1000
0100
0000
,
1000
0001
0010
0001
1000
0100
0010
0000
,
0100
1000
0010
1000
0100
0010
0001
0000
,
1000
1010
0001
0011
,
2002
0000
0003
0000
0010
0010
3010
0000
,
0110
0001
1000
0100
,
1000
0010
1000
0000
0001
0010
0001
0000
,
0010
0001
1000
0100
,
1000
0100
0010
0000
0001
1000
0100
0000
,
1000
0010
0100
0001
,
1000
0100
1000
0000
0001
0100
0001
0000
,
0010
0001
0100
0000
0010
1000
0100
0000
,
1000
0001
1000
0010
0100
0000
0000
0000
,
0002
0023
0032
2003
,
3010
0100
0010
0100
0000
0000
0000
0000
,
0001
1000
0010
0000
1000
0100
0010
0000
,
0001
1000
0001
1000
0000
0000
0000
0000
,
0001
1100
1000
0011
,
0100
1010
0010
0101
,
0001
1000
0001
0000
0100
0010
0100
0000
,
0001
0010
0100
1000
0020
0000
0030
0000
,
1000
0010
1000
0001
0100
0000
0110
0000
,
0001
0000
0010
0100
1000
0000
0010
0000
,
1000
0000
0001
1000
0010
0100
0010
0100
,
0001
0000
0010
0100
1000
0000
1001
0000
,
0010
1000
0001
1000
0100
0000
0010
0000
,
0001
0000
0100
0001
1000
0000
0010
1000
,
0001
1000
0010
1000
0001
0000
0100
0010
,
1000
0001
0010
0000
0001
1000
0010
0000
,
1000
0100
0010
0001
0100
0000
0010
1000
,
0010
0000
1000
0001
0100
0000
0010
1000
,
0100
0000
0010
0001
1000
0010
1000
0001
,
0010
0000
0001
1000
0010
0000
1100
0000
,
0011
0000
0001
1000
0010
0000
0100
0010
,
1000
0000
0100
0010
0100
0010
0001
0100
,
0001
1000
0010
0100
0010
0000
1000
0100
,
1000
0001
0010
0000
0101
0000
1010
0000
,
1001
0000
0010
1000
0001
1000
0100
0000
,
0110
0000
0100
1000
0010
0100
0001
0000
,
0011
0000
0001
1000
0010
1000
0100
0000
,
2100
0001
0001
3001
,
0101
0000
0001
1000
0100
0000
1010
0000
,
0010
1000
0001
0000
0011
0000
0010
0100
,
1000
0000
0001
1000
0010
1000
0001
0000
,
2200
0000
0000
0000
,
0000
0000
0000
3300
;

//---------------dance-single - ----------------
#NOTES:
     dance-single:
     :
     Easy:
     7:
     0.309268,0.357081,0.174186,0.066356,0.000000,261.000000,240.000000,21.000000,8.000000,0.000000,0.000000,0.309268,0.357081,0.174186,0.066356,0.000000,261.000000,240.000000,21.000000,8.000000,0.000000,0.000000:
0000
0000
0000
0000
,
0000
0000
0000
0000
,
0000
0000
0000
0000
,
1000
0001
0010
0100
,
1000
0010
0100
0000
,
0001
0000
0010
0001
,
1000
0100
0010
0000
,
0100
0001
0010
0100
,
1000
0010
1000
0001
,
0100
0100
0010
0100
,
0001
1000
0010
0010
,
1001
1000
0001
0010
,
0110
0100
1000
0001
,
0101
0001
1000
0100
,
2200
0000
0000
3300
,
0010
1000
0001
0100
,
0101
0000
1100
0000
,
0001
0010
0100
1000
,
0010
0100
0001
0000
,
1000
0010
0100
0001
,
1001
0000
0110
0000
,
0010
1000
0100
0010
,
0001
0100
1000
0000
,
0010
1000
0010
0100
,
0001
0010
0001
0100
,
0001
0010
1000
0010
,
0100
0001
1000
0000
,
0010
1000
0100
0010
,
0100
0010
0001
0100
,
0001
1000
0010
0100
,
0220
0300
0100
0130
,
1001
0010
1000
0001
,
0010
0100
1000
0001
,
0010
0001
0100
1000
,
0010
0100
0001
1000
,
0001
0010
0100
1000
,
0010
0100
0001
1000
,
0001
0010
1000
0100
,
0010
0010
0010
0000
,
0001
1000
0001
1000
,
0010
0100
0000
0000
,
0001
0000
0100
0000
,
0010
1000
0000
0000
,
0001
0100
1000
0100
,
0010
0100
0001
0000
,
1000
1100
0001
0101
,
0100
0010
0100
0000
,
0001
0010
0001
1000
,
0100
0010
0100
0000
,
1000
0000
0001
0010
,
0001
1000
0100
0000
,
1000
0010
1000
0001
,
0010
0100
0010
0001
,
1000
1000
0001
1000
,
0010
1000
0001
0001
,
1001
0001
1000
0010
,
1000
0100
0010
0001
,
0100
0010
1000
0001
,
0010
0100
1000
1100
,
0101
0010
1000
0100
,
0010
0001
1000
0001
,
0100
0100
0010
0010
,
1000
0001
1000
0110
,
0101
0001
0100
1000
,
1100
0010
0100
0001
,
0110
0001
1000
0010
,
2002
0000
0000
3003
,
0010
0010
0010
0100
,
0100
0100
0001
0001
,
0001
1000
1000
1000
,
2002
0000
0000
0000
,
0000
0000
0000
3003
;

//---------------dance-single - ----------------
#NOTES:
     dance-single:
     :
     Beginner:
     4:
     0.187220,0.232248,0.107829,0.000000,0.000000,158.000000,145.000000,13.000000,0.000000,0.000000,0.000000,0.187220,0.232248,0.107829,0.000000,0.000000,158.000000,145.000000,13.000000,0.000000,0.000000,0.000000:
0000
0000
0000
0000
,
0000
0000
0000
0000
,
0000
0000
0000
0000
,
1000
0000
1000
0000
,
0001
0000
0001
0000
,
0010
0000
0010
0000
,
0100
0000
0100
0000
,
1000
0000
1000
0000
,
0010
0000
0010
0000
,
0100
0000
0100
0000
,
0001
0000
0001
0000
,
1001
0000
0010
0000
,
1001
0000
0100
0000
,
0110
0000
0001
0000
,
0110
0000
0000
0000
,
1000
1000
1000
0000
,
0010
0000
0100
0000
,
0001
0001
0001
0000
,
0010
0010
0010
0000
,
0001
0001
0001
0000
,
0100
0000
0010
0000
,
1000
0000
0001
0000
,
0100
0100
0100
0000
,
0010
0000
1000
0000
,
0010
0000
0100
0000
,
0001
0000
1000
0000
,
0010
0010
0010
0000
,
1000
0000
0100
0000
,
1000
0000
0001
0000
,
0100
0000
0010
0000
,
0110
0000
0000
0000
,
1000
0000
1000
0000
,
0001
0001
0001
0000
,
0010
0000
0010
0000
,
0100
0100
0100
0000
,
0010
0000
0010
0000
,
0001
0001
0001
0000
,
0100
0000
0100
0000
,
1000
1000
1000
0000
,
1001
0000
0100
0000
,
0001
0000
0000
0000
,
1000
0000
0001
0000
,
1000
0000
0000
0000
,
0010
0000
0010
0000
,
0100
0000
0100
0000
,
1001
0000
0110
0000
,
1000
1000
1000
0000
,
0001
0000
0001
0000
,
0010
0000
0010
0000
,
0100
0000
0100
0000
,
1000
0000
1000
0000
,
0010
0000
0010
0000
,
0100
0000
0100
0000
,
0001
0000
0001
0000
,
1000
0000
1000
0000
,
0010
0010
0010
0000
,
0100
0100
0100
0000
,
0001
0000
1000
0000
,
0010
0010
0010
0000
,
0100
0100
0100
0000
,
0001
0001
0001
0000
,
0010
0000
0100
0000
,
1000
1000
1000
0000
,
0110
0000
0001
0000
,
0110
0000
1000
0000
,
1001
0000
0010
0000
,
1001
0000
0000
0000
,
0010
0000
0000
1000
,
0000
0000
0001
0000
,
0000
0100
0000
0000
,
1001
0000
0000
0000
;
