#VERSION:0.83;
#TITLE:Vorpal Bunny;
#SUBTITLE:;
#ARTIST:wa.;
#TITLETRANSLIT:;
#SUBTITLETRANSLIT:;
#ARTISTTRANSLIT:;
#GENRE:;
#ORIGIN:;
#CREDIT:;
#BANNER:Vorpal Bunny-bn.png;
#BACKGROUND:Vorpal Bunny-bg.png;
#PREVIEWVID:;
#JACKET:Vorpal Bunny-jacket.png;
#CDIMAGE:;
#DISCIMAGE:;
#LYRICSPATH:;
#CDTITLE:;
#MUSIC:Vorpal Bunny.ogg;
#OFFSET:0.000000;
#SAMPLESTART:67.259003;
#SAMPLELENGTH:20.000000;
#SELECTABLE:YES;
#DISPLAYBPM:198.000000;
#BPMS:0.000=198.040;
#STOPS:;
#DELAYS:;
#WARPS:;
#TIMESIGNATURES:0.000=4=4;
#TICKCOUNTS:0.000=4;
#COMBOS:0.000=1;
#SPEEDS:0.000=1.000=0.000=0;
#SCROLLS:0.000=1.000;
#FAKES:;
#LABELS:0.000=Song Start;
#BGCHANGES:;
#KEYSOUNDS:;
#ATTACKS:
;

//---------------dance-single - ----------------
#NOTEDATA:;
#CHARTNAME:;
#STEPSTYPE:dance-single;
#DESCRIPTION:;
#CHARTSTYLE:;
#DIFFICULTY:Hard;
#METER:15;
#RADARVALUES:0.793776,0.964719,0.717523,0.437514,0.406888,635.000000,553.000000,82.000000,50.000000,0.000000,0.000000,0.000000,0.000000,0.000000,0.793776,0.964719,0.717523,0.437514,0.406888,635.000000,553.000000,82.000000,50.000000,0.000000,0.000000,0.000000,0.000000,0.000000;
#CREDIT:;
#DISPLAYBPM:198.000000;
#NOTES:
0000
0000
0000
0000
,
0000
0000
0000
0000
,
0000
0000
0000
0000
,
0000
0000
0000
0000
,
0011
0000
0000
0001
1000
0000
0010
0000
0000
0000
0001
0000
0100
0000
0000
0000
,
1010
0000
0000
1000
0100
0000
0001
0000
0000
0000
0010
0000
1000
0000
0000
0000
,
0101
0010
1000
0100
0000
0001
0010
0000
,
1100
0000
0000
0110
0000
0000
0011
0000
0200
0000
0000
0000
0320
0000
0000
0000
,
1030
0000
1001
0000
0010
1000
0010
0100
,
0001
0010
1000
0001
0100
1000
0101
0000
,
0010
0000
1100
0000
0001
1000
0010
0100
,
1000
0100
0001
0010
1000
0100
0011
0000
,
0100
0000
1010
0000
0001
0010
0001
0100
,
1000
0001
0010
0100
1000
0010
1100
0000
,
1000
0000
0110
0000
0010
1000
0100
0001
,
0010
0100
0010
0001
0100
1000
1001
0000
,
0010
0000
1100
0001
1000
0101
0000
0010
,
1000
0000
0100
0000
0010
0000
0001
0000
0100
0000
0010
0000
1000
0001
1000
0001
,
1000
0000
0011
1000
0001
1010
0000
0100
,
1000
0001
0010
1000
0100
0100
0100
0100
,
0010
0000
1001
0100
0010
0110
0000
1000
,
0100
0010
0001
0100
1000
0001
1010
0000
,
0001
0100
0001
0100
0001
0000
0010
0000
0100
0000
1001
0000
0000
0000
0010
0000
,
1000
0100
0001
0010
0100
1000
0001
0000
,
0012
0000
0000
0000
2003
0000
0000
0000
3010
0100
0010
0100
0010
0000
0000
0010
,
1000
0010
1000
0000
0100
0001
0100
0001
0200
0000
0000
0000
0310
0000
0000
1000
,
0002
0000
0000
0000
0103
0000
0000
0000
0001
0010
0001
0010
0001
0000
0000
0100
,
1000
0100
1000
0000
0001
0100
0001
0100
0002
0000
0000
0000
0013
0000
0000
0100
,
2000
0000
0000
0000
3001
0000
0000
0000
0100
0010
0100
0010
0100
0000
0000
0001
,
1000
0001
1000
0000
0010
0100
0010
0100
0020
0000
0000
0000
1030
0000
0000
0100
,
0020
0000
0031
0201
0000
0310
2010
0000
,
3100
0210
0000
1300
1001
0000
0011
0000
,
1100
0000
0000
0000
0001
0010
0001
0010
0001
1000
0001
1000
0001
0000
0000
1000
,
0010
1000
0010
0000
0100
0010
0100
0010
0200
0000
0000
0000
0301
0000
0000
1000
,
0200
0000
0000
0000
0310
0000
0000
0000
0100
1000
0100
1000
0001
0000
0000
0000
,
0010
0100
0010
0000
0001
0100
0001
0100
0002
0000
0000
0000
1003
0000
0000
0000
,
0010
0100
0010
1000
0100
0001
0110
0000
,
1000
0000
1000
0000
1000
0000
0001
0100
0002
0000
0000
0000
0013
0000
0000
0001
,
0100
0101
0000
1000
1100
0000
0010
1001
,
0000
0000
0000
0010
0001
0000
0100
0000
1000
0000
1000
0000
1000
0000
0000
0000
,
0102
0000
0000
0000
0010
0010
0000
0000
,
0000
0000
0000
0000
0000
0000
1000
1000
,
0000
0000
0000
0000
,
0000
0000
0000
0000
0000
0100
0103
0010
,
2010
0000
0000
0000
,
0001
0000
0000
0000
,
0000
0000
0100
0000
,
0000
0000
0000
3000
,
1200
0000
0000
0000
0010
0010
0000
0000
,
0000
0000
0000
0000
0000
0000
1000
1000
,
0000
0001
1000
0320
,
0000
0032
0000
0000
0103
0010
1000
0001
,
0010
0000
0000
0100
0000
0000
1000
0000
0001
0000
0000
0100
0000
0000
0010
0000
,
0000
1000
0100
0010
0001
0100
0010
1000
,
0001
0000
0100
0000
0010
0000
1000
0000
0100
0010
0100
0010
0100
1000
0100
1000
,
0002
0000
0003
0000
0001
0100
1000
0100
,
0002
0000
0000
0000
0003
0000
0000
0000
0011
0000
0000
1100
0000
0000
0101
0000
,
0000
0000
1000
0000
0001
0000
0000
0000
1010
0000
0000
1100
0000
0000
0011
0000
,
0000
0100
0010
0001
0010
1000
0010
0100
,
0000
0100
1000
0100
0001
0100
0010
0100
,
0001
0010
0100
1000
0010
0001
0010
2000
,
0000
0000
0000
0000
0000
0000
0000
0000
3010
0100
0010
0100
0001
0100
0001
0100
,
0020
0000
0000
1030
0000
0000
1010
0000
0000
1001
0000
0000
0011
0000
0000
0101
,
0000
0000
1100
0000
0000
0011
0000
0000
0110
0000
0000
1001
0000
0000
0100
0000
,
0020
0000
0000
0000
0000
0000
0000
0000
1030
0010
1000
0010
0100
0001
0100
0001
,
2000
0000
0000
0000
0000
0000
0000
0000
3001
0010
0001
0010
0100
1000
0001
0000
,
0000
1000
0001
0010
0100
0001
0100
0010
,
0100
1000
0100
0001
0100
0010
0100
0001
,
0100
1000
0001
0200
0000
0320
0000
2030
,
0000
3002
0000
0013
0000
0001
0100
1000
,
0002
0010
0010
0000
1000
1000
1003
0000
,
2002
0000
0000
0000
0000
0000
0000
0000
3003
0000
0010
0100
0010
0000
0000
0000
,
1000
0000
0001
0000
0100
0000
0000
0000
0110
0000
0000
1010
0000
0000
1100
0000
,
0000
0000
0001
0000
1000
0000
0000
0000
0011
0000
0000
0110
0000
0000
1100
0000
,
1000
0000
0100
0000
0001
0000
0000
0000
0011
0000
0000
1100
0000
0000
0110
0000
,
0000
0000
0001
0000
0010
0000
0000
0000
1100
0000
0000
1001
0000
0000
1010
0000
,
0001
0100
0010
1000
0100
0010
0001
1000
,
0010
1000
0100
0010
0001
0100
0001
1000
,
1010
0000
0000
0110
0000
0000
1001
0000
0000
0011
0000
0000
1100
0000
0000
0101
,
0000
0000
0011
0000
0000
1001
0000
0000
0110
0000
0000
1100
0000
0000
0001
0000
,
0202
0000
0000
0000
0300
0000
0000
0000
0013
0001
0010
0001
1000
0100
1000
0100
,
2000
0000
0000
0000
0000
0000
0000
0000
3010
1000
0010
0100
0010
1000
0002
0000
,
0000
0103
0001
0010
1000
0010
0001
0100
,
0010
0001
0010
0100
0010
1000
0100
0010
,
0001
0100
0001
2000
0000
3020
0000
0230
,
0000
0302
0000
0023
0000
0031
1000
0000
,
0012
0100
0103
0000
2010
0100
3100
0000
,
2000
0001
0001
3001
0100
0010
1001
0000
,
0010
0001
0100
0020
0000
1030
0000
1100
,
0000
0101
0000
1010
0000
0100
0110
0000
,
1000
0001
1000
0001
0010
0001
0010
0001
0100
0001
0100
0001
0100
0010
0100
0000
,
2020
0000
0030
0000
0001
3001
1000
0001
;

//---------------dance-single - ----------------
#NOTEDATA:;
#CHARTNAME:;
#STEPSTYPE:dance-single;
#DESCRIPTION:;
#CHARTSTYLE:;
#DIFFICULTY:Medium;
#METER:13;
#RADARVALUES:0.598769,0.723539,0.367512,0.402513,0.131254,479.000000,437.000000,42.000000,46.000000,0.000000,0.000000,0.000000,0.000000,0.000000,0.598769,0.723539,0.367512,0.402513,0.131254,479.000000,437.000000,42.000000,46.000000,0.000000,0.000000,0.000000,0.000000,0.000000;
#CREDIT:;
#DISPLAYBPM:198.000000;
#NOTES:
0000
0000
0000
0000
,
0000
0000
0000
0000
,
0000
0000
0000
0000
,
0000
0000
0000
0000
,
0011
0000
0000
0002
0000
1003
0100
0000
,
1010
0000
0000
2000
0000
3001
0010
0000
,
1100
1000
0000
0020
0000
0130
0001
0000
,
0010
0000
0000
0010
0000
0000
0010
0000
0002
0000
0000
0000
2003
0000
0000
0000
,
3001
0100
0010
0000
1000
0100
0000
1000
,
0001
0000
0010
0100
0000
1000
0001
0000
,
0010
0001
1000
0000
0010
0100
0000
0001
,
0100
0000
0010
1000
0000
1000
0001
0000
,
1000
0100
0001
0000
1000
0001
0000
0010
,
0100
0000
0010
0001
0000
0100
1000
0000
,
0001
1000
0010
0000
1000
0100
0000
0001
,
0010
0000
0000
0000
0001
0000
0100
0000
0000
0000
1000
0001
1000
0000
0000
0000
,
0110
0000
1000
0001
1000
0100
0000
0010
,
0001
0000
0000
0000
0100
0000
0010
0000
0000
0000
0000
0000
1000
0001
1000
0001
,
1000
0000
0010
0100
0001
0100
0000
0010
,
1000
0000
0001
0000
0100
0100
0100
0100
,
0010
0000
1010
0000
1000
1100
0000
0001
,
0101
0000
0010
0110
0000
0100
1001
0000
,
0001
1000
1100
0000
0010
1010
0000
0001
,
0011
0000
0100
0110
0000
1000
0101
0000
,
2002
0000
0000
0000
0003
0000
0000
0000
0001
0000
0001
0000
3001
0000
0000
0010
,
1000
0010
0100
0010
0200
0000
0301
0000
,
2020
0000
0000
0000
0030
0000
0000
0000
0100
0000
0100
0000
3100
0000
0000
1000
,
0001
0100
0010
0100
0020
0000
1030
0000
,
0202
0000
0000
0000
0003
0000
0000
0000
1000
0000
1000
0000
1300
0000
0000
0001
,
1000
0010
1000
0001
2000
0000
3100
0000
,
1001
0000
0010
1010
0000
1000
1100
0000
,
0001
0011
0000
0100
0110
0000
1001
0000
,
0022
0000
0000
0000
0030
0000
0000
0000
0100
0000
0100
0000
0103
0000
0000
0010
,
0100
0001
0010
0100
2000
0000
3001
0000
,
2200
0000
0000
0000
0300
0000
0000
0000
0001
0000
0001
0000
3001
0000
0000
0010
,
0100
0010
0001
0100
2000
0000
3010
0000
,
0100
0001
0100
0010
0100
1000
0100
0000
,
0001
0000
0010
0000
0100
0000
1000
0001
2000
0000
0000
0000
3010
0000
0000
0000
,
1000
1100
0000
0001
0011
0000
0010
0110
,
0000
0000
0000
0010
0001
0000
0100
0000
1000
0000
1000
0000
1000
0000
0000
0000
,
0012
0000
1000
0000
,
0000
0000
0000
0100
,
0000
0000
0000
0000
,
0000
0000
0000
0000
0003
0001
1000
0010
,
0200
0000
0000
0000
,
1000
0000
0000
0000
,
0000
0000
0000
0001
0001
0000
0000
0000
,
0000
0000
0000
0300
,
1020
0000
0100
0000
,
0000
0000
0000
0001
,
0000
1000
0100
1000
,
0000
0001
0000
0000
0130
0010
1000
0001
,
0010
0000
0000
0001
0000
0000
1000
0000
0010
0000
0000
0100
0000
0000
0001
0000
,
0000
1000
0100
0010
0001
0100
0010
1000
,
0010
0100
0001
0010
0100
1000
0001
0100
,
0020
0000
0030
0000
1000
0100
0001
0100
,
2000
0000
0000
0000
0000
0000
0000
0000
0001
0000
0000
0001
0000
0000
3001
0000
,
0000
0000
0000
0000
0110
0000
0000
0000
1000
0000
0000
0001
0000
0000
1000
0000
,
0000
0001
0102
0000
2003
0000
3010
0100
,
0000
0010
2010
0000
3200
0000
1300
0001
,
1000
0010
0100
0002
0000
2003
0000
3200
,
0000
0000
0000
0000
1300
0010
0100
0001
,
0010
0000
0000
0001
0000
0000
0100
0000
0000
0010
0000
0000
1000
0000
0000
0001
,
0000
0000
0010
0000
0000
0100
0000
0000
1000
0000
0000
0001
0000
0000
0010
0000
,
2200
0000
0300
0000
3001
1000
0001
0100
,
0020
0000
0000
0000
0130
0001
1000
0100
,
0000
0000
1001
0000
0001
0100
1000
0000
,
0010
1000
0100
0001
0100
1000
0010
0000
,
1000
0001
0010
0200
0000
1000
0000
0010
,
0000
0001
0000
1300
0000
0001
0100
0000
,
2020
0000
0030
0000
3001
0100
1000
0000
,
0002
0000
0000
0000
0000
0000
0000
0000
0003
0000
0010
0100
0010
0000
0000
0000
,
0001
0000
1000
0000
0010
0000
0000
0000
0100
0000
0000
0010
0000
0000
0100
0000
,
0000
0000
0100
0000
0001
0000
0000
0000
0010
0000
0000
0100
0000
0000
1000
0000
,
0000
0000
0010
0000
1000
0000
0000
0000
0100
0000
0000
0010
0000
0000
0001
0000
,
0000
0000
0010
0000
0100
0000
0000
0000
1000
0000
0000
0010
0000
0000
0001
0000
,
0010
0001
0100
0000
0001
0010
1000
0000
,
0100
1000
0010
0000
1000
0001
0100
0000
,
0010
0000
0000
1000
0000
0000
0100
0000
0000
0010
0000
0000
0100
0000
0000
1000
,
0000
0000
0001
0000
0000
1000
0000
0000
0001
0000
0000
0010
0000
0000
0001
0000
,
2000
0000
0000
0000
3010
0100
0010
0100
,
0002
0000
0000
0000
0013
0001
0100
2000
,
0000
3001
0100
0000
0001
0010
1000
0000
,
0100
0001
0100
0010
0100
1000
0100
0000
,
1000
0001
1000
0020
0000
0001
0000
0100
,
0000
0001
0000
1030
0000
0010
0100
0000
,
0002
1000
1000
0000
0010
0010
0013
0000
,
0001
0100
0010
0100
0010
1000
0001
0000
,
1000
0010
0100
0101
0000
0110
0000
1001
,
0000
1100
0000
0011
0000
1000
0110
0000
,
0001
0100
0010
0001
0010
1000
0100
0010
,
0200
0000
0000
0000
1300
0010
0100
0001
;

//---------------dance-single - ----------------
#NOTEDATA:;
#CHARTNAME:;
#STEPSTYPE:dance-single;
#DESCRIPTION:;
#CHARTSTYLE:;
#DIFFICULTY:Easy;
#METER:8;
#RADARVALUES:0.351261,0.481703,0.201257,0.323761,0.004375,281.000000,258.000000,23.000000,37.000000,0.000000,0.000000,0.000000,0.000000,0.000000,0.351261,0.481703,0.201257,0.323761,0.004375,281.000000,258.000000,23.000000,37.000000,0.000000,0.000000,0.000000,0.000000,0.000000;
#CREDIT:;
#DISPLAYBPM:198.000000;
#NOTES:
0000
0000
0000
0000
,
0000
0000
0000
0000
,
0000
0000
0000
0000
,
0000
0000
0000
0000
,
0011
0001
0100
1000
,
1010
0001
0010
1000
,
1100
0010
0100
0001
,
1000
0000
0000
0001
0000
0000
1000
0000
0001
0000
0000
0000
1001
0000
0000
0000
,
0000
0000
0010
0000
0000
0100
0000
0000
,
0001
0000
0000
0010
0000
0000
1000
0000
,
0000
0000
0100
0000
0000
1000
0000
0000
,
0001
0000
0000
0010
0000
0000
0100
0000
,
0000
0000
0010
0000
0000
0001
0000
0000
,
0100
0000
0000
1000
0000
0000
0010
0000
,
0000
0000
1000
0000
0000
0001
0000
0000
,
0010
0000
0000
1000
0000
0000
0100
0000
,
0000
0000
0010
0000
0000
0001
0000
0000
,
0100
0000
0000
0010
0000
0000
1000
0000
,
0000
0000
0001
0000
0000
1000
0000
0000
,
0001
0000
0000
0000
0100
0010
0100
0010
,
0000
0000
1000
0000
0000
0100
0000
0000
,
0001
0000
0000
1000
0000
0000
0010
0000
,
0000
0000
0001
0000
0000
0100
0000
0000
,
0001
0000
0000
0010
0000
0000
1000
0000
,
2200
3300
0001
0100
,
0001
0010
1000
0001
,
0022
0033
0100
0010
,
1000
0100
0010
0001
,
2020
3030
0001
0010
,
0001
0100
0010
1000
,
0100
0000
0000
0010
0000
0000
0001
0000
,
0000
0100
0000
0000
1000
0000
0001
0000
,
0202
0303
0010
0100
,
0010
1000
0100
0001
,
0220
0330
1000
0010
,
1000
0001
0010
0100
,
1000
0000
0001
0000
1000
0001
0100
0000
,
0001
0010
0100
0000
1000
0000
0001
0000
,
0010
0000
0000
0100
0000
0000
0010
0000
,
0000
0001
1000
0100
,
2002
0000
0000
0000
,
0000
0000
0000
0000
,
0000
0000
0000
0000
,
0000
0000
0000
3003
,
0020
0000
0000
0000
,
0000
0000
0000
0000
,
0000
0000
0000
0000
,
0000
0000
0000
0030
,
0200
0000
0000
0000
,
0000
0000
0000
0000
,
0000
0000
0000
0000
,
0000
0000
0000
0300
,
0001
1000
0001
0010
,
0100
1000
0010
0100
,
0001
0010
0001
1000
,
0100
0000
1000
0001
,
0202
0303
0001
0010
,
2200
3300
1000
0001
,
0000
1001
0010
1000
,
0100
0010
0001
0100
,
1000
0001
0010
0100
,
2000
0000
0100
3001
,
0010
1000
0010
0001
,
0010
1000
0100
0001
,
2020
3030
0100
0001
,
0022
0033
1000
0010
,
0000
0110
1000
0001
,
0010
1000
0001
0100
,
0010
1000
0100
0001
,
0010
0100
0010
0001
,
0220
0000
0000
0330
,
0002
0000
0003
1001
,
1000
0010
0100
0001
,
0000
0010
1000
0001
,
0000
0010
0100
0010
,
0000
0001
0100
1000
,
0100
0010
0100
1000
,
0010
1000
0001
0010
,
1000
0100
1000
0010
,
0100
0001
0010
0100
,
2200
3300
0010
1000
,
0202
0303
0010
0100
,
0001
1010
1000
0100
,
0010
0001
0100
0010
,
1000
0001
0010
0100
,
0010
0001
1000
0100
,
2020
3030
0022
0033
,
0200
1000
0010
0301
,
0010
0001
0100
1000
,
0010
0100
0010
1000
,
0002
0010
1000
0103
,
2000
0000
0010
3001
;

//---------------dance-single - ----------------
#NOTEDATA:;
#CHARTNAME:;
#STEPSTYPE:dance-single;
#DESCRIPTION:;
#CHARTSTYLE:;
#DIFFICULTY:Beginner;
#METER:5;
#RADARVALUES:0.203757,0.321135,0.192506,0.000000,0.000000,163.000000,141.000000,22.000000,0.000000,0.000000,0.000000,0.000000,0.000000,0.000000,0.203757,0.321135,0.192506,0.000000,0.000000,163.000000,141.000000,22.000000,0.000000,0.000000,0.000000,0.000000,0.000000,0.000000;
#CREDIT:;
#DISPLAYBPM:198.000000;
#NOTES:
// measure 0
0000
0000
0000
0000
,  // measure 1
0000
0000
0000
0000
,  // measure 2
0000
0000
0000
0000
,  // measure 3
0000
0000
0000
0000
,  // measure 4
0001
0000
0001
0000
,  // measure 5
1000
0000
1000
0000
,  // measure 6
0001
0000
0100
0000
,  // measure 7
0010
0010
0010
0000
,  // measure 8
0000
1000
0000
0000
,  // measure 9
0001
0000
0001
0000
,  // measure 10
0000
0010
0000
0000
,  // measure 11
0100
0000
0100
0000
,  // measure 12
0000
1000
0000
0000
,  // measure 13
0001
0000
0001
0000
,  // measure 14
0000
0100
0000
0000
,  // measure 15
0010
0000
0010
0000
,  // measure 16
0000
1001
0000
0000
,  // measure 17
0100
0000
0010
0000
,  // measure 18
0000
0110
0000
0000
,  // measure 19
1000
0000
0100
0100
,  // measure 20
0000
1001
0000
0000
,  // measure 21
0001
0000
0010
0000
,  // measure 22
0000
0110
0000
0000
,  // measure 23
0001
0000
1000
0000
,  // measure 24
1001
0000
0100
0000
,  // measure 25
1000
1000
1000
0000
,  // measure 26
0110
0000
0001
0000
,  // measure 27
0010
0010
0010
0000
,  // measure 28
1001
0000
0100
0000
,  // measure 29
0010
0010
0010
0000
,  // measure 30
1000
0000
0001
0000
,  // measure 31
1000
0000
0001
0000
,  // measure 32
1001
0000
0001
0000
,  // measure 33
0100
0100
0100
0000
,  // measure 34
0110
0000
1000
0000
,  // measure 35
0001
0001
0001
0000
,  // measure 36
1000
1000
1000
0000
,  // measure 37
0010
0010
0010
0000
,  // measure 38
0100
0000
0010
0000
,  // measure 39
1000
0000
0000
0000
,  // measure 40
1001
0000
0000
0000
,  // measure 41
0000
0000
0000
0000
,  // measure 42
0000
0000
0000
0000
,  // measure 43
0000
0000
0000
0000
,  // measure 44
1000
0000
0000
0000
,  // measure 45
0000
0000
0000
0000
,  // measure 46
0000
0000
0000
0000
,  // measure 47
0000
0000
0000
0000
,  // measure 48
0001
0000
0000
0000
,  // measure 49
0000
0000
0000
0000
,  // measure 50
0000
0000
0000
0000
,  // measure 51
0000
0000
0000
0000
,  // measure 52
0010
0000
0010
0000
,  // measure 53
0001
0000
1000
0000
,  // measure 54
0001
0000
0100
0000
,  // measure 55
1000
0000
0000
0000
,  // measure 56
1001
0000
0000
0000
,  // measure 57
0110
0000
0000
0000
,  // measure 58
0000
1000
1000
1000
,  // measure 59
0000
0001
0001
0000
,  // measure 60
0010
0000
0001
0000
,  // measure 61
0100
0000
1000
0000
,  // measure 62
0100
0000
0000
0000
,  // measure 63
0000
0000
0000
0000
,  // measure 64
1001
0000
0000
0000
,  // measure 65
0110
0000
0000
0000
,  // measure 66
0000
1000
1000
1000
,  // measure 67
0000
0010
0010
0000
,  // measure 68
0100
0000
0010
0000
,  // measure 69
1000
0000
0001
0000
,  // measure 70
0110
0000
0000
0000
,  // measure 71
1001
0000
0000
0000
,  // measure 72
1000
0000
0001
0001
,  // measure 73
0000
0000
0100
0100
,  // measure 74
0000
0000
0010
0010
,  // measure 75
0000
0000
1000
1000
,  // measure 76
0000
0000
0001
0000
,  // measure 77
0100
0000
1000
0000
,  // measure 78
0010
0000
0000
0000
,  // measure 79
0000
0000
0000
0000
,  // measure 80
1001
0000
0000
0000
,  // measure 81
0110
0000
0000
0000
,  // measure 82
0000
0001
0001
0001
,  // measure 83
0000
1000
1000
0000
,  // measure 84
0100
0000
0010
0000
,  // measure 85
0100
0000
1000
0000
,  // measure 86
0110
0000
0000
0000
,  // measure 87
1001
0000
0000
0000
,  // measure 88
0010
0000
0010
0000
,  // measure 89
1000
0000
0001
0000
,  // measure 90
0110
0000
0000
0000
,  // measure 91
1001
0000
0001
0001
;
