#TITLE:Voodoo People;
#ARTIST:The Prodigy;
#BANNER:Voodoo People-bn.png;
#BACKGROUND:Voodoo People-bg.png;
#JACKET:Voodoo People-jacket.png;
#MUSIC:Voodoo People.ogg;
#SAMPLESTART:96.443;
#SAMPLELENGTH:20;
#DISPLAYBPM:149;
#BPMS:0=149;
#BGCHANGES:;

//---------------dance-single - ----------------
#NOTES:
     dance-single:
     :
     Beginner:
     4:
     :
0000
0000
0000
0000
,
0000
0000
0000
0000
,
0000
0000
0000
0000
,
0000
0000
0000
0000
,
0000
0000
0000
0000
,
0000
0000
0000
0000
,
0000
0000
0000
0000
,
0000
0000
0000
0000
,
1000
0000
0001
0000
,
0010
0000
0010
0000
,
0001
0000
1000
0000
,
0100
0000
0100
0000
,
0010
0000
0100
0000
,
1000
0000
1000
0000
,
0010
0000
0100
0000
,
0001
0000
0001
0000
,
1000
0000
0001
0000
,
0010
0000
0100
0000
,
0010
0000
0001
0000
,
0100
0000
1000
0000
,
0001
0000
1000
0000
,
0010
0000
0100
0000
,
0001
0000
0010
0000
,
0100
0000
1000
0000
,
0010
0000
0200
0000
,
0000
0000
0000
0000
,
0000
0000
0000
0000
,
0000
0000
0300
0000
,
0001
0000
0000
0000
,
1000
1000
0000
0000
,
0100
0000
0000
0000
,
0010
0010
0000
0000
,
0001
0000
2000
0000
,
0000
0000
0000
0000
,
0000
0000
0000
0000
,
0000
0000
3000
0000
,
0010
0000
0000
0000
,
0100
0000
0000
0000
,
0001
0000
0000
0000
,
1000
0000
0000
0000
,
0100
0000
0000
0000
,
1000
0000
0000
0000
,
0001
0000
0000
0000
,
0010
0000
0000
0000
,
0001
0001
0000
0000
,
1000
1000
0000
0000
,
0010
0010
0010
0000
,
0100
0000
1001
0000
,
0001
0001
0000
0000
,
0010
0010
0000
0000
,
0100
0100
0100
0000
,
1000
0000
0110
0000
,
0100
0100
0000
0000
,
0010
0010
0000
0000
,
1000
1000
1000
0000
,
0001
0000
1001
0000
,
0010
0010
0000
0000
,
0001
0001
0000
0000
,
0100
0100
0100
0000
,
1000
0000
0110
0000
,
0001
0000
0001
0000
,
0010
0010
0010
0000
,
1000
0000
1000
0000
,
0100
0100
0100
0000
,
0001
0000
1000
0000
,
0001
0000
0100
0000
,
0010
0000
1000
0000
,
0100
0000
0010
0000
,
0100
0000
1000
0000
,
0001
0000
0010
0000
,
0001
0000
0100
0000
,
1000
0000
1001
0000
,
0010
0000
1000
0000
,
0100
0000
0010
0000
,
0001
0000
0100
0000
,
1000
0000
0010
0000
,
1000
0000
0001
0000
,
1000
0000
0100
0000
,
0010
0000
0001
0000
,
0100
0000
0110
0000
,
0001
0000
0000
0000
;

//---------------dance-single - ----------------
#NOTES:
     dance-single:
     :
     Easy:
     7:
     :
0000
0000
0000
0000
,
0000
0000
0000
0000
,
0000
0000
0000
0000
,
0000
0000
0000
0000
,
0000
0000
0000
0000
,
0000
0000
0000
0000
,
0000
0000
0000
0000
,
0000
0000
0000
0000
,
0001
0101
1000
1100
,
0010
1001
0100
0110
,
0001
0011
1000
1010
,
0010
0110
0100
1001
,
0001
0011
1000
1100
,
0010
0101
0100
1010
,
0001
1000
0010
0100
,
0101
0101
1100
1100
,
0001
0010
0001
0100
,
0010
1000
0100
0010
,
0001
1000
0001
0010
,
0001
0100
0010
1000
,
0100
0001
0010
0100
,
1000
0010
1000
0001
,
0010
0100
1000
0001
,
0100
0000
0110
1001
,
0001
1000
0202
0000
,
0000
0000
0000
0300
,
1000
1000
0010
0010
,
1000
0100
0010
0100
,
1003
0001
0100
0010
,
1000
1100
0001
0100
,
0010
0100
0001
1000
,
0100
0010
0110
1001
,
0100
0000
2020
0000
,
0000
0000
0000
0030
,
0001
0100
0001
0100
,
0010
0010
3010
0000
,
0020
0000
0000
0000
0000
0000
0000
0001
,
0000
0031
0000
0000
0000
0000
0000
0000
,
2000
0000
0000
0000
0000
0000
0000
0100
,
0000
3100
0000
0000
0000
0000
0000
0000
,
0002
0000
0000
0000
0000
0000
0000
1000
,
0000
1003
0000
0000
0000
0000
0000
0000
,
0200
0000
0000
0000
0000
0000
0000
0010
,
0000
0310
0000
0000
0000
0000
0000
0000
,
0001
0100
2000
0000
0000
0000
0000
0010
,
0000
3010
0000
0000
0000
0000
1000
0001
,
1000
0000
1100
0000
0101
0000
0000
0100
,
0000
0100
0000
0000
0110
0000
1001
0000
,
1000
0010
0002
0000
0000
0000
0000
0100
,
0000
0103
0000
0000
0000
0000
0001
1000
,
0001
0000
0011
0000
1010
0000
0000
1000
,
0000
0001
0000
0000
0110
0000
1001
0000
,
0010
0001
0200
0000
0000
0000
0000
1000
,
0000
0301
0000
0000
0000
0000
0010
0100
,
0010
0000
0101
0000
1010
0000
0000
0010
,
0000
0010
0000
0000
0110
0000
1001
0000
,
1000
0001
0020
0000
0000
0000
0000
0100
,
0000
0130
0000
0000
0000
0000
0001
1000
,
0001
0000
0011
0000
1100
0000
0000
0010
,
0000
0100
0000
0000
0110
0000
1001
0000
,
1000
0010
0100
0001
,
0010
0100
1000
0000
,
0001
0001
1000
1000
,
0010
0100
0110
1001
,
1000
0100
0010
0001
,
0100
0100
0010
1000
,
0100
0010
0001
0100
,
1000
1000
0001
0010
,
0001
0100
0010
0010
,
1000
0001
0010
0010
,
0010
0001
0100
1000
,
0010
0000
0110
1001
,
0100
0001
1000
0100
,
0010
0010
1000
0100
,
1000
0001
0010
0001
,
1000
1000
0001
0010
,
0001
0001
0100
0010
,
1000
1000
0001
0100
,
0010
0010
1000
0001
,
0010
0100
0110
1001
,
0110
0000
0000
0000
;

//---------------dance-single - ----------------
#NOTES:
     dance-single:
     :
     Medium:
     10:
     :
0000
0000
0000
0000
,
0000
0000
0000
0000
,
0000
0000
0000
0000
,
0000
0000
0000
0000
,
0000
0000
0000
0000
,
0000
0000
0000
0000
,
0000
0000
0000
0000
,
0000
0000
0000
0000
,
1001
0000
0110
0000
1000
0100
0010
0001
,
0100
0010
0000
0100
0001
1000
0000
0000
,
1100
0000
0101
0000
0010
0100
0001
1000
,
0001
0010
0000
0001
1000
0010
0100
0000
,
1010
0000
0011
0000
1000
0001
0100
0010
,
1000
0100
0000
1000
0001
0010
0000
0000
,
0001
0100
1000
0000
0001
0010
1000
0000
,
0101
0101
1100
1100
,
0001
0010
0100
0000
1000
0001
1000
0010
,
0100
0001
0000
1000
0001
0010
0000
0000
,
0100
0010
0001
0000
1000
0001
1000
0010
,
0100
0001
0000
0001
1000
0010
0100
0000
,
0001
1000
0100
0000
0010
0100
0010
0001
,
0100
0010
0000
1000
0001
0010
0000
0000
,
0001
0100
0010
0000
1000
0001
1000
0100
,
0010
0001
0000
0000
1000
0010
0100
0001
,
0010
0100
0012
1000
,
0100
0000
0010
0000
1000
1000
1000
0000
,
0010
0000
0100
0000
0010
0010
0010
0000
,
1000
0000
0010
0000
0100
0100
0100
0000
,
0013
0000
0001
0000
0100
0010
0100
0110
,
0000
1001
0000
0000
1000
0001
0100
0000
,
1010
0000
0001
0000
1000
0010
0100
0110
,
0000
1001
0000
0000
1000
0001
0010
0100
,
1000
0000
2020
0000
,
0000
0000
0000
0030
,
0001
0100
0001
0100
,
0010
0010
3010
0000
,
1001
0000
0000
0000
0000
0000
0000
0101
,
0000
1100
0000
0000
0000
0000
0000
0000
,
0011
0000
0000
0000
0000
0000
0000
1100
,
0000
0101
0000
0000
0000
0000
0000
0000
,
0110
0000
0000
0000
0000
0000
0000
1100
,
0000
0011
0000
0000
0000
0000
0000
0000
,
1001
0000
0000
0000
0000
0000
0000
0101
,
0000
1010
0000
0000
0000
0000
0000
0000
,
0001
0010
0100
0000
1000
0010
0100
0002
,
0000
1003
0100
3000
0010
0001
1000
0000
,
0110
0000
0110
0000
0001
1000
0001
0020
,
0000
0230
0000
0000
1300
0001
1000
0100
,
0010
0001
0100
0000
0001
1000
0000
1100
,
0000
0001
0100
0000
0010
1000
0001
0000
,
0011
0000
0011
0000
0100
0010
0000
1001
,
0000
0110
0000
0000
0010
1000
0001
0100
,
0001
0010
1000
0000
0000
0100
0010
0001
,
0000
1000
0001
0000
0010
0100
1000
0000
,
1001
0000
1001
0000
0100
0010
1000
0001
,
0000
0010
0100
0000
1000
0001
0100
0001
,
1000
0100
0010
0000
0001
0100
0000
0020
,
0000
0030
0001
0000
0010
0001
0100
0000
,
1010
0000
1010
0000
0001
0010
0100
2000
,
0000
3001
0000
0000
0100
0010
1030
0001
,
0010
0000
0010
0000
0001
0100
1000
0000
,
0010
0000
0010
0000
1000
0100
0001
0000
,
0100
0000
0100
0000
0001
0010
1000
0000
,
0100
0000
0100
0000
1000
0001
1000
0001
,
0100
0000
0010
0010
0000
1000
0000
1100
,
0000
0011
0000
0000
0100
0010
1000
0000
,
0001
0000
1000
1000
0000
0010
0000
0101
,
0000
1100
0000
0000
0001
0010
1000
0000
,
0100
0000
1000
1000
0000
0010
0000
0110
,
0000
0101
0000
0000
0001
1000
0100
0000
,
0010
0000
0001
0001
0000
0100
0000
1010
,
0000
1100
0000
0000
0001
0010
0100
1000
,
0010
0000
0100
0100
0000
0010
0000
1001
,
0000
0101
0000
0000
1000
0001
0100
0000
,
0001
0000
1000
1000
0000
0010
0000
0110
,
0000
1001
0000
0000
0010
0100
0001
0000
,
0010
0000
0001
0001
0000
1000
0000
0101
,
0000
1100
0000
0000
0001
0100
1000
0000
,
0001
0000
0100
0100
0000
0010
0000
1010
,
0000
0101
0000
0000
1000
0100
0010
0002
,
0200
0000
0000
0000
,
0000
0000
0000
0303
;

//---------------dance-single - ----------------
#NOTES:
     dance-single:
     :
     Hard:
     13:
     :
0000
0000
0000
0000
,
0000
0000
0000
0000
,
0000
0000
0000
0000
,
0000
0000
0000
0000
,
0000
0000
0000
0000
,
0000
0000
0000
0000
,
0000
0000
0000
0000
,
0000
0000
0000
0000
,
0011
0001
0100
0000
1010
1000
0100
0010
,
0001
1000
0010
1000
0100
0010
0001
0000
,
0101
0100
0010
0000
1100
0001
1000
0010
,
1000
0001
0010
0100
1000
0010
0100
0000
,
0110
0001
0010
0000
1001
0100
0010
1000
,
0100
1000
0010
0100
0001
1000
0100
0000
,
0011
1000
0010
0000
1100
1000
0001
0100
,
0001
0010
1000
0010
0001
0100
1000
0100
,
0001
0010
1100
0000
0101
0010
1000
0100
,
1000
0001
0010
1000
0010
0001
0100
0000
,
0110
0001
1000
0000
1010
0100
0010
0001
,
0100
1000
0100
0010
1000
0001
0100
0000
,
1001
0010
0100
0000
0101
1000
0100
0001
,
0100
0010
0001
0100
1000
0100
0001
0000
,
1010
0001
1000
0000
0110
0001
0100
0010
,
1000
0000
0001
0000
0010
0000
0000
0000
0001
1000
0001
1000
0001
1000
0001
0000
,
1001
0000
0010
0000
2100
0001
0001
0000
,
0100
0100
0100
0000
0010
0010
0010
0000
,
3001
1000
0010
0000
1000
0001
0010
0100
,
0001
0100
0010
0001
0100
1000
0100
0000
,
0101
1000
0001
0000
0010
0100
1000
1010
,
0000
0011
0000
1000
0010
0100
0001
0000
,
0110
1000
0010
0000
1000
0001
0100
0101
,
0000
0000
1100
0000
0000
0000
0000
0000
0001
1000
0001
1000
0001
1000
0001
0000
,
0011
0000
2020
0000
,
0000
0000
0000
0000
0000
0000
0030
0001
,
0001
0000
0000
0100
0000
0000
0010
0000
0000
0100
0000
0000
3001
0000
0000
0000
,
0020
0000
0000
1000
0000
0000
0100
0000
0000
0031
0000
0000
0000
0000
0000
0000
,
1001
0000
0000
0200
0000
0000
0000
0000
0000
0000
0000
0000
0300
0000
0101
0000
,
0000
0000
1010
0000
0000
0000
0000
0000
0000
0000
0000
0000
0001
1000
0001
0000
,
0011
0000
0000
0000
1100
0000
0000
0000
0001
1000
0001
0000
0000
0000
0110
0000
,
0000
1001
0000
0000
0000
0000
0000
0000
,
0110
0000
0000
0002
0000
0000
0000
0000
0000
0000
0000
0000
0003
0000
0011
0000
,
0000
0000
1010
0000
0000
0000
0000
0000
0000
0000
0000
0000
1000
0001
1000
0000
,
1100
0000
0000
0000
0101
0000
0000
0000
0100
0010
0100
0000
0000
0000
0110
0000
,
0000
0000
1001
0000
0000
0000
0000
0000
0000
0000
0000
0000
0000
0000
0001
1000
,
0001
0000
0010
0200
0000
0000
0000
0000
1000
0000
1000
0000
1300
0000
0002
0000
,
0000
0013
0001
0000
0100
0000
0000
0000
0010
0000
1000
0000
0001
0100
0001
0000
,
0101
0000
0000
0000
1001
0000
0000
0000
0010
0100
0010
0000
1000
0000
1100
0000
,
0000
0000
0011
0000
0100
0000
0000
0000
1000
0001
1000
0001
1000
0001
1000
0000
,
0010
0000
0100
0002
0000
0000
0000
0000
1000
0000
1000
0000
1003
0000
0200
0000
,
0000
1300
0001
0000
0100
0000
0000
0000
0010
0000
0100
0000
0001
0010
0001
0000
,
0011
0000
0000
0000
0101
0000
0000
0000
1000
0010
1000
0000
0100
0000
0110
0000
,
0000
0000
1100
0000
0001
0000
0000
0000
0100
0010
0100
0010
0100
0010
0100
0000
,
0001
0000
1000
0020
0000
0000
0000
0000
0100
0000
0100
0000
0130
0000
0002
0000
,
0000
1003
0100
0000
0010
0000
0000
0000
0001
0000
0100
0000
0010
1000
0010
0000
,
0110
0000
0000
0000
1001
0000
0000
0000
0010
0001
0010
0000
0100
0000
1100
0000
,
0000
0000
0101
0000
0010
0000
0000
0000
1000
0100
1000
0100
1000
0100
1000
0000
,
0010
0000
1000
0002
0000
0000
0000
0000
0100
0000
0100
0000
0103
0000
0020
0000
,
0000
0130
0001
0000
0010
0000
0000
0000
0100
0000
1000
0000
0001
0010
0001
0000
,
0101
0000
0000
0000
1010
0000
0000
0000
0001
1000
0001
0000
0010
0000
0011
0000
,
0000
0000
1001
0000
0010
0000
0000
0000
0100
0001
0100
0001
0100
0001
0100
0000
,
0002
0000
0000
2003
0000
0000
3020
0000
0000
0230
0000
0000
0301
0000
0000
0000
,
0011
0000
0000
0110
0000
0000
1100
0000
0000
1001
0000
0000
0000
0000
0010
0000
,
2000
0000
0000
3200
0000
0000
0320
0000
0000
0032
0000
0000
0103
0000
0000
0000
,
0101
0000
0000
1001
0000
0000
1010
0000
0000
0110
0000
0000
0000
0000
0000
0000
,
1000
0000
0000
0010
0100
0000
0101
0000
0000
0000
1100
0000
0000
0000
0011
0000
,
0000
0000
1010
0000
0000
0000
0000
0001
2000
0000
3100
0000
0020
0000
0031
0000
,
0100
0000
0000
0001
0010
0000
0110
0000
0000
0000
1100
0000
0000
0000
0101
0000
,
0000
0000
1001
0000
0000
0000
0000
1000
0020
0000
1030
0000
0002
0000
0103
0000
,
0010
0000
0000
1000
0001
0000
0101
0000
0000
0000
0011
0000
0000
0000
0110
0000
,
0000
0000
1100
0000
0000
0000
0000
0100
2000
0000
3001
0000
0200
0000
0310
0000
,
1000
0000
0000
0001
0010
0000
1001
0000
0000
0000
0101
0000
0000
0000
0011
0000
,
0000
0000
0110
0000
0000
0000
0000
0000
1000
0010
1000
0010
1000
0010
1000
0000
,
0100
0000
0000
1000
0001
0000
0011
0000
0000
0000
1100
0000
0000
0000
1001
0000
,
0000
0000
1010
0000
0000
0000
0000
0010
2000
0000
3001
0000
0020
0000
0130
0000
,
0010
0000
0000
0100
1000
0000
1001
0000
0000
0000
0110
0000
0000
0000
0101
0000
,
0000
0000
1010
0000
0000
0000
0000
0001
0020
0000
0031
0000
2000
0000
3100
0000
,
0001
0000
0000
1000
0010
0000
0110
0000
0000
0000
0101
0000
0000
0000
1100
0000
,
0000
0000
1010
0000
0000
0000
0000
0100
0020
0000
0130
0000
0002
0000
1003
0000
,
0100
0000
0000
0010
0001
0000
1100
0000
0000
0000
0101
0000
0000
0000
1010
0000
,
0000
0000
0011
0000
0000
0000
0000
0000
0100
0010
0100
0010
0100
0010
0200
0000
,
0002
0000
0000
0000
,
0000
0000
0000
0303
;

//---------------dance-single - ----------------
#NOTES:
     dance-single:
     :
     Challenge:
     15:
     :
0000
0000
0000
0000
,
0000
0000
0000
0000
,
0000
0000
0000
0000
,
0000
0000
0000
0000
,
0000
0000
0000
0000
,
0000
0000
0000
0000
,
0000
0000
0000
0000
,
0000
0000
0000
0000
,
1100
0001
0101
0000
0010
0100
1000
0001
,
0010
0000
0001
0000
0100
0000
0010
0000
1000
0100
1000
0000
0001
0000
0000
0000
,
0110
0100
1001
0000
0010
1000
0001
0010
,
0100
0000
1000
0000
0001
0000
0100
0000
0010
1000
0010
0000
0100
0000
0000
0000
,
1010
1000
0011
0000
0100
0001
0010
0100
,
1000
0010
0100
0001
0010
0100
1000
0000
,
1100
0010
0011
0000
0001
1000
0010
0100
,
0001
0010
1000
0010
0001
0100
1000
0100
,
0001
0000
0010
0000
1001
0000
0000
0000
0100
0010
0100
0000
0001
0000
1000
0100
,
1000
0000
0010
0000
0100
0000
0001
0000
0010
0100
1000
0000
1100
0000
0000
0000
,
0011
0000
0100
0000
1010
0000
0000
0000
0001
0010
0001
0000
0100
0000
0010
1000
,
0010
0000
0100
0000
0001
0000
1000
0000
0001
0100
0010
0000
0110
0000
0000
0000
,
0101
0000
0010
0000
1010
0000
0000
0000
0100
1000
0100
0000
0010
0000
0001
1000
,
0001
0000
0100
0000
0010
0000
1000
0000
0100
0010
0001
0000
0011
0000
0000
0000
,
1001
0000
0010
0000
1100
0000
0000
0000
0001
1000
0001
0000
0100
0000
0010
1000
,
0010
0000
0100
0000
0001
0000
2000
0000
0000
3100
1000
0001
1000
0010
0000
0100
,
0001
0000
1000
0000
0100
0000
0000
0000
0010
0001
0010
0000
0100
0000
1000
0001
,
1000
0000
0010
0000
0100
0000
0001
0000
0010
0100
0010
0000
0001
0000
1000
0100
,
1000
0000
0010
0000
0100
0000
0000
0000
0001
0010
0001
0000
0100
0000
1000
0001
,
1000
0000
0010
0000
0100
0000
0001
0000
1000
0100
1000
0000
0010
0000
0100
0001
,
0100
0000
0010
0000
1000
0000
0000
0000
0001
0010
0001
0000
0100
0000
0110
0000
,
0000
0000
1001
0000
0100
0000
0000
0000
1000
0010
1000
0000
0100
0000
0001
0010
,
0001
0000
1000
0000
0010
0000
0000
0000
1000
0100
1000
0000
0001
0000
0011
0000
,
0000
0000
1100
0000
0001
0000
0200
0000
0000
0310
1000
0001
1000
0010
0000
0100
,
0001
0003
2020
0000
,
0000
0000
0000
0000
0000
0000
0030
0001
,
0001
0000
0000
0100
0000
0000
0001
0000
0000
0010
0000
0000
3001
1000
0001
0000
,
0010
0000
0000
0100
0000
0000
1000
0000
0000
0001
0000
0000
0000
0000
0000
0000
,
0011
0000
0001
0200
0000
0000
0000
0000
0000
0000
0000
0000
0300
0000
0110
0000
,
0000
1000
0001
0000
0000
0000
0000
0000
0000
0000
0000
0000
0100
0010
0100
0000
,
1001
0000
0000
1000
0100
0000
0000
1000
0100
1000
0100
0000
0000
0000
1100
0000
,
0000
0101
0000
0000
0000
0000
0000
0000
,
1010
0000
0010
0200
0000
0000
0000
0000
0000
0000
0000
0000
0300
0000
0110
0000
,
0000
0001
1000
0000
0000
0000
0000
0000
0000
0000
0000
0000
0010
0100
0010
0000
,
0101
0000
0000
0001
0010
0000
0000
0001
0010
0001
0010
0000
0000
0000
0011
0000
,
0000
0000
1100
0000
0000
0000
0000
0000
0000
0000
0000
0000
0000
0000
0001
1000
,
0001
0000
0010
0200
1000
0000
0000
0000
1300
0001
1000
0000
0010
0000
0100
0010
,
0000
0010
1000
0000
0001
0000
0000
0000
0010
0001
0100
0000
0010
1000
3100
0000
,
0110
0000
0000
0001
0100
0000
0000
0010
1000
0010
1000
0000
0100
0000
1100
0000
,
0000
0000
1010
0000
0001
0000
0200
0000
0000
0301
0010
0100
1000
0001
0000
1000
,
0010
0000
0100
0002
1000
0000
0000
0000
0013
0001
0100
0000
0010
0000
1000
0100
,
0000
0100
0010
0000
0001
0000
0000
0000
1000
0001
0100
0000
0001
0010
0100
0000
,
0011
0000
0000
1000
0001
0000
0000
0100
0010
0100
0010
0000
1000
0000
1001
0000
,
0000
0000
0101
0000
0010
0000
2000
0000
0000
3100
1000
0001
0010
0001
0000
0100
,
0010
0000
1000
0200
0001
0000
0000
0000
1300
0100
0010
0000
0001
0000
0100
0001
,
0000
0001
1000
0000
0010
0000
0000
0000
0100
0010
1000
0000
0100
0010
0001
0000
,
0101
0000
0000
1000
0100
0000
0000
0010
0001
0010
0001
0000
0100
0000
0110
0000
,
0000
0000
1010
0000
0100
0000
0020
0000
0000
0031
0100
0001
1000
0001
0000
0100
,
0010
0000
1000
0002
0010
0000
0000
0000
3103
0001
1000
0000
0100
0000
1000
0001
,
0000
0001
0010
0000
0100
0000
0000
0000
0001
0010
1000
0000
0100
0010
0001
0000
,
0110
0000
0000
0001
1000
0000
0000
0010
0100
0010
0100
0000
0001
0000
0011
0000
,
0000
0000
1100
0000
0010
0000
0000
0000
1000
0001
0010
0001
0100
0010
1000
0000
,
0102
0000
0000
0013
0003
0000
1002
0000
0000
0103
0010
1000
0010
0000
0000
0000
,
0210
0000
0000
0001
0000
0000
1000
0000
0000
0301
0000
0000
0000
0000
0010
0000
,
2010
0000
0000
3100
0000
0000
2001
0000
0000
3010
0100
0001
0100
0000
0000
0000
,
0012
0000
0000
1003
0000
0000
2100
0000
0000
3001
1000
0010
0100
0001
0000
1000
,
0100
0000
1000
0001
0100
0000
0110
0000
0030
0000
1001
0000
0000
0000
1100
0000
,
0000
0000
0011
0000
0000
0000
0100
0001
2000
0000
3010
0000
0200
0000
0301
0000
,
0010
0000
0001
1000
0100
0000
1100
0000
0000
0000
0101
0000
0000
0000
0011
0000
,
0000
0000
1010
0000
0000
0000
0010
1000
0200
0000
0310
0000
0002
0000
1003
0000
,
0001
0000
1000
0010
0100
0000
0101
0000
0000
0000
1001
0000
0000
0000
1010
0000
,
0000
0000
0011
0000
0000
0000
0010
0001
2000
0000
3001
0000
0020
0000
0130
0000
,
1000
0000
0100
0010
0001
0000
1001
0000
0000
0000
0110
0000
0000
0000
0101
0000
,
0000
0000
1010
0000
0000
0000
2000
0000
0000
3100
0010
0001
0100
0010
0000
1000
,
0001
0000
1000
0010
0100
0000
1010
0000
0000
0000
0011
0000
0000
0000
1001
0000
,
0000
0000
1100
0000
0000
0000
1000
0010
0200
0000
0301
0000
2000
0000
3100
0000
,
0010
0000
0001
0100
1300
0000
1100
0000
0000
0000
0011
0000
0000
0000
0101
0000
,
0000
0000
0110
0000
0000
0000
0010
1000
0002
0000
0013
0000
2000
0000
3100
0000
,
1000
0000
0001
0010
0100
0000
1001
0000
0000
0000
0101
0000
0000
0000
1100
0000
,
0000
0000
1010
0000
0000
0000
0001
1000
0200
0000
1300
0000
0002
0000
0013
0000
,
0100
0000
1000
0001
0010
0000
0011
0000
0000
0000
0110
0000
0000
0000
1100
0000
,
0000
0000
1001
0000
0000
0000
0020
0000
0000
0130
0001
0010
0100
1000
0000
0002
,
0200
0000
0000
0000
,
0000
0000
0000
0303
;
