#TITLE:Violently Car;
#SUBTITLE:;
#ARTIST:sampling masters MEGA;
#TITLETRANSLIT:;
#SUBTITLETRANSLIT:;
#ARTISTTRANSLIT:;
#GENRE:;
#CREDIT:;
#BANNER:Violently Car-bn.png;
#BACKGROUND:Violently Car-bg.png;
#LYRICSPATH:;
#CDTITLE:;
#MUSIC:Violently Car.ogg;
#OFFSET:0.000000;
#SAMPLESTART:83.686996;
#SAMPLELENGTH:20.000000;
#SELECTABLE:YES;
#DISPLAYBPM:85.000000:300.000000;
#BPMS:0.000000=170.000000
,24.000000=85.000000
,28.000000=170.000000
,156.000000=194.000000
,244.000000=220.000000
,276.000000=249.999985
,308.000000=280.000000
,340.000000=300.000000
;
#STOPS:
;
#BGCHANGES:;
#KEYSOUNDS:;
#ATTACKS:;

//---------------dance-single - ----------------
#NOTES:
     dance-single:
     :
     Challenge:
     17:
     0.933275,0.928230,0.714670,0.142934,0.197585,777.000000,692.000000,85.000000,17.000000,0.000000,0.000000,0.933275,0.928230,0.714670,0.142934,0.197585,777.000000,692.000000,85.000000,17.000000,0.000000,0.000000:
0000
0000
0000
0000
,
0000
0000
0000
0000
,
1000
0100
0001
1000
0010
0001
1000
0100
,
0001
1000
0010
0001
1000
0100
0001
1000
,
0010
0001
1000
0100
0001
1000
0010
0001
,
1000
0100
0010
0001
0010
0100
1000
0100
0010
0001
0010
0100
,
1000
0100
0010
1001
,
1001
0010
0100
1000
0010
0100
0001
1000
,
0010
0001
0010
1000
0100
0010
0100
0001
,
0100
1000
0010
0100
0010
0001
0010
1000
,
0001
0010
1000
0010
0001
0100
0010
1000
,
0100
0001
0100
1000
0100
0010
0100
1000
,
0010
0001
0010
0100
0010
0001
0010
1000
,
0100
0010
1000
0010
0001
0100
0010
1000
,
2002
0000
0000
0000
0003
0000
0000
0000
0010
0000
0000
0000
3100
0000
0010
0100
,
0010
0000
0001
0000
0010
0000
1000
0000
0100
0000
0010
0001
0010
0000
1000
0000
,
0010
0000
0100
0000
0010
0000
1000
0000
0010
0000
0001
0100
0001
0000
1000
0000
,
0100
0000
0010
0000
0100
0000
1000
0000
0010
0000
0100
0001
0100
0000
1000
0000
,
0100
0000
0010
0000
0100
0000
1000
0000
0100
0000
0001
1000
0001
0000
0010
0000
,
0100
0000
0001
0000
0100
0000
1000
0000
0010
0000
0100
0010
0001
0000
0010
0000
,
1000
0000
0001
0000
0010
0000
1000
0000
0010
0000
0100
1000
0001
0000
0100
0000
,
0001
0000
0010
0000
1000
0000
0010
0000
1000
0000
0010
0001
0100
0000
0010
0000
,
1000
0000
0010
0100
0010
0100
0010
0100
0001
1000
0100
0010
0001
0000
0000
0000
,
0011
0000
0000
0000
1100
0000
0000
0010
1000
0000
0100
0000
0010
0000
0001
0000
,
0100
0000
0010
0000
1000
0000
0010
0000
0001
0000
0010
1000
0100
0000
0000
0000
,
1010
0000
0000
0000
0101
0000
0000
0001
1000
0000
0100
0000
0010
0000
0100
0000
,
0001
0000
0100
0000
1000
0000
0010
0000
0001
0000
0010
0100
1000
0000
0000
0000
,
1001
0000
0000
0000
0110
0000
0000
1000
0010
0000
0001
0000
0010
0000
1000
0000
,
0100
0000
0010
0000
0100
0000
0001
0000
0100
0000
1000
0001
0010
0000
0000
0000
,
0011
0000
0000
0000
1010
0000
0000
0010
0100
0000
0001
0000
1000
0000
0100
0000
,
0220
0000
0030
1000
1000
0000
0301
0000
,
1100
0000
0000
0000
0101
0000
0000
0010
0100
0000
0001
0000
0100
0000
1000
0000
,
0100
0000
1000
0000
0100
0000
0010
0000
1000
0000
0100
0001
0100
0000
0000
0000
,
1100
0000
0000
0000
1001
0000
0000
0100
0010
0000
0001
0000
0010
0000
1000
0000
,
0010
0000
0100
0000
0010
0000
1000
0000
0100
0000
0001
0100
1000
0000
0000
0000
,
0011
0000
0000
0000
0110
0000
0000
0100
1000
0000
0010
0000
0001
0000
0010
0000
,
0100
0000
0010
0000
0001
0000
0010
0000
1000
0000
0100
0010
0001
0000
0000
0000
,
0101
0000
0000
0000
1010
0000
0000
0001
1000
0000
0010
0000
0100
0000
0001
0000
,
0011
1100
1010
0101
,
1001
0000
0010
0100
0002
1000
1003
0000
,
1100
0000
0100
0010
0002
1000
1003
0000
,
0101
0000
0001
1000
0020
0100
0130
0000
,
0110
0000
0010
2000
3100
2000
3001
0000
,
0110
0000
0020
1030
1100
0000
0020
0031
,
1000
1100
0001
0101
1000
1010
0001
0011
,
0100
0000
1010
0010
1000
1100
0100
0010
,
0011
0001
1000
1001
0010
1001
0100
0000
,
1000
0000
0110
0010
0100
1100
1000
0001
,
0101
0100
0010
1001
0100
1001
0010
0000
,
1000
0000
0011
0010
0001
0101
0100
0010
,
0110
0010
1000
1001
0100
1001
0010
0000
,
0100
0000
1001
0010
1000
1100
0001
0100
,
0001
0000
0010
0100
1000
0000
0000
0000
1000
0000
0010
0100
0001
0000
0000
0000
,
1000
0000
0001
0010
0001
0000
1000
0010
2000
0000
0100
0000
3100
0000
0000
0000
,
0011
0100
1000
1001
0010
1001
0100
0000
,
0001
0000
1000
0100
1000
0000
0001
0100
0002
0000
0100
0000
0103
0000
0000
0000
,
1001
0000
1001
0000
1001
0000
0010
0100
2000
0000
0001
0000
3001
0000
0000
0000
,
0010
0000
1000
0100
1000
0000
0001
0010
0002
0000
0100
0000
0103
0000
0000
0000
,
0101
0001
1000
1001
0010
1001
0100
0000
,
1000
0000
0001
0100
0001
0000
1000
0010
2000
0000
0001
0000
3001
0000
0000
0000
,
0100
0000
0100
0000
0100
0000
0100
0000
0100
0000
0010
1000
0001
0000
0000
0000
,
1100
0000
1100
0000
1000
0010
0100
0010
,
0001
0010
0100
0010
1000
0100
0010
0001
,
0101
0000
0101
0000
0001
0010
0100
0010
,
1000
0010
0100
0010
0001
0100
0010
1000
,
1001
0000
1001
0000
0010
0001
0010
1000
,
0010
0100
0010
0001
0010
0100
1000
0001
,
1000
0100
0010
0001
1000
0100
0010
0001
,
1000
0010
0100
0001
1000
0010
0100
0001
,
0011
0000
0011
0000
1000
0100
0001
0100
,
1000
0100
0010
0100
0001
0100
1000
0001
,
0101
0000
0101
0000
0010
0001
0010
0100
,
0001
0010
1000
0010
0001
1000
0100
0010
,
0110
0000
0110
0000
0100
1000
0100
0001
,
0100
1000
0010
0001
0010
1000
0001
1000
,
0001
0010
0100
1000
0001
0010
0100
1000
,
0001
0100
0010
1000
0001
0100
0010
1000
,
1010
0000
1010
0000
1000
0100
0010
0100
,
1000
0010
0100
0001
0010
0100
1000
0001
,
0011
0000
0011
0000
0010
0100
0010
0001
,
0100
0010
0100
0001
1000
0001
1000
0100
,
1100
0000
1100
0000
1000
0001
0010
0001
,
0100
0001
0010
0100
1000
0010
1000
0001
,
1000
0100
0010
0001
1000
0100
0010
0001
,
1000
0010
0100
0001
1000
0010
0100
0001
,
0101
0000
0101
0000
0001
1000
0010
1000
,
0001
1000
0010
1000
0100
0010
0100
0010
,
0110
0000
0110
0000
0100
1000
0010
1000
,
0100
1000
0010
1000
0001
0010
0100
1000
,
1001
0000
1001
0000
0001
1000
0010
0100
,
0010
1000
0100
0010
0001
0100
0010
1000
,
0010
0000
1000
0100
1000
0000
0001
0100
,
0001
0000
1000
0010
1000
0000
0001
0010
,
0001
0100
0001
0100
1000
0100
1000
0100
,
0001
0100
1000
0100
0001
0000
0000
0000
,
0200
0000
0000
0300
,
0110
0000
0000
0000
;

//---------------dance-single - ----------------
#NOTES:
     dance-single:
     :
     Hard:
     15:
     0.832380,0.968588,0.462434,0.210197,0.159750,693.000000,638.000000,55.000000,25.000000,0.000000,0.000000,0.832380,0.968588,0.462434,0.210197,0.159750,693.000000,638.000000,55.000000,25.000000,0.000000,0.000000:
0000
0000
0000
0000
,
0000
0000
0000
0000
,
1000
0100
1000
0001
0100
0001
1000
0100
,
1000
0001
0100
0001
1000
0100
1000
0001
,
0100
0001
1000
0100
1000
0001
0100
0001
,
1000
0100
0010
0001
0010
0100
1000
0100
0010
0001
0010
0100
,
1000
0010
0100
1001
,
1001
0001
0010
0100
0010
1000
0010
0001
,
0100
1000
0100
0010
0100
0001
0100
1000
,
0100
0010
1000
0010
0001
0010
0100
0010
,
0001
0010
1000
0100
0001
0100
1000
0010
,
0001
0010
0100
0010
0001
0010
1000
0100
,
0001
0100
0010
0100
1000
0100
0010
0100
,
0010
1000
0010
0001
0010
1000
0010
0100
,
0002
0000
0000
0000
0000
0000
0000
0000
0000
0000
0000
0000
1003
0100
1000
0100
,
1000
0010
0001
0010
0100
0010
1000
0100
,
0001
0100
0010
0100
0010
0001
0010
0100
,
0001
0100
1000
0010
0001
0010
0100
0010
,
0001
0010
1000
0100
0001
0100
0010
1000
,
0010
0100
0010
1000
0010
0001
0100
1000
,
0100
0010
0100
1000
0100
0001
0010
1000
,
0010
0001
0100
1000
0100
0001
0100
0010
,
1000
0100
1000
0100
1000
0001
1000
0001
0100
0010
0100
0010
1000
0000
0000
0000
,
1100
0000
0101
0000
0010
0100
1000
0001
,
0010
1000
0010
0001
0100
1000
0100
0000
,
0101
0000
1010
0000
0010
1000
0001
0100
,
1000
0100
0010
1000
0010
0001
0010
0000
,
1010
0000
0011
0000
0100
0010
0001
1000
,
0010
0001
0010
0100
0010
1000
0100
0000
,
1100
0000
0011
0000
1000
0001
0100
0010
,
2000
0000
0000
0100
0001
0000
3010
0000
,
0110
0000
0000
0010
1000
0000
0000
1000
0100
0000
0010
0000
0001
0000
1000
0000
,
0010
0001
0010
1000
0100
0010
0001
0000
,
0110
0000
0000
0010
0001
0000
0000
0001
1000
0000
0010
0000
1000
0000
0100
0000
,
0010
0100
0001
0100
1000
0010
0100
0000
,
0101
0000
0000
0001
1000
0000
0000
1000
0010
0000
0100
0000
0010
0000
0001
0000
,
0010
1000
0100
0001
0100
1000
0010
0000
,
1010
0000
0000
1000
0100
0000
0000
0100
0010
0000
0001
0000
0100
0000
0010
0000
,
1010
0011
1100
0101
,
1001
0000
0010
0001
0200
0010
0310
0000
,
0110
0000
0010
1000
0002
0100
0103
0000
,
0011
0000
0100
1000
0002
0100
0103
0000
,
0110
0000
0010
2000
3100
2000
3001
0000
,
1001
0000
0020
0030
1001
0000
0200
0300
,
0101
0002
1003
0020
1030
0200
1300
0001
,
0010
0000
0011
0001
0100
0010
1000
0000
,
1001
0010
0100
1000
0010
1000
0100
0000
,
1000
0000
1100
1000
0010
0100
0001
0000
,
0011
0100
1000
0010
0100
0001
1000
0000
,
0010
0000
1010
1000
0100
0010
0001
0000
,
0101
0001
1000
0100
0010
0100
1000
0000
,
0001
0000
0101
1000
0001
0010
0100
0000
,
1200
0000
0000
1300
0001
0000
0000
0000
0201
0000
0000
0301
1000
0000
0000
0000
,
0010
0100
1000
0100
0001
0001
0001
0000
,
0010
0001
0010
0001
0010
0000
0100
0000
1000
0000
0001
0000
0100
0000
0000
0000
,
0010
0001
0010
1000
0100
0100
0100
0000
,
1000
0010
1000
0010
1000
0000
0100
0000
0010
0000
0001
0000
1000
0000
0000
0000
,
0100
1000
0100
0001
0010
0010
0010
0000
,
0001
0100
0001
0100
0001
0000
1000
0000
0010
0000
0100
0000
0001
0000
0000
0000
,
1000
0001
1000
0001
0010
0001
0010
0001
0100
0010
0100
0010
0100
0000
0000
0000
,
0101
1100
0011
1010
,
1001
0000
1001
0000
1000
0001
0010
0100
,
0000
1000
0000
0001
1000
0010
0100
0001
,
0010
0000
0110
0000
0100
1000
0001
0100
,
0000
0010
0000
1000
0010
1000
0100
0010
,
0001
0000
0101
0000
1000
0001
0010
0100
,
0000
1000
0000
0010
1000
0001
0010
0100
,
2000
0000
3010
0100
0002
0000
0013
0100
,
1000
0001
0100
0010
1000
0001
0100
0000
,
0110
0000
0110
0000
0010
0100
0001
1000
,
0000
0010
0000
0100
0010
1000
0001
0010
,
0100
0000
1100
0000
1000
0010
1000
0001
,
0000
0010
0000
0100
1000
0001
1000
0010
,
0100
0000
0101
0000
0001
0010
0100
1000
,
0000
0001
0000
0100
0001
1000
0010
0100
,
0002
0000
0013
0100
2000
0000
3010
0100
,
0001
0010
1000
0010
0100
0010
0001
0000
,
0101
0000
0101
0000
1000
0001
0010
0100
,
0000
1000
0000
0010
0100
0001
0010
0100
,
1000
0000
1010
0000
1000
0001
0010
0100
,
0000
0010
0000
0100
1000
0001
0100
0010
,
1000
0000
1001
0000
0001
0010
0001
0100
,
0000
0010
0000
1000
0100
0010
0001
0100
,
0002
0000
0103
0010
2000
0000
3001
1000
,
0010
0001
0010
0100
0010
1000
0010
0000
,
1100
0000
1100
0000
1000
0001
1000
0010
,
0000
0100
0000
0001
0010
0100
1000
0010
,
1000
0000
0101
0000
0001
1000
0010
0100
,
0000
0001
0000
1000
0001
1000
0100
0010
,
0001
0000
1010
0000
0010
1000
0001
0100
,
0000
0001
0000
1000
0010
1000
0001
0100
,
0020
0000
1030
0001
0200
0000
0301
1000
,
0002
0000
0013
0100
2000
0000
3010
1000
,
0001
1000
0001
1000
0010
0100
0010
0100
,
0001
0010
0100
1000
0010
0000
0000
0000
,
0200
0000
0000
0300
,
0110
0000
0000
0000
;

//---------------dance-single - ----------------
#NOTES:
     dance-single:
     :
     Medium:
     12:
     0.564529,0.645725,0.496065,0.386763,0.000000,470.000000,411.000000,59.000000,46.000000,0.000000,0.000000,0.564529,0.645725,0.496065,0.386763,0.000000,470.000000,411.000000,59.000000,46.000000,0.000000,0.000000:
0000
0000
0000
0000
,
0000
0000
0000
0000
,
1000
0100
1000
0000
0001
0100
0001
0000
,
1000
0010
1000
0000
0001
0010
0001
0000
,
0100
0010
0100
0000
0001
1000
0001
0000
,
1100
0101
1100
0101
,
1000
0001
0100
1001
,
1001
0000
0100
0010
1000
0001
0100
0000
,
0101
0000
0010
1000
0001
1000
0100
0000
,
0110
0000
0100
1000
0010
0100
0001
0000
,
0011
0000
0001
1000
0010
1000
0100
0000
,
1100
0000
1000
0010
1000
0001
0100
0000
,
1010
0000
0010
1000
0100
0010
0001
0000
,
0101
0000
0001
1000
0010
1000
0100
0000
,
0120
1000
0001
0130
,
1100
0000
0001
1000
0010
0100
0001
0000
,
0011
0000
0010
0100
1000
0001
0100
0000
,
1001
0000
1000
0001
0010
0100
1000
0000
,
1010
0000
0100
0001
1000
0100
0010
0000
,
0110
0000
0100
0010
0001
0100
0010
0000
,
1001
0000
1000
0001
0010
0100
1000
0000
,
0011
0000
0010
0100
1000
0001
1000
0000
,
1000
0001
0100
0001
0010
0100
1000
0000
,
1100
0000
0101
0000
0001
2000
0000
3001
,
0000
0010
0000
0100
2000
0000
3001
0000
,
0011
0000
1010
0000
1000
0020
0000
0130
,
0000
0001
0000
0010
0200
0000
1300
0000
,
1100
0000
0011
0000
0001
0200
0000
0310
,
0000
0100
0000
0001
2000
0000
3100
0000
,
1010
0000
0101
0000
0001
0020
0000
0032
,
0000
0000
0000
0100
0100
0000
1003
0000
,
0011
0000
0101
0000
0010
2000
0000
3100
,
0000
0010
0000
0001
0200
0000
0310
0000
,
1010
0000
1100
0000
1000
0002
0000
0013
,
0000
0100
0000
1000
0002
0000
0013
0000
,
0110
0000
1001
0000
1000
0020
0000
0130
,
0000
0010
0000
1000
0002
0000
0103
0000
,
1001
0000
0110
0000
0010
2000
0000
3001
,
1000
1100
0001
0101
,
1001
0000
0000
2000
0002
0000
3003
0000
,
0110
0000
0000
0200
0020
0000
0330
0000
,
1010
0000
0000
2000
0020
0000
3030
0000
,
0101
0000
0000
0002
1003
0200
0310
0000
,
0001
0011
1000
1010
,
0001
0101
1000
1100
,
0010
0000
1010
0000
0000
0101
0000
0000
,
2100
0000
0000
0001
0000
3001
0000
0000
,
1000
0000
1100
0000
0000
0011
0000
0000
,
0102
0000
0000
0010
0000
0013
0000
0000
,
0100
0000
0110
0000
0000
1100
0000
0000
,
2001
0000
0000
0010
0000
3010
0000
0000
,
0010
0000
1010
0000
0000
1001
0000
0000
,
0102
2003
3020
0230
,
0301
0000
0001
0000
1000
0100
1000
0000
,
0010
0100
0010
1000
0100
0010
0001
0000
,
0100
0000
0100
0000
0001
0010
0001
0000
,
0010
0001
0100
0001
1000
0100
0010
0000
,
0100
0000
0100
0000
1000
0010
1000
0000
,
0001
1000
0010
1000
0100
0010
0001
0000
,
1000
0000
1000
0000
0001
0010
0001
0000
,
0100
0010
0100
0010
0100
0000
0000
0000
,
1000
0000
1000
0000
0001
1000
0000
0000
,
0000
0000
0000
0000
0010
0100
0010
0100
,
0001
0000
0001
0000
1000
0001
0000
0000
,
0000
0000
0000
0000
0100
0010
0100
0010
,
1000
0000
1000
0000
0010
1000
0000
0000
,
0000
0000
0000
0000
0001
0100
0001
0100
,
0002
0003
2000
3000
,
0010
0100
0020
0030
,
0100
0000
0100
0000
0001
0100
0000
0000
,
0000
0000
0000
0000
0010
1000
0010
1000
,
0001
0000
0001
0000
0010
0001
0000
0000
,
0000
0000
0000
0000
1000
0100
1000
0100
,
1000
0000
1000
0000
0100
1000
0000
0000
,
0000
0000
0000
0000
0001
0010
0001
0010
,
0200
0300
0020
0030
,
0001
1000
0002
0003
,
0100
0000
0100
0000
0001
1000
0000
0000
,
0000
0000
0000
0000
0010
1000
0010
1000
,
0001
0000
0001
0000
0010
0100
0000
0000
,
0000
0000
0000
0000
1000
0010
1000
0010
,
0100
0000
0100
0000
0010
1000
0000
0000
,
0000
0000
0000
0000
0001
0010
0001
0010
,
0002
0003
0200
0300
,
0010
1000
0200
0300
,
0010
0000
0010
0000
0001
1000
0000
0000
,
0000
0000
0000
0000
0100
0010
0100
0010
,
0100
0000
0100
0000
1000
0001
0000
0000
,
0000
0000
0000
0000
0010
0001
0010
0001
,
0100
0000
0100
0000
0001
0010
0000
0000
,
0000
0000
0000
0000
0001
1000
0001
1000
,
0002
0003
2000
3000
,
0020
0030
0200
0300
,
0001
0010
0100
1000
,
0010
0100
0010
0100
0020
0000
0030
0000
,
0200
0000
0000
0300
,
0110
0000
0000
0000
;

//---------------dance-single - ----------------
#NOTES:
     dance-single:
     :
     Easy:
     8:
     0.379556,0.443936,0.243829,0.109302,0.000000,316.000000,287.000000,29.000000,13.000000,0.000000,0.000000,0.379556,0.443936,0.243829,0.109302,0.000000,316.000000,287.000000,29.000000,13.000000,0.000000,0.000000:
0000
0000
0000
0000
,
0000
0000
0000
0000
,
1000
0000
0000
0100
0000
0000
0010
0000
,
0000
0001
0000
0000
1000
0000
0000
0100
,
0000
0000
0010
0000
0000
0001
0000
0000
,
2000
3200
0320
0032
,
1003
1000
1000
1001
,
1001
0001
0010
0100
,
1000
0010
1000
0001
,
0100
0010
0100
0001
,
0010
0100
1000
0010
,
1000
0001
0010
0100
,
1000
0010
1000
0001
,
0010
0001
0100
0001
,
2000
0000
0000
0000
0000
0000
3010
0100
,
0010
1000
0100
0010
,
0001
1000
0010
1000
,
0100
1000
0010
0100
,
0001
0010
0100
0010
,
0100
0010
0001
0100
,
0010
1000
0001
1000
,
0100
1000
0010
0100
,
0001
0000
0001
0000
0001
1000
0001
0000
,
1000
0000
1100
0000
0000
0001
0000
0100
,
0000
0000
0000
0001
0010
0000
0100
0000
,
1000
0000
1010
0000
0000
0010
0000
0100
,
0000
0000
0000
0100
0001
0000
1000
0000
,
0001
0000
0101
0000
0000
1000
0000
0010
,
0000
0000
0000
0100
0010
0000
1000
0000
,
0001
0000
0011
0000
0000
0010
0000
0100
,
0000
0000
0000
1000
0010
0000
0100
0000
,
0101
0000
1100
0000
0000
1000
0000
0001
,
0000
0000
0000
1000
0010
0000
0100
0000
,
0101
0000
1010
0000
0000
0010
0000
0100
,
0000
0000
0000
0001
1000
0000
0010
0000
,
1010
0000
0011
0000
0000
0001
0000
0100
,
0000
0000
0000
0010
1000
0000
0001
0000
,
0011
0000
1100
0000
0000
0010
0000
0100
,
0002
0023
0230
2300
,
3010
0000
1001
0000
,
0100
0000
1001
0000
,
0010
0000
1001
0000
,
0100
0000
0000
1001
0000
0110
0000
0000
,
1000
1000
0001
0001
,
0100
0010
0100
0010
,
0000
0000
1000
0000
0000
1000
0000
0000
,
1000
0000
0000
0001
0000
0100
0000
0000
,
0000
0000
0001
0000
0000
0001
0000
0000
,
0001
0000
0000
0100
0000
0010
0000
0000
,
0000
0000
0100
0000
0000
0100
0000
0000
,
0100
0000
0000
0010
0000
1000
0000
0000
,
0000
0000
0010
0000
0000
0010
0000
0000
,
0020
2030
3002
0203
,
0301
0000
0001
0000
1000
0001
1000
0000
,
0000
0000
0000
0000
,
0010
0000
0010
0000
0100
0010
0100
0000
,
0001
0010
0001
0000
1001
0000
0000
0000
,
1000
0000
1000
0000
0001
0100
0001
0000
,
0000
0000
0000
0000
,
0100
0000
0100
0000
0010
1000
0010
0000
,
1000
0100
1000
0100
1000
0000
0000
0000
,
0001
0001
0001
0000
,
0000
0000
0010
0100
,
1000
1000
1000
0000
,
0000
0000
0001
1000
,
0010
0010
0010
0000
,
0000
0000
1000
0100
,
1000
0000
0001
0000
,
1001
0000
0110
0000
,
0010
0010
0010
0000
,
0000
0000
1000
0001
,
0100
0100
0100
0000
,
0000
0000
0010
0100
,
0001
0001
0001
0000
,
0000
0000
1000
0010
,
0100
0000
0010
0000
,
0110
0000
1001
0000
,
1000
0001
0100
0000
,
0000
0000
0010
0100
,
0001
0010
0100
0000
,
0000
0000
1000
0001
,
1000
0010
0100
0000
,
0000
0000
0001
1000
,
0001
0000
1000
0000
,
0110
0000
1001
0000
,
0010
1000
0001
0000
,
0000
0000
1000
0100
,
1000
0001
0100
0000
,
0000
0000
0010
0100
,
0010
1000
0100
0000
,
0000
0000
0010
0001
,
0100
0000
0010
0000
,
1001
0000
0110
0000
,
1000
0000
0001
0000
,
1000
0001
1000
0000
,
0100
0000
0000
0000
,
0110
0000
0000
0000
;

//---------------dance-single - ----------------
#NOTES:
     dance-single:
     :
     Beginner:
     5:
     0.189778,0.282505,0.042039,0.000000,0.000000,158.000000,153.000000,5.000000,0.000000,0.000000,0.000000,0.189778,0.282505,0.042039,0.000000,0.000000,158.000000,153.000000,5.000000,0.000000,0.000000,0.000000:
// measure 0
0000
0000
0000
0000
,  // measure 1
0000
0000
0000
0000
,  // measure 2
1000
0000
1000
0000
,  // measure 3
0001
0000
0001
0000
,  // measure 4
0100
0000
0100
0000
,  // measure 5
0010
0000
0010
0000
,  // measure 6
1000
0000
0000
0000
,  // measure 7
0001
0001
0000
0000
,  // measure 8
0100
0100
0000
0000
,  // measure 9
0010
0010
0000
0000
,  // measure 10
1000
1000
0000
0000
,  // measure 11
0100
0100
0000
0000
,  // measure 12
0010
0010
0000
0000
,  // measure 13
0001
0001
0000
0000
,  // measure 14
1000
1000
0000
0000
,  // measure 15
0010
0010
0000
0000
,  // measure 16
1000
1000
0000
0000
,  // measure 17
0001
0001
0000
0000
,  // measure 18
0100
0100
0000
0000
,  // measure 19
1000
1000
0000
0000
,  // measure 20
0010
0010
0000
0000
,  // measure 21
0100
0100
0000
0000
,  // measure 22
0001
0001
0000
0000
,  // measure 23
1000
1000
0000
0000
,  // measure 24
0001
0000
0100
0000
,  // measure 25
0001
0001
0000
0000
,  // measure 26
1000
0000
0010
0000
,  // measure 27
1000
1000
0000
0000
,  // measure 28
0100
0000
0010
0000
,  // measure 29
0001
0001
0000
0000
,  // measure 30
1000
0000
0010
0000
,  // measure 31
0100
0100
0000
0000
,  // measure 32
0001
0000
1000
0000
,  // measure 33
0010
0010
0000
0000
,  // measure 34
1000
0000
0001
0000
,  // measure 35
0100
0100
0000
0000
,  // measure 36
0010
0000
0100
0000
,  // measure 37
0010
0010
0000
0000
,  // measure 38
1000
0000
0001
0000
,  // measure 39
1001
0000
0000
0000
,  // measure 40
1001
0000
0000
0000
,  // measure 41
0110
0000
0000
0000
,  // measure 42
0110
0000
0000
0000
,  // measure 43
1000
0000
1000
0000
,  // measure 44
0001
0000
0001
0000
,  // measure 45
1000
0000
1000
0000
,  // measure 46
1000
0000
0000
0000
,  // measure 47
0001
0000
0001
0000
,  // measure 48
0001
0000
0000
0000
,  // measure 49
0100
0000
0100
0000
,  // measure 50
0100
0000
0000
0000
,  // measure 51
0010
0000
0010
0000
,  // measure 52
0010
0000
0000
0000
,  // measure 53
1000
1000
1000
1000
,  // measure 54
0000
0000
0000
0000
,  // measure 55
0010
0000
0010
0000
,  // measure 56
0100
0100
0100
0000
,  // measure 57
0001
0001
0001
0001
,  // measure 58
0000
0000
0000
0000
,  // measure 59
0100
0000
0100
0000
,  // measure 60
0010
0010
0010
0000
,  // measure 61
1000
0000
1000
0000
,  // measure 62
0000
0000
0000
0000
,  // measure 63
0001
0000
0001
0000
,  // measure 64
0000
0000
0000
0000
,  // measure 65
1000
0000
1000
0000
,  // measure 66
0000
0000
0000
0000
,  // measure 67
0010
0000
0100
0000
,  // measure 68
0010
0000
0100
0000
,  // measure 69
0010
0000
0010
0000
,  // measure 70
0000
0000
0000
0000
,  // measure 71
0100
0000
0100
0000
,  // measure 72
0000
0000
0000
0000
,  // measure 73
0010
0000
0010
0000
,  // measure 74
0000
0000
0000
0000
,  // measure 75
1000
0000
0001
0000
,  // measure 76
1000
0000
0001
0000
,  // measure 77
0100
0000
0100
0000
,  // measure 78
0000
0000
0000
0000
,  // measure 79
0010
0000
0010
0000
,  // measure 80
0000
0000
0000
0000
,  // measure 81
0100
0000
0100
0000
,  // measure 82
0000
0000
0000
0000
,  // measure 83
0001
0000
1000
0000
,  // measure 84
0001
0000
1000
0000
,  // measure 85
0001
0000
0001
0000
,  // measure 86
0000
0000
0000
0000
,  // measure 87
1000
0000
1000
0000
,  // measure 88
0000
0000
0000
0000
,  // measure 89
0001
0000
0001
0000
,  // measure 90
0000
0000
0000
0000
,  // measure 91
1000
0000
0000
0000
,  // measure 92
0010
0000
0000
0000
,  // measure 93
0100
0000
0000
0000
,  // measure 94
0001
0000
0000
0000
,  // measure 95
0100
0000
0000
0000
,  // measure 96
0110
0000
0000
0000
;
