#VERSION:0.83;
#TITLE:Vanquish The Ghost;
#SUBTITLE:;
#ARTIST:BEMANI Sound Team "TAG";
#TITLETRANSLIT:;
#SUBTITLETRANSLIT:;
#ARTISTTRANSLIT:;
#GENRE:;
#ORIGIN:;
#CREDIT:;
#BANNER:Vanquish The Ghost-bn.png;
#BACKGROUND:Vanquish The Ghost-bg.png;
#PREVIEWVID:;
#JACKET:Vanquish The Ghost-jacket.png;
#CDIMAGE:;
#DISCIMAGE:;
#LYRICSPATH:;
#CDTITLE:;
#MUSIC:Vanquish The Ghost.ogg;
#OFFSET:0.000000;
#SAMPLESTART:63.484001;
#SAMPLELENGTH:20.000000;
#SELECTABLE:YES;
#DISPLAYBPM:78.000000:155.000000;
#BPMS:0.000=155.000,
96.000=310.000,
99.000=155.000,
100.000=77.500,
116.000=155.000,
132.000=77.500,
140.000=155.000,
172.000=77.500,
188.000=155.000;
#STOPS:96.000=0.194,
97.000=0.194,
98.000=0.194;
#DELAYS:;
#WARPS:;
#TIMESIGNATURES:0.000=4=4;
#TICKCOUNTS:0.000=4;
#COMBOS:0.000=1;
#SPEEDS:0.000=1.000=0.000=0;
#SCROLLS:0.000=1.000;
#FAKES:;
#LABELS:0.000=Song Start;
#BGCHANGES:;
#KEYSOUNDS:;
#ATTACKS:
;

//---------------dance-single - ----------------
#NOTEDATA:;
#CHARTNAME:;
#STEPSTYPE:dance-single;
#DESCRIPTION:;
#CHARTSTYLE:;
#DIFFICULTY:Beginner;
#METER:3;
#RADARVALUES:0.152838,0.238552,0.028915,0.067469,0.000000,111.000000,108.000000,3.000000,7.000000,0.000000,0.000000,0.000000,0.000000,0.000000,0.152838,0.238552,0.028915,0.067469,0.000000,111.000000,108.000000,3.000000,7.000000,0.000000,0.000000,0.000000,0.000000,0.000000;
#CREDIT:;
#DISPLAYBPM:78.000000:155.000000;
#NOTES:
0000
0000
0000
0000
,
0000
0000
0000
0000
,
0000
0000
0000
0000
,
0000
0000
0000
0000
,
0000
0000
0000
0000
,
1000
0000
0010
0000
,
0001
0000
0010
0000
,
1000
1000
1000
1000
,
0000
0000
0000
1001
,
0000
0000
0000
0000
,
0000
0000
0000
0000
,
0000
0000
0000
0000
,
0000
0000
0000
0000
,
0200
0000
0000
0300
,
0000
0000
0000
0000
,
0020
0000
0000
0030
,
0000
0000
0000
0000
,
1000
0000
1000
0000
,
0010
0000
0010
0000
,
0001
0000
0001
0000
,
0100
0000
0100
0000
,
1000
1000
1000
0000
,
0010
0010
0010
0000
,
0001
0001
0001
0000
,
0200
0000
0300
0000
,
0010
0000
1000
0000
,
0010
0000
0001
0000
,
0100
0000
1000
0000
,
0100
0000
0001
0000
,
2000
0000
3000
0000
,
0010
0010
0010
0000
,
0002
0000
0003
0000
,
0010
0010
0010
0000
,
1000
0000
0100
0000
,
0001
0000
0010
0000
,
0001
0001
0001
0000
,
0010
0010
0010
0000
,
1000
1000
1000
0000
,
0010
0010
0010
0000
,
0001
0001
0001
0000
,
1000
1000
1000
0000
,
0010
0010
0010
0000
,
2002
0000
3003
0000
,
0001
0000
0100
0000
,
1000
0000
0010
0000
,
0001
0000
1000
0000
,
0001
0000
1000
0000
,
0001
0001
0001
0001
,
0001
0001
0001
0000
,
1000
1000
1000
1000
,
1000
1000
1000
0000
,
0010
0010
0010
0010
,
0010
0010
0010
0000
,
0100
0100
0100
0100
,
0100
0100
0100
0000
,
1001
0000
0000
0000
;

//---------------dance-single - ----------------
#NOTEDATA:;
#CHARTNAME:;
#STEPSTYPE:dance-single;
#DESCRIPTION:;
#CHARTSTYLE:;
#DIFFICULTY:Easy;
#METER:8;
#RADARVALUES:0.370392,0.556621,0.221685,0.231323,0.043373,269.000000,246.000000,23.000000,24.000000,0.000000,0.000000,0.000000,0.000000,0.000000,0.370392,0.556621,0.221685,0.231323,0.043373,269.000000,246.000000,23.000000,24.000000,0.000000,0.000000,0.000000,0.000000,0.000000;
#CREDIT:;
#DISPLAYBPM:78.000000:155.000000;
#NOTES:
0000
0000
0000
0000
,
0000
0000
0000
0000
,
0000
0000
0000
0000
,
0000
0000
0000
0000
,
0000
0000
0000
0000
,
0100
0001
0010
1000
,
0100
0001
0010
1000
,
0100
0010
0001
0000
0100
0010
1000
0000
,
0100
0100
0100
1001
,
1000
0010
0100
0002
,
0000
0003
0010
0010
,
0001
0010
0100
2000
,
0000
3000
0100
0100
,
0010
1000
0100
0002
,
0000
0003
1000
1000
,
0010
0001
0100
2000
,
0000
0000
0000
3000
,
0001
0001
0010
0010
,
0100
0000
0100
0000
1000
0001
0100
0000
,
1000
1000
0010
0010
,
0100
0000
0100
0000
0001
1000
0100
0000
,
1000
0010
1000
0000
0001
0010
0001
0000
,
1000
0100
1000
0000
0001
0100
0001
0000
,
1000
0010
0001
0100
,
0002
0003
0000
0000
0000
0000
0000
0000
0000
0000
0000
0000
0000
0000
0000
0000
2000
3000
0000
0000
0000
0000
0000
0000
0000
0000
0000
0000
0000
0000
0000
0000
0002
0003
0000
0000
0000
0000
0000
0000
0000
0000
0000
0000
0000
0000
0000
0000
1001
0000
0000
0000
0000
0000
0000
0000
0000
0000
0000
0000
0000
0000
0000
0000
,
0010
0000
0010
0000
1000
0100
0001
0000
0010
0000
0010
0000
0001
0100
1000
0000
,
0010
0000
0010
0000
1000
0100
0001
0000
2000
0000
3200
0000
0320
0000
0032
0000
,
1003
0000
1000
0000
0001
0100
0010
0000
1000
0000
1000
0000
0010
0100
0001
0000
,
1000
0000
1000
0000
0100
0010
0001
0000
0100
0000
0010
0000
0100
0000
1001
0000
,
0001
0000
0010
0000
0100
1000
0010
0000
,
0100
0000
0100
0000
0010
0100
0010
0000
,
1000
0000
0100
0000
0010
0001
0100
0000
,
0002
0203
0320
2030
,
3001
0000
0100
0000
0010
0010
0010
0000
1000
0000
0100
0000
0010
0010
0010
0000
,
0001
0000
0100
0000
0010
0010
0010
0000
2000
0000
0000
0000
3000
0000
0110
0000
,
0001
0000
0100
0000
0010
1000
0100
0000
,
0012
1000
0010
1003
,
1000
0000
0100
0000
0010
0001
0100
0000
,
2010
0001
0010
3001
,
1000
0100
1000
0000
0001
0100
0001
0000
,
2000
0010
0001
3100
,
0001
0010
0010
0000
1000
0010
0010
0000
,
0200
0000
0300
1001
,
0010
0001
1000
0000
0000
0001
0100
0010
,
1000
0001
0100
0000
0000
1000
0100
0010
,
0001
1000
0001
0000
0000
0010
0001
1000
,
0100
0010
0100
0000
0010
0001
1000
0010
,
1020
1000
1000
1030
,
0101
1010
0101
1010
,
0021
0001
0001
0031
,
1100
0011
1100
0011
,
2001
0001
0001
3001
,
0110
1001
0110
1001
,
1000
0100
0010
0000
0001
0100
0010
0000
,
0200
0000
0000
0310
,
1001
0000
0000
0000
;

//---------------dance-single - ----------------
#NOTEDATA:;
#CHARTNAME:;
#STEPSTYPE:dance-single;
#DESCRIPTION:;
#CHARTSTYLE:;
#DIFFICULTY:Medium;
#METER:12;
#RADARVALUES:0.537000,0.874690,0.289154,0.308431,0.351804,390.000000,360.000000,30.000000,32.000000,0.000000,0.000000,0.000000,0.000000,0.000000,0.537000,0.874690,0.289154,0.308431,0.351804,390.000000,360.000000,30.000000,32.000000,0.000000,0.000000,0.000000,0.000000,0.000000;
#CREDIT:;
#DISPLAYBPM:78.000000:155.000000;
#NOTES:
0000
0000
0000
0000
,
0000
0000
0000
0000
,
0000
0000
0000
0000
,
0000
0000
0000
0000
,
0000
0000
0000
0000
,
0010
0001
0100
1000
,
0010
0001
0100
1000
,
0010
0001
0100
1000
0010
0001
0100
1000
,
0010
0000
0010
0000
0100
0010
1001
0000
,
0010
0000
0000
0010
0000
0000
1000
0000
0000
1000
0000
0000
0200
0000
0000
0000
,
0000
0000
0300
0000
0010
0001
0100
0000
,
0010
0000
0000
0010
0000
0000
0100
0000
0000
0100
0000
0000
0002
0000
0000
0000
,
0000
0000
0003
0000
1000
0100
0001
0000
,
0100
0000
0000
0100
0000
0000
1000
0000
0000
1000
0000
0000
0002
0000
0000
0000
,
0000
0000
0003
0000
1000
0010
0001
0000
,
0010
0000
0000
0010
0000
0000
1000
0000
0000
1000
0000
0000
0002
0000
0000
0000
,
0000
0000
0000
0003
,
1000
1000
0010
0010
,
0001
0000
0001
0000
1000
0100
0010
0001
,
0100
0100
1000
1000
,
0010
0000
0010
0000
1000
0010
0100
0001
,
1000
0100
1000
0100
0010
0100
0010
0100
,
0001
0100
0001
0100
0010
0100
0010
0100
,
1000
0100
0010
0001
0100
0010
1000
0100
,
0220
0330
0000
0000
0000
0000
0000
0000
0000
0000
0000
0000
0000
0000
0000
0000
2002
3003
0000
0000
0000
0000
0000
0000
0000
0000
0000
0000
0000
0000
0000
0000
0220
0330
0000
0000
0000
0000
0000
0000
0000
0000
0000
0000
0000
0000
0000
0000
2000
0000
0000
0000
0000
0000
0000
0000
0000
0000
0000
0000
0000
0000
0000
0000
,
3100
0010
0001
0010
0001
0010
0001
0001
0100
0010
1000
0010
1000
0010
1000
0000
,
1100
0010
0001
0010
0001
0010
0001
0001
2000
3020
0230
0302
2003
0000
3001
0000
,
0011
0100
1000
0100
1000
0100
1000
1000
0010
0100
0001
0100
0010
0100
0001
0000
,
0011
0100
1000
0100
1000
0100
1000
1000
0002
0000
0203
0000
0320
2030
3001
0000
,
1100
0100
0010
0001
0100
0010
1000
0001
,
0000
0000
1000
0000
0010
0000
0100
0010
0000
0010
0000
0010
1000
0000
0010
0000
,
1010
0100
0010
0001
0100
0010
1000
0001
,
2000
3020
0230
0320
2030
0000
3001
0000
,
1001
0100
0001
0100
1000
0100
0001
0001
1001
0010
0001
0010
1000
0010
0001
0000
,
1001
0000
0100
0000
1000
0000
0100
0000
0001
0000
0100
0000
1000
0000
1000
0000
0100
0000
0000
0100
0000
0000
0001
0000
0000
0001
0000
0000
1001
0000
0000
0000
,
1000
0000
0000
0100
0010
0000
0001
0000
0000
0100
0010
0000
1001
0000
0000
0000
,
1000
0010
0100
0010
1000
2000
3100
0200
,
0310
0000
0000
0001
1000
0000
0010
0000
0000
1000
0001
0000
0011
0000
0000
0000
,
1000
0100
0001
0100
1000
2000
3001
0002
,
0013
0000
0000
0100
1000
0000
0010
0000
0000
0100
0001
0000
1001
0000
0000
0000
,
0010
0001
1000
0001
0010
0020
0130
0200
,
0310
0000
0000
0001
1000
0000
0010
0000
0000
0100
0001
0000
1002
0000
0000
0000
,
0000
0000
0000
0013
,
0110
0000
0000
0100
1100
0000
0000
0000
0000
0010
1000
0001
0010
0000
0100
1000
,
0001
0000
0000
0100
0110
0000
0000
0000
0000
1000
0010
0100
0001
0000
1000
0100
,
0001
0000
0000
0100
1100
0000
0000
0000
0000
0001
0100
0010
1000
0000
0001
1000
,
0010
0000
0000
0100
0110
0000
0000
0000
1000
0000
0010
0000
0001
0000
0110
0000
,
0001
0100
0001
0100
0001
0100
0010
1000
,
0001
0100
0010
1000
0001
0100
0110
0000
,
1000
0100
1000
0100
1000
0100
0010
0001
,
1000
0100
0010
0001
1000
0100
0110
0000
,
0101
0010
0100
0010
0100
0010
0100
0010
,
1100
0010
0100
0010
0100
0010
1001
0000
,
1010
0001
1000
0001
1000
0001
1000
0001
,
0010
0000
0000
0010
0000
0000
0100
0000
0000
0100
0000
0000
1000
0000
0001
0000
,
1001
0000
0000
0000
;

//---------------dance-single - ----------------
#NOTEDATA:;
#CHARTNAME:;
#STEPSTYPE:dance-single;
#DESCRIPTION:;
#CHARTSTYLE:;
#DIFFICULTY:Hard;
#METER:16;
#RADARVALUES:0.776585,1.272277,0.375900,0.260238,1.016858,564.000000,525.000000,39.000000,27.000000,0.000000,0.000000,0.000000,0.000000,0.000000,0.776585,1.272277,0.375900,0.260238,1.016858,564.000000,525.000000,39.000000,27.000000,0.000000,0.000000,0.000000,0.000000,0.000000;
#CREDIT:;
#DISPLAYBPM:78.000000:155.000000;
#NOTES:
0000
0000
0000
0000
,
0000
0000
0000
0000
,
0000
0000
0000
0000
,
0000
0000
0000
0000
,
0000
0000
0000
0000
,
0010
1000
0100
0010
0001
0100
0010
1000
,
0010
0100
0001
0010
0100
1000
0010
0100
,
0001
0100
0001
0100
0010
0100
0010
0100
0010
1000
0010
1000
0001
1000
0001
1000
,
0000
0000
0100
0010
0001
0000
1000
0000
0010
0000
1000
0000
1001
0000
0000
0000
,
0010
0000
0000
0010
0000
0000
0001
0000
0000
0002
0000
0000
2000
0000
0000
0000
,
0000
0000
3003
0000
0001
0100
1000
0100
,
0001
0000
0000
0001
0000
0000
0010
0000
0000
0020
0000
0000
0200
0000
0000
0000
,
0000
0000
0330
0000
1000
0010
0001
0010
,
1000
0000
0000
1000
0000
0000
0001
0000
0000
0002
0000
0000
0200
0000
0000
0000
,
0000
0000
0303
0000
0001
0010
1000
0010
,
0001
0000
0000
0001
0000
0000
0100
0000
0000
0100
0000
0000
0010
0000
1000
0010
,
1000
0001
0000
0100
0000
0010
0000
1000
0000
0000
0100
0000
0010
0000
0001
0000
,
0100
0100
1000
1000
,
0010
0000
0000
0000
0010
0000
0000
0000
0001
0000
1000
0000
0100
0000
1000
0001
,
1000
1000
0010
0010
,
0001
0000
0000
0000
0001
0000
0000
0000
0100
0000
0001
0000
1000
0000
0001
0100
,
0001
0001
0100
0100
0010
0010
1000
1000
,
0100
0100
0010
0010
0001
0001
1000
1000
,
0010
1000
0100
0010
0001
0100
0010
1000
0100
0010
0001
0100
0010
1000
0100
0010
,
0002
0003
0000
0000
0000
0000
0000
0000
0000
0000
0000
0000
0000
0000
0000
0000
2200
3300
0000
0000
0000
0000
0000
0000
0000
0000
0000
0000
0000
0000
0000
0000
0022
0033
0000
0000
0000
0000
0000
0000
0000
0000
0000
0000
0000
0000
0000
0000
1001
0000
0000
0000
0000
0000
0000
0000
0000
0000
0000
0000
0000
0000
0000
0000
,
0110
0000
1000
0001
0100
0001
1000
0001
0100
0001
1000
0001
0010
0000
0100
0000
0110
0000
1000
0100
0001
0100
1000
0000
0001
0100
1000
0100
0001
0000
0000
0000
,
0110
0000
0001
1000
0100
1000
0001
1000
0100
1000
0001
1000
0010
0000
0100
0000
0002
0000
0023
0000
0230
0000
2300
0000
3002
0000
0000
0000
1003
0000
0000
0000
,
0110
0000
1000
0001
0010
0001
1000
0001
0010
0001
1000
0001
0100
0000
0010
0000
0110
0000
1000
0010
0001
0010
1000
0000
0001
0010
1000
0010
0001
0000
0000
0000
,
0110
0000
0001
1000
0010
1000
0001
1000
0010
1000
0001
1000
0100
0000
0010
0000
0002
0000
0000
0000
0203
0000
0000
0000
0320
0000
2030
0000
3020
0000
0130
0000
,
0110
0000
0001
1000
0010
0100
0001
1000
0010
0100
0001
1000
0001
0000
1001
0000
,
0000
0000
1000
0000
0100
0000
0010
0001
0000
1001
0000
0001
0010
0000
0100
0000
,
0110
0000
0001
1000
0010
0100
0001
1000
0010
0100
0001
1000
0001
0000
1001
0000
,
2000
3020
0032
2003
3200
0000
0301
0000
,
1001
0000
0010
0001
0100
0001
0010
0001
0100
0001
0010
0001
0100
0000
0010
0000
0110
0000
0001
0100
0010
1000
0100
0000
0001
0100
0010
1000
0100
0000
0000
0000
,
1001
0000
0010
1000
0100
1000
0010
1000
0100
1000
0010
1000
0100
0000
0010
0000
0001
0000
0000
0101
0000
0000
1000
0000
0000
1100
0000
0000
0010
0000
0000
0000
,
0001
0000
1000
0100
0010
0000
0011
0000
0010
0100
1000
0000
1001
0000
1000
0000
,
0001
0100
0010
0000
1000
0100
0010
0000
0001
0000
0100
0000
1000
0000
0100
0000
,
0010
0000
1000
0001
0010
0000
0110
0000
1000
0001
0100
0000
0101
0000
0010
0000
,
1000
0010
0100
0000
0001
0100
0010
0000
1000
0000
0010
0000
0001
0000
0010
0000
,
1000
0000
0100
0010
0100
0000
1001
0000
0100
0010
0100
0000
1001
0000
0100
0000
,
0010
0001
0100
0000
0010
1000
0100
0000
0010
0000
0001
0000
0100
0000
1000
0000
,
0010
0000
1000
0001
0100
0000
0110
0000
0100
0001
1000
0000
0002
0000
0000
0000
,
0000
0000
0000
1003
,
0110
0000
0000
0000
0000
0000
0001
0100
0010
0000
0000
0000
0000
0000
0000
0000
0000
0000
1000
0100
0010
0001
0010
0100
1000
0000
0000
0000
0001
0000
1000
0001
,
0100
0000
0000
0000
0000
0000
0010
1000
0100
0000
0000
0000
0000
0000
0000
0000
0000
0000
1000
0010
0100
0001
0100
0010
1000
0000
0000
0000
0001
1000
0100
1000
,
0001
0000
0000
0000
0000
0000
0010
0001
1000
0000
0000
0000
0000
0000
0000
0000
0000
0000
0001
0100
0010
0100
0001
1000
0001
0000
0000
0000
0010
0000
0100
1000
,
0010
0000
0000
0000
0000
0000
0100
0010
0100
0000
0000
0000
0000
0000
0000
0000
0001
0010
0000
1000
0010
0000
0001
0010
0000
1000
0010
0000
0110
0000
0000
0000
,
1001
0000
1000
0100
1000
0100
1000
0100
1000
0100
1000
0100
0010
0000
0001
0000
,
1001
0000
1000
0100
0010
0001
1000
0000
1000
0100
0010
0001
1000
0000
0000
0000
,
1001
0000
0001
0100
0001
0100
0001
0100
0001
0100
0001
0100
0010
0000
1000
0000
,
1001
0000
0001
0100
0010
1000
0001
0000
0001
0100
0010
1000
0001
0000
0000
0000
,
1100
0000
0010
0001
0100
0001
0010
0001
0100
0001
0010
0001
0100
0000
0001
0000
,
1001
0000
1000
0100
0001
0100
1000
0000
0001
0100
1000
0100
0001
0000
0000
0000
,
0101
0000
0010
1000
0100
1000
0010
1000
0100
1000
0010
1000
0100
0000
1000
0000
,
0010
0000
0000
1010
0000
0000
0001
0000
0000
0011
0000
0000
0100
0000
1000
0000
,
1001
0000
0000
0000
;

//---------------dance-double - ----------------
#NOTEDATA:;
#CHARTNAME:;
#STEPSTYPE:dance-double;
#DESCRIPTION:;
#CHARTSTYLE:;
#DIFFICULTY:Easy;
#METER:8;
#RADARVALUES:0.373146,0.556621,0.269877,0.202408,0.043373,271.000000,243.000000,28.000000,21.000000,0.000000,0.000000,0.000000,0.000000,0.000000,0.373146,0.556621,0.269877,0.202408,0.043373,271.000000,243.000000,28.000000,21.000000,0.000000,0.000000,0.000000,0.000000,0.000000;
#CREDIT:;
#DISPLAYBPM:78.000000:155.000000;
#NOTES:
00000000
00000000
00000000
00000000
,
00000000
00000000
00000000
00000000
,
00000000
00000000
00000000
00000000
,
00000000
00000000
00000000
00000000
,
00000000
00000000
00000000
00000000
,
00000010
00001000
00000001
00000100
,
00001000
00010000
01000000
10000000
,
00100000
10000000
01000000
00000000
00100000
00010000
01000000
00000000
,
00001000
00001000
00001000
00011000
,
00010000
00001000
00000010
00000002
,
00000000
00000003
00001000
00001000
,
00000001
00000010
00001000
00020000
,
00000000
00030000
00001000
00001000
,
00001000
00010000
00100000
20000000
,
00000000
30000000
00010000
00010000
,
10000000
00100000
00010000
00002000
,
00000000
00000000
00000000
00003000
,
00010000
00010000
00001000
00001000
,
00000100
00000000
00000100
00000000
00000010
00001000
00000100
00000000
,
00000010
00000010
00000001
00000001
,
00000100
00000000
00000100
00000000
00000010
00010000
00001000
00000000
,
00100000
00010000
00100000
00000000
01000000
10000000
01000000
00000000
,
10000000
00100000
10000000
00000000
00010000
01000000
00010000
00000000
,
10000000
01000000
00010000
00001000
,
00020000
00030000
00000000
00000000
00000000
00000000
00000000
00000000
00000000
00000000
00000000
00000000
00000000
00000000
00000000
00000000
00002000
00003000
00000000
00000000
00000000
00000000
00000000
00000000
00000000
00000000
00000000
00000000
00000000
00000000
00000000
00000000
00020000
00030000
00000000
00000000
00000000
00000000
00000000
00000000
00000000
00000000
00000000
00000000
00000000
00000000
00000000
00000000
00011000
00000000
00000000
00000000
00000000
00000000
00000000
00000000
00000000
00000000
00000000
00000000
00000000
00000000
00000000
00000000
,
00000010
00000000
00000010
00000000
00001000
00000100
00000010
00000000
00000001
00000000
00000001
00000000
00000100
00000010
00001000
00000000
,
00000100
00000000
00000100
00000000
00000010
00000001
00000100
00000000
00001000
00000000
00010000
00000000
01000000
00000000
10000000
00000000
,
00010000
00000000
00010000
00000000
01000000
00100000
10000000
00000000
01000000
00000000
01000000
00000000
00100000
00010000
01000000
00000000
,
00001000
00000000
00001000
00000000
00010000
00100000
01000000
00000000
00100000
00000000
10000000
00000000
01000000
00000000
00110000
00000000
,
00001000
00000000
00010000
00000000
00000010
00001000
00000100
00000000
,
00020000
00001000
00030020
00001000
,
00010030
00000000
00001000
00000000
00000100
00000001
00001000
00000000
,
00000200
00000320
00000032
00000203
,
00001300
00000000
00010000
00000000
00100000
00100000
00100000
00000000
10000000
00000000
01000000
00000000
00100000
00100000
00100000
00000000
,
00001000
00000000
00010000
00000000
00100000
00100000
00100000
00000000
20000000
00000000
00000000
00000000
30000000
00000000
01100000
00000000
,
10000000
00000000
01000000
00000000
00010000
00001000
00010000
00000000
,
00000200
00001000
00020300
00001000
,
00030100
00000000
00000010
00000000
00000001
00001000
00000010
00000000
,
00000002
00000100
00002003
00000100
,
00003001
00000000
00000100
00000000
00001000
00010000
00001000
00000000
,
00200000
00010000
00302000
00010000
,
00103000
00000000
01000000
00000000
10000000
00010000
01000000
00000000
,
00200000
00000000
00300000
10010000
,
00100000
10000000
00010000
00000000
00000000
10000000
01000000
00010000
,
00001000
00000010
00000001
00000000
00000000
00001000
00000010
00000100
,
00000001
00001000
00000100
00000000
00000000
00000010
00001000
00010000
,
01000000
10000000
00100000
00000000
01000000
01000000
01000000
00010000
,
00110000
00110000
00110000
00110000
,
00001000
00011000
00000100
00001100
,
00001010
00001010
00001010
00001010
,
00010000
00011000
01000000
01010000
,
10010000
10010000
10010000
10010000
,
00100000
00011000
00000010
00001001
,
00000110
00000110
00000110
00000110
,
00001000
00000010
00000001
00000100
,
00001001
00000000
00000000
00000000
;

//---------------dance-double - ----------------
#NOTEDATA:;
#CHARTNAME:;
#STEPSTYPE:dance-double;
#DESCRIPTION:;
#CHARTSTYLE:;
#DIFFICULTY:Medium;
#METER:12;
#RADARVALUES:0.502577,0.795173,0.048192,0.163854,0.313250,365.000000,360.000000,5.000000,17.000000,0.000000,0.000000,0.000000,0.000000,0.000000,0.502577,0.795173,0.048192,0.163854,0.313250,365.000000,360.000000,5.000000,17.000000,0.000000,0.000000,0.000000,0.000000,0.000000;
#CREDIT:;
#DISPLAYBPM:78.000000:155.000000;
#NOTES:
00000000
00000000
00000000
00000000
,
00000000
00000000
00000000
00000000
,
00000000
00000000
00000000
00000000
,
00000000
00000000
00000000
00000000
,
00000000
00000000
00000000
00000000
,
00100000
10000000
01000000
00010000
,
00001000
00000100
00000001
00000010
,
00001000
00010000
00100000
00010000
00001000
00010000
01000000
10000000
,
00010000
00000000
00010000
00000000
01000000
00100000
10010000
00000000
,
00100000
00000000
00000000
00100000
00000000
00000000
10000000
00000000
00000000
10000000
00000000
00000000
02000000
00000000
00000000
00000000
,
00000000
00000000
03000000
00000000
00100000
00010000
01000000
00000000
,
00100000
00000000
00000000
00100000
00000000
00000000
00010000
00000000
00000000
00010000
00000000
00000000
00002000
00000000
00000000
00000000
,
00000000
00000000
00003000
00000000
00010000
00000100
00001000
00000000
,
00000100
00000000
00000000
00000100
00000000
00000000
00010000
00000000
00000000
00010000
00000000
00000000
00000020
00000000
00000000
00000000
,
00000000
00000000
00000030
00000000
00000100
00000010
00001000
00000000
,
00000100
00000000
00000000
00000100
00000000
00000000
00000010
00000000
00000000
00000010
00000000
00000000
00000002
00000000
00000000
00000000
,
00000000
00000000
00000000
00000003
,
00001000
00000001
00000100
00001000
,
00010000
00000000
00100000
00000000
10000000
00010000
01000000
00010000
,
10000000
01000000
00010000
00001000
,
00000010
00000000
00000001
00000000
00001000
00000100
00000010
00000100
,
00001000
00000001
00000100
00000000
00000010
00001000
00000100
00000000
,
00000010
00000001
00001000
00000000
00000010
00000100
00000001
00000000
,
00001000
00000001
00000100
00001000
00010000
01000000
10000000
00010000
,
00200000
00300000
00000000
00000000
00000000
00000000
00000000
00000000
00000000
00000000
00000000
00000000
00000000
00000000
00000000
00000000
00200000
00300000
00000000
00000000
00000000
00000000
00000000
00000000
00000000
00000000
00000000
00000000
00000000
00000000
00000000
00000000
00200000
00300000
00000000
00000000
00000000
00000000
00000000
00000000
00000000
00000000
00000000
00000000
00000000
00000000
00000000
00000000
10010000
00000000
00000000
00000000
00000000
00000000
00000000
00000000
00000000
00000000
00000000
00000000
00000000
00000000
00000000
00000000
,
01000000
00100000
10000000
01000000
00100000
00010000
00100000
01000000
00100000
00010000
00001000
00000100
00000010
00000001
00001000
00000000
,
00000001
00000100
00000010
00001000
00000100
00000010
00000001
00000100
00002000
00010000
00010000
00013000
02000000
00000000
13000000
00000000
,
00010000
01000000
00100000
10000000
00010000
01000000
00100000
01000000
00010000
10000000
01000000
00010000
00001000
00000100
00000001
00000000
,
00001000
00000100
00000010
00000001
00000010
00000100
00001000
00000001
00000200
00000000
00000320
00000000
00010030
00001000
00010000
00000000
,
00001000
00010000
00100000
10000000
01000000
00100000
00010000
10000000
,
00000000
00000000
00010000
00000000
00100000
00000000
01000000
00100000
00000000
00100000
00000000
00100000
00001000
00000000
00001000
00000000
,
00010000
00001000
00000010
00000001
00000100
00000010
00001000
00000001
,
00002000
00003200
00000302
00000203
00002300
00000000
00003001
00000000
,
00000100
00001000
00010000
00001000
00000100
00000010
00001000
00010000
01000000
00100000
10000000
00100000
00010000
00100000
10000000
00000000
,
01000000
00000000
00100000
00000000
00010000
00000000
00100000
00000000
01000000
00000000
10000000
00000000
00010000
00000000
01000000
00000000
00100000
00000000
00000000
00010000
00000000
00000000
00001000
00000000
00000000
00000010
00000000
00000000
00001001
00000000
00000000
00000000
,
00000010
00000001
00000010
00000001
00000100
00000001
00000100
00000001
,
00001000
00000001
00000100
00001000
00010000
00100000
10000000
01000000
,
00100000
01000000
00100000
01000000
10000000
00010000
10000000
00010000
,
10000000
01000000
00010000
00001000
00000100
00000001
00000010
00000100
,
00010000
00001000
00100000
00001000
00010000
00100000
00010000
00001000
,
00100000
00001000
00010000
00100000
10000000
00100000
01000000
00010000
,
10000000
01000000
00100000
00010000
00100000
00001000
00020000
00000000
,
00000000
00000000
00000000
00031000
,
00100000
00000000
00000000
01000000
00010000
00000000
00000000
00000000
00000000
00001000
00000100
00000001
00001000
00000000
00000100
00000010
,
00000001
00000000
00000000
00001000
00000001
00000000
00000000
00000000
00000000
00000100
00000010
00001000
00010000
00000000
01000000
00100000
,
10000000
00000000
00000000
00010000
01000000
00000000
00000000
00000000
00000000
00100000
10000000
00010000
00100000
00000000
01000000
10000000
,
00100000
00000000
00000000
01000000
00100000
00000000
00010000
00000000
00001000
00000000
00010000
00000000
00001000
00000000
00011000
00000000
,
00010000
00001000
00000010
00001000
00010000
00001000
00000010
00000001
,
00000100
00000010
00001000
00000010
00000100
00001000
00010000
00000000
,
00001000
00010000
00100000
00010000
00001000
00010000
00100000
10000000
,
01000000
00100000
00010000
00100000
01000000
00010000
00001000
00000000
,
00000100
00000001
00000010
00001000
00000010
00000001
00000100
00001000
,
00010000
01000000
10000000
00100000
00010000
00001000
00010000
00000000
,
01000000
10000000
00100000
00010000
00100000
10000000
01000000
00010000
,
00001000
00000000
00000000
00001000
00000000
00000000
00000100
00000000
00000000
00000100
00000000
00000000
00000001
00000000
00001000
00000000
,
00001001
00000000
00000000
00000000
;

//---------------dance-double - ----------------
#NOTEDATA:;
#CHARTNAME:;
#STEPSTYPE:dance-double;
#DESCRIPTION:;
#CHARTSTYLE:;
#DIFFICULTY:Hard;
#METER:15;
#RADARVALUES:0.721508,1.166254,0.077108,0.173492,0.968665,524.000000,516.000000,8.000000,18.000000,0.000000,0.000000,0.000000,0.000000,0.000000,0.721508,1.166254,0.077108,0.173492,0.968665,524.000000,516.000000,8.000000,18.000000,0.000000,0.000000,0.000000,0.000000,0.000000;
#CREDIT:;
#DISPLAYBPM:78.000000:155.000000;
#NOTES:
00000000
00000000
00000000
00000000
,
00000000
00000000
00000000
00000000
,
00000000
00000000
00000000
00000000
,
00000000
00000000
00000000
00000000
,
00000000
00000000
00000000
00000000
,
00000010
00000001
00000100
00001000
00010000
01000000
10000000
00100000
,
00010000
00001000
00010000
00100000
10000000
00010000
01000000
00100000
,
10000000
01000000
10000000
00000000
00010000
00100000
00010000
00000000
01000000
00001000
01000000
00001000
00010000
00000100
00010000
00000100
,
00000000
00000000
00001000
00000001
00000100
00000000
00000010
00000000
00001000
00000000
00000001
00000000
00000110
00000000
00000000
00000000
,
00000010
00000000
00000000
00000010
00000000
00000000
00010000
00000000
00000000
00010000
00000000
00000000
00200000
00000000
00000000
00000000
,
00000000
00000000
00300000
00000000
10000000
00100000
01000000
00010000
,
00100000
00000000
00000000
00100000
00000000
00000000
00001000
00000000
00000000
00001000
00000000
00000000
00000020
00000000
00000000
00000000
,
00000000
00000000
00000030
00000000
00000001
00000010
00000100
00001000
,
00000100
00000000
00000000
00000100
00000000
00000000
00010000
00000000
00000000
00010000
00000000
00000000
02000000
00000000
00000000
00000000
,
00000000
00000000
03000000
00000000
10000000
00010000
00100000
00010000
,
01000000
00000000
00000000
01000000
00000000
00000000
00001000
00000000
00000000
00001000
00000000
00000000
00000100
00000000
00000010
00000100
,
00000010
00001000
00000000
00000100
00000000
00000010
00000000
00000001
00000000
00000000
00000100
00000000
00000010
00000000
00001000
00000000
,
00000001
00000100
00001000
00010000
,
01000000
00000000
00000000
00000000
10000000
00000000
00000000
00000000
00100000
00000000
10000000
00000000
00010000
00000000
10000000
01000000
,
10000000
01000000
00010000
00001000
,
00000100
00000000
00000000
00000000
00000001
00000000
00000000
00000000
00000010
00000000
00000001
00000000
00001000
00000000
00000001
00000100
,
00000001
00000001
00000100
00000100
00000010
00000010
00001000
00001000
,
00010000
00010000
01000000
01000000
00100000
00100000
10000000
10000000
,
00100000
10000000
00100000
00000000
01000000
00010000
01000000
00000000
00010000
00100000
00010000
00100000
00001000
00010000
00001000
00010000
,
00000020
00000030
00000000
00000000
00000000
00000000
00000000
00000000
00000000
00000000
00000000
00000000
00000000
00000000
00000000
00000000
00002000
00003000
00000000
00000000
00000000
00000000
00000000
00000000
00000000
00000000
00000000
00000000
00000000
00000000
00000000
00000000
00000002
00000003
00000000
00000000
00000000
00000000
00000000
00000000
00000000
00000000
00000000
00000000
00000000
00000000
00000000
00000000
00000110
00000000
00000000
00000000
00000000
00000000
00000000
00000000
00000000
00000000
00000000
00000000
00000000
00000000
00000000
00000000
,
00001000
00000000
00000001
00000100
00000010
00000100
00000001
00000100
00000010
00000100
00000001
00000100
00000010
00000000
00010000
00000000
00001000
00000000
00010000
00000100
00001000
00000100
00010000
00000000
00001000
00100000
00010000
00100000
00001000
00000000
00000000
00000000
,
01000000
00000000
00010000
01000000
00100000
01000000
00010000
01000000
00100000
01000000
00010000
01000000
00100000
00000000
10000000
00000000
00020000
00000000
00230000
00000000
20300000
00000000
30200000
00000000
00320000
00000000
00000000
00000000
00031000
00000000
00000000
00000000
,
00000001
00000000
00001000
00000010
00000100
00000010
00001000
00000010
00000100
00000010
00001000
00000010
00000100
00000000
00000001
00000000
00000010
00000000
00000100
00001000
00000001
00001000
00000100
00000000
00001000
00000001
00000010
00000001
00001000
00000000
00000000
00000000
,
00000010
00000000
00010000
00001000
00100000
00001000
00010000
00001000
00100000
00001000
00010000
00001000
00100000
00000000
00001000
00000000
00020000
00000000
00000000
00000000
00230000
00000000
00000000
00000000
20300000
00000000
30200000
00000000
00320000
00000000
00031000
00000000
,
00010000
00000000
00000010
00010000
00001000
00010000
00000010
00001000
00000010
00010000
00001000
00010000
00000010
00000000
00000010
00000000
,
00000000
00000000
00000100
00000000
00000001
00000000
00000010
00000100
00000000
00000100
00000000
00000100
00000010
00000000
00000100
00000000
,
00010000
00000000
00000100
00010000
00001000
00010000
00000100
00001000
00000100
00010000
00001000
00010000
00000100
00000000
00000100
00000000
,
00001000
00000010
00000001
00000010
00002000
00000000
00013000
00000000
,
10000000
00000000
00010000
01000000
00100000
01000000
00010000
01000000
00100000
01000000
00010000
01000000
00100000
00000000
00010000
00000000
00001000
00000000
00010000
00000010
00001000
00000010
00010000
00000000
00001000
00100000
00010000
00100000
00001000
00000000
00000000
00000000
,
00000010
00000000
00000001
00001000
00000100
00001000
00000001
00001000
00000100
00001000
00000001
00001000
00000100
00000000
00000010
00000000
00000001
00000000
00000000
00000001
00000000
00000000
00001000
00000000
00000000
00001000
00000000
00000000
00000110
00000000
00000000
00000000
,
00001000
00000000
00000001
00000100
00000010
00000000
00001000
00000000
00000010
00000100
00000001
00000000
00001000
00000000
00000001
00000000
,
00001000
00000100
00010000
00000000
00001000
00100000
00010000
00000000
10000000
00000000
00010000
00000000
00100000
00000000
01000000
00000000
,
00100000
00000000
00010000
10000000
01000000
00000000
00100000
00000000
01000000
10000000
00010000
00000000
10000000
00000000
00010000
00000000
,
01000000
00001000
00010000
00000000
00001000
00010000
00000100
00000000
00001000
00000000
00000100
00000000
00000001
00000000
00000100
00000000
,
00001000
00000000
00000001
00000010
00000100
00000000
00001000
00000000
00000100
00000010
00000001
00000000
00001000
00000000
00000001
00000000
,
00000100
00000010
00010000
00000000
00001000
01000000
00010000
00000000
10000000
00000000
00010000
00000000
01000000
00000000
00100000
00000000
,
10000000
00000000
00100000
00010000
00100000
00000000
10000000
00000000
01000000
00100000
01000000
00000000
20000000
00000000
00000000
00000000
,
00000000
00000000
00000000
30010000
,
01100000
00000000
00000000
00000000
00000000
00000000
10000000
01000000
00100000
00000000
00000000
00000000
00000000
00000000
00000000
00000000
00000000
00000000
00001000
00100000
00010000
00100000
00001000
00010000
00000010
00000000
00000000
00000000
00000100
00000000
00000010
00001000
,
00000001
00000000
00000000
00000000
00000000
00000000
00000010
00000100
00001000
00000000
00000000
00000000
00000000
00000000
00000000
00000000
00000000
00000000
00000010
00010000
00001000
00010000
00000010
00001000
00000001
00000000
00000000
00000000
00001000
00000001
00000100
00000010
,
00001000
00000000
00000000
00000000
00000000
00000000
00000010
00010000
00001000
00000000
00000000
00000000
00000000
00000000
00000000
00000000
00000000
00000000
00100000
00010000
10000000
00010000
01000000
00100000
10000000
00000000
00000000
00000000
01000000
00000000
00100000
01000000
,
00100000
00000000
00000000
00000000
00000000
00000000
00010000
01000000
00100000
00000000
00000000
00000000
00000000
00000000
00000000
00000000
10000000
00000000
00000000
00000000
00010000
00000000
00000000
00000000
00001000
00000000
00000000
00000000
00011000
00000000
00000000
00000000
,
00000100
00000000
00001000
00000001
00001000
00000001
00001000
00000001
00001000
00000001
00001000
00000001
00000010
00000000
00000001
00000000
,
00001000
00000000
00000001
00000100
00000010
00001000
00000010
00000000
00010000
00001000
00100000
00010000
10000000
00000000
00000000
00000000
,
00100000
00000000
01000000
00100000
01000000
00100000
01000000
00100000
01000000
00100000
01000000
00100000
10000000
00000000
00010000
00000000
,
10000000
00000000
01000000
00100000
00010000
00100000
00001000
00000000
00010000
00000010
00001000
00000010
00010000
00000000
00000000
00000000
,
00001000
00000000
00100000
00001000
00010000
00001000
00100000
00010000
00100000
00001000
00010000
00001000
00100000
00000000
00001000
00000000
,
00010000
00000000
00000010
00000100
00000001
00001000
00000100
00000000
00000010
00000001
00001000
00000100
00010000
00000000
00000000
00000000
,
00001000
00000000
01000000
00001000
00010000
00001000
01000000
00010000
01000000
00001000
00010000
00001000
01000000
00000000
00010000
00000000
,
00100000
00000000
00000000
00110000
00000000
00000000
01000000
00000000
00000000
11000000
00000000
00000000
00010000
00000000
10000000
00000000
,
01100000
00000000
00000000
00000000
;

//---------------dance-single - ----------------
#NOTEDATA:;
#CHARTNAME:;
#STEPSTYPE:dance-single;
#DESCRIPTION:;
#CHARTSTYLE:;
#DIFFICULTY:Challenge;
#METER:18;
#RADARVALUES:1.023054,1.590346,0.742162,0.173492,1.609623,743.000000,666.000000,77.000000,18.000000,0.000000,0.000000,0.000000,0.000000,0.000000,1.023054,1.590346,0.742162,0.173492,1.609623,743.000000,666.000000,77.000000,18.000000,0.000000,0.000000,0.000000,0.000000,0.000000;
#CREDIT:;
#DISPLAYBPM:78.000000:155.000000;
#NOTES:
// measure 0
0000
0000
0000
0000
,  // measure 1
0000
0000
0000
0000
,  // measure 2
0000
0000
0000
0000
,  // measure 3
0000
0000
0000
0000
,  // measure 4
0000
0000
0000
0000
,  // measure 5
0010
0000
1000
0100
1000
0000
0001
0100
0001
0000
1000
0010
1000
0000
0001
0010
,  // measure 6
0001
0000
1000
0100
0010
0000
0001
0100
0010
0000
1000
0001
0100
0000
0010
1000
,  // measure 7
0001
0100
0010
1000
0001
0010
0100
1000
0010
0100
0001
1000
0010
1000
0001
0100
,  // measure 8
0010
0000
1000
0100
0001
0000
1000
0000
1100
0000
1001
0000
0110
0000
0000
0000
,  // measure 9
1010
0000
0000
0101
0000
0000
1100
0000
0000
1001
0000
0000
0202
0000
0000
0000
,  // measure 10
0000
0000
0303
0000
2000
3002
0203
0310
,  // measure 11
0101
0000
0000
0110
0000
0000
1001
0000
0000
1100
0000
0000
2020
0000
0000
0000
,  // measure 12
0000
0000
3030
0000
0002
0023
0230
1300
,  // measure 13
1100
0000
0000
0011
0000
0000
1010
0000
0000
0110
0000
0000
2002
0000
0000
0000
,  // measure 14
0000
0000
3003
0000
0020
2030
3002
0103
,  // measure 15
0011
0000
0000
1100
0000
0000
0110
0000
0000
1010
0000
0000
0101
0000
0001
1000
,  // measure 16
0001
0100
0000
0110
0000
1010
0000
0102
0000
1003
0001
0000
0011
0000
1001
0000
,  // measure 17
0010
1000
0000
1000
0100
0000
0010
0001
0000
0001
0100
0000
2001
0000
0000
0000
,  // measure 18
0010
0000
0000
0000
3001
0000
0000
0000
1000
0100
0010
0000
0011
0000
1001
0000
,  // measure 19
0010
0001
0000
0001
0100
0000
0010
1000
0000
1000
0100
0000
0120
0000
0000
0000
,  // measure 20
1000
0000
0000
0000
0130
0000
0000
0000
0001
1000
0100
0000
1100
0000
1001
0000
,  // measure 21
0010
0001
0100
0001
0010
0000
0100
1000
0001
1000
0100
0000
1000
0010
0100
0010
,  // measure 22
1000
0000
0001
0010
0100
0000
1000
0010
0100
0001
1000
0000
0001
0010
0100
0000
,  // measure 23
0001
0010
0100
1000
0010
1000
0001
0100
0010
0100
0001
1000
0100
0010
0001
1000
,  // measure 24
0010
1000
0100
0001
0100
1000
0001
0000
,  // measure 25
1001
0000
0000
0000
0001
0000
0100
0000
1000
0000
0100
0000
0001
0000
0100
0000
1000
0000
0100
0000
0010
0000
0001
0000
0100
0000
0000
0010
0100
0000
0000
0000
0110
0000
0000
0000
1000
0000
0010
0000
0001
0000
0010
0000
1000
0001
0000
0000
0001
0000
0010
0000
0100
0000
1000
0000
0010
0100
0000
0000
0000
0000
0000
0000
,  // measure 26
0101
0000
0000
0000
1000
0000
0100
0000
0001
0000
0100
0000
1000
0000
0010
0000
0001
0000
0010
0000
1000
0000
0100
0000
0010
0000
0000
0001
0010
0000
0000
0000
0011
0000
0000
0000
1010
0000
0000
0000
0011
0000
0000
0000
1010
0000
0000
0000
0001
0000
0010
0000
0100
0000
1000
0000
1001
0000
0000
0000
0000
0000
0000
0000
,  // measure 27
1010
0000
0000
0000
0010
0000
1000
0000
0010
0000
0001
0000
0010
0000
1000
0000
0100
0000
0010
0000
0100
0000
1000
0000
0001
0000
0000
0100
0001
0000
0000
0000
0011
0000
0000
0000
0010
0000
0001
0000
0010
0000
1000
0000
0010
0100
0000
0000
0001
0000
1000
0000
0010
0000
0100
0000
0001
0010
0000
0000
0000
0000
0000
0000
,  // measure 28
1100
0000
0000
0000
0100
0000
0001
0000
0100
0000
1000
0000
0100
0000
0001
0000
0100
0000
0010
0000
1000
0000
0001
0000
0100
0000
0000
0010
1000
0000
0000
0000
0001
0000
0010
0000
0000
0000
0010
0000
1000
0000
0000
0000
1000
0000
0100
0000
0000
0000
0100
0000
0001
0000
0000
0000
1001
0000
0000
0000
0110
0000
0000
0000
,  // measure 29
1001
0000
0000
0000
0010
0000
1000
0000
0100
0000
0010
0000
0001
0000
0100
0000
0010
0000
1000
0000
0001
0000
0100
0000
0001
0000
0000
0001
1000
0000
0000
0000
,  // measure 30
0000
0000
1100
0000
0101
0000
0010
0100
0000
0001
0010
0100
1000
0000
1000
0000
,  // measure 31
0101
0000
0000
0000
1000
0000
0100
0000
0010
0000
0100
0000
1000
0000
0001
0000
0010
0000
0001
0000
0100
0000
0010
0000
1000
0000
0000
1000
0100
0000
0000
0000
,  // measure 32
1100
0000
1001
0000
0110
0000
0101
0000
0010
1000
0001
0100
0110
0000
0000
0000
,  // measure 33
1010
0000
0000
0000
0100
0000
0010
0000
0001
0000
0100
0000
0010
0000
1000
0000
0100
0000
1000
0000
0001
0000
0100
0000
0010
0000
0000
0100
0001
0000
0000
0000
1001
0000
0000
0000
0100
0000
0010
0000
0001
0000
1000
0000
0001
0100
0000
0000
0100
0000
0010
0000
1000
0000
0010
0000
0100
0001
0000
0000
0000
0000
0000
0000
,  // measure 34
0011
0000
0000
0000
0100
0000
0010
0000
1000
0000
0100
0000
1000
0000
0001
0000
0100
0000
0010
0000
0100
0000
0001
0000
1000
0000
0000
1000
0010
0000
0000
0000
0100
0000
0010
0000
0000
0000
0010
0000
1000
0000
0000
0000
1000
0000
0001
0000
0000
0000
0001
0000
0100
0000
0000
0000
0110
0000
0000
0000
1001
0000
0000
0000
,  // measure 35
0010
1000
0100
0010
0001
0000
1000
0010
0100
0001
0100
0000
0001
1000
0010
0100
,  // measure 36
0001
0010
0001
0010
0001
0000
0000
0000
1000
0100
1000
0000
0010
0100
0001
0000
,  // measure 37
0010
0001
0100
0001
1000
0000
0100
1000
0010
0100
0001
0000
1000
0100
0010
0001
,  // measure 38
0100
0010
0100
0010
0100
0000
0000
0000
0001
1000
0001
0000
1000
0001
0010
0000
,  // measure 39
0001
1000
0100
0010
0100
0000
1000
0010
0100
0001
1000
0000
0010
0100
0001
1000
,  // measure 40
0010
1000
0010
1000
0010
0000
0000
0000
0100
0001
0100
0000
0001
1000
0100
0000
,  // measure 41
1000
0100
0010
0001
1000
0000
0001
1000
0100
0010
0100
0000
1000
0001
0100
0010
,  // measure 42
1000
0100
0000
0000
0001
0100
0000
0000
1000
0010
0000
0000
0001
0010
0000
0000
,  // measure 43
1000
0100
0000
0001
0100
0000
1000
0010
0000
0001
0010
0000
1001
0000
0100
0000
0001
0010
0000
0100
1000
0000
0010
0000
1000
0001
1000
0001
0100
0001
0010
0000
,  // measure 44
0001
0100
0000
1000
0100
0000
0001
0010
0000
1000
0010
0000
1100
0000
0001
0000
0100
0010
0000
1000
0001
0000
0100
0000
0010
1000
0010
1000
0010
0100
0001
0000
,  // measure 45
1000
0001
0000
0001
0100
0000
0100
0010
0000
0010
1000
0000
0101
0000
0010
0000
1000
0100
0000
0010
0001
0000
1000
0000
0010
0100
0001
0100
0010
1000
0100
0000
,  // measure 46
1000
0010
0000
0010
0100
0000
0100
0001
0000
0001
1000
0000
0110
0000
0100
0000
1000
0001
0000
1000
0001
0000
0100
0010
0000
0100
0010
0000
1010
0000
0101
0000
,  // measure 47
1001
0000
0000
0001
1000
0000
0100
0000
0010
0000
0001
0000
1000
0000
0001
0000
0100
0000
0010
0000
1000
0000
0100
0000
0010
0000
0000
0001
0100
0000
0000
0000
,  // measure 48
0110
0000
0000
0010
1000
0000
0001
0000
0010
0000
0001
0000
1000
0100
0000
0000
0010
0000
0100
0000
1000
0000
0010
0000
0100
0001
0000
0000
0000
0000
0000
0000
,  // measure 49
0101
0000
0000
1000
0100
0000
0010
0000
0100
0000
0010
0000
0001
0000
0100
0000
0001
0000
1000
0000
0100
0000
0010
0000
0001
0000
0000
1000
0001
0000
0000
0000
,  // measure 50
1010
0000
0000
0010
0100
0000
0010
0000
1000
0000
0100
0000
0010
0001
0000
0000
0001
0000
1000
0000
0100
0000
0010
0000
0001
1000
0000
0000
0000
0000
0000
0000
,  // measure 51
1100
0000
0000
0100
1000
0000
0010
0000
0100
0000
0001
0000
1000
0000
0100
0000
0010
0000
0100
0000
1000
0000
0001
0000
0100
0000
0000
0010
0100
0000
0000
0000
,  // measure 52
1001
0000
0000
0100
0010
0000
1000
0000
0100
0000
1000
0000
0001
0100
0000
0000
0010
0000
1000
0000
0100
0000
0010
0000
0001
0010
0000
0000
0000
0000
0000
0000
,  // measure 53
1010
0000
0000
1000
0100
0000
0010
0000
0001
0000
1000
0000
0100
0000
0010
0000
1000
0000
0001
0000
0100
0000
0010
0000
1000
0000
0000
0100
1000
0000
0000
0000
,  // measure 54
0010
0100
0000
0010
0100
0000
0001
1000
0000
0001
1000
0000
1100
0000
0101
0000
,  // measure 55
1001
0000
0000
0000
;
