#VERSION:0.83;
#TITLE:V ~for EXTREME~;
#SUBTITLE:;
#ARTIST:TAKA;
#TITLETRANSLIT:V ~for EXTREME~;
#SUBTITLETRANSLIT:;
#ARTISTTRANSLIT:;
#GENRE:;
#ORIGIN:;
#CREDIT:;
#BANNER:V ~for EXTREME~-bn.png;
#BACKGROUND:V ~for EXTREME~-bg.png;
#PREVIEWVID:;
#JACKET:V ~for EXTREME~-jacket.png;
#CDIMAGE:;
#DISCIMAGE:;
#LYRICSPATH:;
#CDTITLE:;
#MUSIC:V ~for EXTREME~.ogg;
#OFFSET:0.000000;
#SAMPLESTART:46.599998;
#SAMPLELENGTH:20.000000;
#SELECTABLE:YES;
#DISPLAYBPM:150.000000;
#BPMS:0.000=150.000;
#STOPS:;
#DELAYS:;
#WARPS:;
#TIMESIGNATURES:0.000=4=4;
#TICKCOUNTS:0.000=4;
#COMBOS:0.000=1;
#SPEEDS:0.000=1.000=0.000=0;
#SCROLLS:0.000=1.000;
#FAKES:;
#LABELS:0.000=Song Start;
#BGCHANGES:;
#KEYSOUNDS:;
#ATTACKS:
;

//---------------dance-single - ----------------
#NOTEDATA:;
#CHARTNAME:;
#STEPSTYPE:dance-single;
#DESCRIPTION:;
#CHARTSTYLE:;
#DIFFICULTY:Challenge;
#METER:14;
#RADARVALUES:0.699627,0.871735,0.457090,0.102612,0.447761,525.000000,476.000000,49.000000,11.000000,0.000000,0.000000,0.000000,0.000000,0.000000,0.699627,0.871735,0.457090,0.102612,0.447761,525.000000,476.000000,49.000000,11.000000,0.000000,0.000000,0.000000,0.000000,0.000000;
#CREDIT:;
#DISPLAYBPM:150.000000;
#NOTES:
0000
0000
0000
0000
,
0000
0000
0000
0000
,
0000
0000
0000
0000
,
0000
0000
0000
0000
,
2010
0001
0100
0001
,
0100
0000
0001
0000
0100
0000
3001
1000
,
0201
0010
0010
0310
,
0120
0000
1000
0000
0001
0000
1030
1000
,
2100
0001
0001
0010
,
0001
0000
0000
0000
0100
0000
0000
0000
3100
0000
0000
0001
1000
0000
0100
0000
,
0010
0001
0100
0001
0010
0001
1000
0000
,
0010
0100
0010
1000
0100
0010
0001
0000
,
1000
0100
1000
0000
0010
0000
0100
0000
0001
0000
0010
0000
0001
0000
1000
0000
,
0001
0010
0001
0000
0100
0000
0010
0000
1000
0000
0100
0000
1000
0000
0001
0000
,
1020
0000
0000
0000
0001
0000
0000
0000
1030
0000
0000
0010
0100
0000
0001
0000
,
0021
0000
0000
0000
1000
0000
0000
0000
0031
0000
0000
0010
0001
0000
0100
0000
,
0210
0000
0301
1000
1200
0000
0310
0100
,
1001
1010
0101
0011
,
1100
0000
0000
0001
0000
0000
0010
0000
0000
0001
0000
0100
0000
0010
0000
1000
,
0000
0000
0100
0000
1000
0000
0001
0000
1000
0000
0010
0100
0010
0100
0010
0100
,
0010
0000
0000
1000
0001
0000
0000
1000
0001
0000
0000
1000
0001
0000
0000
1000
,
0100
0100
0100
0100
,
0110
0110
0110
0110
,
0001
0001
1000
1000
0001
0001
1000
1000
,
0010
0100
0001
0100
0010
0100
0001
0010
,
0100
1000
0010
1000
0001
1000
0100
0010
,
0100
1000
0010
0100
0010
1000
0010
0100
,
0001
0010
0001
1000
0001
0010
0001
0100
,
0010
0100
0010
0100
0001
1000
0001
1000
,
0100
0000
0010
0001
0010
0001
0010
0001
0010
0000
0100
0000
0100
0000
0100
0000
,
1100
0011
0101
1010
,
0101
0000
0010
1000
0010
1000
0010
1000
0010
0000
0100
0000
0100
0000
0100
0000
,
0110
0101
0011
1100
,
0101
0000
1000
0001
1000
0001
1000
0001
1000
0000
0100
0000
0100
0000
0100
0000
,
1010
0101
0011
1100
,
0101
0000
0010
0100
0010
0100
0010
0100
0010
0000
1000
0000
1000
0000
1000
0000
,
0001
0001
0010
0010
0001
0001
1000
1000
,
0010
1000
0100
0010
0001
0100
0001
0010
,
0001
0100
1000
0100
0001
0100
0010
1000
,
0100
0000
0010
0000
0001
1000
0001
1000
0001
0000
0000
0100
0010
0000
0000
1000
,
0001
0000
0000
0010
0001
0000
0000
0010
0100
0000
0000
1000
0010
0000
0100
0000
,
0001
0000
1000
0010
1000
0010
1000
0010
1000
0000
0001
0100
0001
0100
0001
0100
,
0001
0000
0000
0010
0100
0000
1000
0000
0010
1000
0000
0000
0010
1000
0000
0000
,
0010
0100
0000
0000
0100
0001
0000
0000
0010
0000
0001
0000
0100
0000
1000
0000
,
0100
0000
0001
0010
0001
0010
0001
0010
0001
0000
1000
0100
1000
0100
1000
0100
,
1000
0000
0000
0001
1000
0000
0010
0000
0100
0000
0001
0000
0100
0000
1000
0000
,
0100
0001
0100
0010
1000
0100
0001
0100
,
1000
0000
0010
0000
0100
0000
0001
0000
0010
0000
1000
0000
0010
0000
0001
0100
,
0002
0000
0000
0000
1003
0000
0000
0000
0110
0000
1000
0100
1000
0100
1000
0100
,
0020
0000
0000
0000
0130
0000
0000
0000
1001
0000
0010
0100
0010
0100
0010
0100
,
0001
0010
0001
0100
1000
0100
0010
1000
,
0001
0100
0001
0100
0001
0000
1000
0000
0100
0010
0100
0010
0100
0000
1000
0000
,
0010
0000
0100
0001
0100
0001
0100
0001
0100
0000
0010
0000
0010
0000
0010
0000
,
1010
0101
0011
1100
,
0101
0000
0010
1000
0010
1000
0010
1000
0010
0000
0100
0000
0100
0000
0100
0000
,
1010
1100
0101
1010
,
1100
0000
0001
0010
0001
0010
0001
0010
0001
0000
0100
0000
0100
0000
0100
0000
,
0101
0011
1001
0110
,
1010
0000
0001
1000
0001
1000
0001
1000
0001
0000
0010
0000
0010
0000
0010
0000
,
0001
0100
0001
0000
1000
0100
1000
0000
0001
0100
0001
0000
1000
0100
1000
0100
,
1000
0000
0010
0100
0010
0100
0010
0100
0010
0000
1000
0000
1000
0000
1000
0000
,
0001
0000
0100
0010
0100
0010
0100
0010
0100
0000
0001
0000
0001
0000
0001
0000
,
0010
0001
0010
0001
1000
0001
1000
0001
1000
0100
1000
0100
0010
0001
0010
0001
,
0200
0000
0000
0000
,
0000
0000
0000
0000
,
0000
0000
0000
0000
,
0000
0000
0000
0300
;

//---------------dance-single - ----------------
#NOTEDATA:;
#CHARTNAME:;
#STEPSTYPE:dance-single;
#DESCRIPTION:;
#CHARTSTYLE:;
#DIFFICULTY:Hard;
#METER:12;
#RADARVALUES:0.551706,0.591534,0.606343,0.158582,0.009328,414.000000,349.000000,65.000000,17.000000,0.000000,0.000000,0.000000,0.000000,0.000000,0.551706,0.591534,0.606343,0.158582,0.009328,414.000000,349.000000,65.000000,17.000000,0.000000,0.000000,0.000000,0.000000,0.000000;
#CREDIT:;
#DISPLAYBPM:150.000000;
#NOTES:
0000
0000
0000
0000
,
0000
0000
0000
0000
,
0000
0000
0000
0000
,
0000
0000
0000
0000
,
0201
0010
0010
0010
,
0010
0010
0010
0310
,
2010
0001
0001
3001
,
0012
0000
0100
0000
0100
0000
0103
0010
,
1002
0100
0100
0100
,
1000
1000
1000
1003
,
0001
0010
0001
0100
1000
0000
1000
0000
,
0001
0010
0001
0100
1000
0000
1000
0000
,
0010
1000
0010
0100
0000
0001
0010
0001
,
0000
1000
0001
1000
0000
0100
0010
0001
,
1002
0100
1000
0103
,
2010
0000
0001
0000
0100
0000
3001
1000
,
0201
0310
0120
0130
,
0101
1100
0101
1100
,
0011
1000
0100
1000
,
0001
0010
0001
0010
0100
1000
0010
1000
,
0001
0001
0001
0001
,
0100
0100
0100
0100
,
0110
0110
0110
0110
,
1000
0001
1000
0001
0100
0010
0100
0010
,
1000
0000
0100
0010
0001
0100
0001
0000
,
1000
0000
0010
1000
0001
0010
0100
0000
,
1000
0000
0001
1000
0010
1000
0100
0000
,
0001
0000
0010
0001
0100
0010
1000
0000
,
0001
0100
0001
0100
0010
1000
0010
1000
,
0200
1000
1000
1000
1000
1000
1000
1300
,
1001
0011
1100
0101
,
2010
0001
0001
0001
0001
0001
0001
3001
,
1001
0011
0110
1100
,
0201
0010
0010
0010
0010
0010
0010
0310
,
0110
0101
1100
0011
,
2100
0100
0100
0100
0100
0100
0100
3100
,
1010
0101
0011
1100
,
0001
0100
1000
0000
0001
0010
0100
0000
,
1000
0010
0001
0000
0100
0010
1000
0000
,
0001
0000
1000
0010
1000
0000
0001
0000
,
0100
0010
1000
0000
0100
0010
0001
0000
,
1000
0010
1000
0010
0001
0010
0001
0010
,
1000
0000
0000
0001
0100
0000
0000
0000
0110
0000
0000
0000
1001
0000
0000
0000
,
1100
0101
1010
0011
,
0001
0100
0001
0100
1000
0100
1000
0100
,
0001
0000
0000
1000
0100
0000
0000
0000
1001
0000
0000
0000
0110
0000
0000
0000
,
1010
0101
0011
1100
,
0001
1000
0010
0100
0001
1000
0010
0100
,
0001
0000
0001
0000
1010
0100
0001
1000
,
0100
0000
0100
0000
0011
1000
0001
0100
,
0010
1000
0010
1000
0001
0100
0001
0100
,
0001
0010
0100
1000
0001
0010
0100
1000
,
0020
0100
0100
0100
0100
0100
0100
0130
,
0110
0101
1100
0011
,
1020
1000
1000
1000
1000
1000
1000
1030
,
1001
0011
1100
0101
,
2010
0001
0001
0001
0001
0001
0001
3001
,
0011
1100
0101
1010
,
0210
0010
0010
0010
0010
0010
0010
0310
,
0100
0001
0100
1000
0100
0001
0100
1000
,
0100
0001
0010
0001
0010
0001
0010
0001
,
0100
0010
1000
0010
1000
0010
1000
0010
,
0100
0001
0100
0001
1000
0100
1000
0001
,
0200
0000
0000
0000
,
0000
0000
0000
0000
,
0000
0000
0000
0000
,
0000
0000
0000
0300
;

//---------------dance-single - ----------------
#NOTEDATA:;
#CHARTNAME:;
#STEPSTYPE:dance-single;
#DESCRIPTION:;
#CHARTSTYLE:;
#DIFFICULTY:Medium;
#METER:9;
#RADARVALUES:0.425107,0.529268,0.261194,0.597015,0.000000,319.000000,291.000000,28.000000,64.000000,0.000000,0.000000,0.000000,0.000000,0.000000,0.425107,0.529268,0.261194,0.597015,0.000000,319.000000,291.000000,28.000000,64.000000,0.000000,0.000000,0.000000,0.000000,0.000000;
#CREDIT:;
#DISPLAYBPM:150.000000;
#NOTES:
0000
0000
0000
0000
,
0000
0000
0000
0000
,
0000
0000
0000
0000
,
0000
0000
0000
0000
,
0021
0001
0001
0001
,
0001
0001
0001
0031
,
2100
0100
0100
3100
,
2010
0000
0010
0000
0010
0000
3010
0100
,
0210
0010
0010
0010
,
0010
0010
0010
0310
,
2001
0010
0001
0100
,
0001
0010
0001
3100
,
1200
1000
0000
0010
0000
0001
0000
0010
,
0000
0001
0000
1000
0000
0001
0300
0100
,
0210
0001
1000
0301
,
2100
0010
0100
3010
,
1002
0013
2001
3100
,
1001
0011
1100
0101
,
2020
0030
0002
0003
,
0200
0300
0010
0100
,
0001
0001
0001
0001
,
0100
0100
0100
0100
,
0010
0010
0010
3010
,
1000
0100
0001
0000
1000
0100
0001
0000
,
0010
0001
0100
0000
0010
1000
0001
0000
,
0010
0100
1000
0000
0001
0100
0001
0000
,
1000
0001
1000
0000
0100
0010
0001
0000
,
0100
0010
0100
0000
0001
1000
0001
0000
,
0010
0001
0010
0000
0001
1000
0001
0000
,
0100
0000
0010
1000
0010
1000
0010
1000
,
0002
0100
1000
0103
,
0101
0000
0001
0010
0001
0010
0001
0010
,
0200
0001
0010
1300
,
1100
0000
0010
0100
0010
0100
0010
0100
,
0002
1000
0010
1003
,
1010
0000
0100
0001
0100
0001
0100
0001
,
2000
3200
0320
0032
,
0103
0001
0100
0000
0001
0010
0001
0000
,
1000
0100
1000
0000
0010
1000
0001
0000
,
0100
0000
0010
1000
0002
0000
0023
0000
,
0032
0203
0320
2030
,
3200
0000
0310
0001
2000
0000
3001
0100
,
0010
1001
0200
0320
,
2030
3002
0023
0230
,
2300
0000
3001
1000
0020
0000
0130
0001
,
1000
0110
0002
0023
,
0032
2003
3200
0320
,
0031
0000
0100
0010
1000
0000
0001
0010
,
0100
0000
0100
0000
1001
0000
0010
0100
,
0001
0000
0001
0000
1010
0000
0001
1000
,
0020
2030
3200
0302
,
0013
1000
0010
0000
0100
0001
0100
0000
,
0110
0000
1000
0001
1000
0001
1000
0001
,
0020
0032
2003
3002
,
0103
0000
0001
0010
0001
0010
0001
0010
,
0200
0320
0032
2003
,
3010
0000
1000
0100
1000
0100
1000
0100
,
0020
0230
2300
3002
,
0103
0000
0001
0010
0001
0010
0001
0010
,
0011
1100
0101
1100
,
1001
0000
1000
0100
0010
0000
0001
0100
,
0010
0000
1000
0001
1000
0000
0100
0010
,
0002
2003
3002
0023
,
0230
0000
0000
0000
,
0000
0000
0000
0000
,
0000
0000
0000
0000
,
0000
0000
0000
0300
;

//---------------dance-single - ----------------
#NOTEDATA:;
#CHARTNAME:;
#STEPSTYPE:dance-single;
#DESCRIPTION:;
#CHARTSTYLE:;
#DIFFICULTY:Easy;
#METER:6;
#RADARVALUES:0.309168,0.373601,0.223881,0.233209,0.000000,232.000000,208.000000,24.000000,25.000000,0.000000,0.000000,0.000000,0.000000,0.000000,0.309168,0.373601,0.223881,0.233209,0.000000,232.000000,208.000000,24.000000,25.000000,0.000000,0.000000,0.000000,0.000000,0.000000;
#CREDIT:;
#DISPLAYBPM:150.000000;
#NOTES:
0000
0000
0000
0000
,
0000
0000
0000
0000
,
0000
0000
0000
0000
,
0000
0000
0000
0000
,
2100
0000
0001
0000
,
0100
0000
3001
1000
,
0201
0000
0310
0000
,
2010
0000
3001
0100
,
2001
0000
0010
0000
,
0001
0000
3100
0000
,
1001
0100
0010
0100
,
0010
1000
0001
0010
,
0001
0100
0001
0010
,
0100
1000
0010
0100
,
2010
0000
0001
3001
,
0012
0000
0100
0103
,
0110
0000
1001
0000
,
1000
1000
0001
0001
,
2002
0000
0000
0000
,
0000
0003
0001
0100
,
0010
0010
0010
3010
,
1000
1000
1000
1000
,
0001
0001
0001
0001
,
1000
0001
1000
0001
,
0100
0010
0100
0001
,
0100
0010
1000
0100
,
0010
0010
0001
0001
,
1000
0001
1000
0100
,
0010
0010
0010
0010
,
0022
0030
1000
0103
,
1000
1000
0001
0001
,
2020
3000
0100
1030
,
0010
0010
0100
0100
,
0202
0003
0010
0301
,
1000
1000
0100
0100
,
2200
3000
0001
1300
,
0100
1000
0001
0100
,
0010
1000
0010
1000
,
0001
0010
0001
0010
,
0100
0010
0001
1000
,
0001
0100
0010
1000
,
0100
0100
1000
0001
,
0100
1001
0010
0100
,
0010
0010
1000
1000
,
0001
0010
0001
0100
,
0010
1001
0100
0100
,
0010
0010
1000
0100
,
1000
0001
0010
0100
,
1000
1000
0101
0000
,
1000
1000
0101
0000
,
1001
0010
1001
0100
,
0001
0010
0001
0100
,
2020
3000
0001
0130
,
0010
0010
1000
1000
,
0202
0300
0010
0103
,
0001
0001
0010
0010
,
0022
0003
1000
0031
,
0100
0100
0010
0010
,
2020
0030
0100
3001
,
1000
0001
1000
0100
,
0010
0001
1000
0001
,
0100
0010
0100
0001
,
1000
1000
0001
0001
,
0200
0000
0000
0000
,
0000
0000
0000
0000
,
0000
0000
0000
0000
,
0000
0000
0000
0300
;

//---------------dance-single - ----------------
#NOTEDATA:;
#CHARTNAME:;
#STEPSTYPE:dance-single;
#DESCRIPTION:;
#CHARTSTYLE:;
#DIFFICULTY:Beginner;
#METER:3;
#RADARVALUES:0.149254,0.217934,0.102612,0.009328,0.000000,112.000000,101.000000,11.000000,1.000000,0.000000,0.000000,0.000000,0.000000,0.000000,0.149254,0.217934,0.102612,0.009328,0.000000,112.000000,101.000000,11.000000,1.000000,0.000000,0.000000,0.000000,0.000000,0.000000;
#CREDIT:;
#DISPLAYBPM:150.000000;
#NOTES:
// measure 0
0000
0000
0000
0000
,  // measure 1
0000
0000
0000
0000
,  // measure 2
0000
0000
0000
0000
,  // measure 3
0000
0000
0000
0000
,  // measure 4
1001
0000
0000
0000
,  // measure 5
0000
0000
0000
0000
,  // measure 6
0110
0000
0000
0000
,  // measure 7
1001
0000
0000
0000
,  // measure 8
0110
0000
0000
0000
,  // measure 9
0000
0000
0000
0000
,  // measure 10
1000
0000
1000
0000
,  // measure 11
1000
0000
1000
0000
,  // measure 12
0001
0000
0001
0000
,  // measure 13
0001
0000
0001
0000
,  // measure 14
1001
0000
0000
0000
,  // measure 15
0110
0000
0000
0000
,  // measure 16
1000
0000
0001
0000
,  // measure 17
0100
0100
0100
0000
,  // measure 18
1001
0000
0000
0000
,  // measure 19
0000
0000
0000
0000
,  // measure 20
0000
0000
0000
0000
,  // measure 21
0010
0000
0000
0000
,  // measure 22
1000
0000
0000
0000
,  // measure 23
0100
0100
0100
0100
,  // measure 24
0100
0000
0010
0000
,  // measure 25
0001
0000
1000
0000
,  // measure 26
0001
0000
0100
0000
,  // measure 27
0010
0000
1000
0000
,  // measure 28
0001
0001
0001
0000
,  // measure 29
0110
0000
0000
0000
,  // measure 30
1000
0000
0010
0000
,  // measure 31
0100
0000
0000
0000
,  // measure 32
0001
0000
1000
0000
,  // measure 33
0010
0000
0000
0000
,  // measure 34
0100
0000
0001
0000
,  // measure 35
0010
0000
0000
0000
,  // measure 36
0100
0000
1000
0000
,  // measure 37
0001
0000
0001
0000
,  // measure 38
1000
0000
1000
0000
,  // measure 39
0001
0000
1000
0000
,  // measure 40
0010
0000
0100
0000
,  // measure 41
0001
0000
1000
0000
,  // measure 42
0010
0000
0100
0000
,  // measure 43
0010
0000
1000
0000
,  // measure 44
0100
0000
0010
0000
,  // measure 45
0001
0000
0100
0000
,  // measure 46
0001
0000
1000
0000
,  // measure 47
0010
0000
0010
0000
,  // measure 48
1000
0000
1001
0000
,  // measure 49
0001
0000
1001
0000
,  // measure 50
0100
0000
0010
0000
,  // measure 51
1000
1000
1000
0000
,  // measure 52
0110
0000
0000
0000
,  // measure 53
0001
0000
0010
0000
,  // measure 54
0100
0000
0000
0000
,  // measure 55
1000
0000
0001
0000
,  // measure 56
0100
0000
0000
0000
,  // measure 57
0001
0000
1000
0000
,  // measure 58
0010
0000
0000
0000
,  // measure 59
1000
1000
1000
1000
,  // measure 60
1000
0000
0001
0000
,  // measure 61
0010
0000
0001
0000
,  // measure 62
0100
0000
0010
0000
,  // measure 63
0200
0000
0000
0000
,  // measure 64
0000
0000
0000
0000
,  // measure 65
0000
0000
0000
0000
,  // measure 66
0000
0000
0000
0300
;
