#TITLE:Utakata no Shirabe;
#SUBTITLE:;
#ARTIST:Layla Ayla;
#TITLETRANSLIT:;
#SUBTITLETRANSLIT:;
#ARTISTTRANSLIT:;
#GENRE:;
#CREDIT:;
#BANNER:Utakata no Shirabe-bn.png;
#BACKGROUND:Utakata no Shirabe-bg.png;
#LYRICSPATH:;
#CDTITLE:;
#MUSIC:Utakata no Shirabe.ogg;
#OFFSET:0.000000;
#SAMPLESTART:68.570999;
#SAMPLELENGTH:20.000000;
#SELECTABLE:YES;
#DISPLAYBPM:112.000000;
#BPMS:0.000000=112.000000
;
#STOPS:
;
#BGCHANGES:;
#KEYSOUNDS:;
#ATTACKS:;

//---------------dance-single - ----------------
#NOTES:
     dance-single:
     :
     Hard:
     10:
     0.411634,0.371472,0.031151,0.140178,0.198586,370.000000,366.000000,4.000000,18.000000,0.000000,0.000000,0.411634,0.371472,0.031151,0.140178,0.198586,370.000000,366.000000,4.000000,18.000000,0.000000,0.000000:
0000
0000
0000
0000
,
0000
0000
0000
0000
,
0000
0000
0000
0000
,
0000
0000
0000
0000
,
1000
0000
0010
0000
0100
0000
0001
0010
0000
0000
0100
0000
0000
0000
0000
0000
,
0010
0000
0001
0000
1000
0000
0010
1000
0000
0000
0100
0000
0000
0000
0000
0000
,
0001
0000
1000
0000
0100
0000
0010
0001
0000
0000
1000
0000
0000
0000
0000
0000
,
0001
1000
0001
0000
0100
0000
0010
0000
1000
0000
0010
0100
0000
0000
0000
0000
,
0001
0000
0010
0000
0100
0000
1000
0000
0010
0000
0000
0100
0000
0000
0001
0000
,
0010
0000
0001
0000
1000
0000
0010
0000
1000
0000
0000
0100
0000
0000
0001
0000
,
1000
0000
0001
0000
0010
0000
0001
0000
0100
0000
0000
0010
0000
0000
1000
0000
,
0100
0000
1000
0000
0001
0000
1000
0000
0100
0000
0000
0010
0000
0000
0001
0000
,
1000
0000
0001
0000
0010
0000
0100
0000
1000
0000
0000
0001
0000
0000
0100
0000
,
0001
0000
0010
0000
0001
0000
0100
0000
0010
0000
0000
1000
0000
0000
0100
0000
,
1000
0000
0001
0000
0010
0000
0100
0000
1000
0000
0000
0010
0000
0000
0001
0000
,
0100
0000
0010
0000
0100
0000
0001
0000
1000
0000
0000
0010
0000
0000
0000
0000
,
1000
0000
0000
0001
0000
0000
0100
0000
0020
0000
1000
0000
1000
0000
0000
0000
,
0100
0000
0100
0000
0100
0000
0000
0000
1030
0000
0000
0001
0000
0000
1000
0000
,
0100
0000
0020
0000
0000
0000
0031
0000
1000
0000
0000
0001
0000
0000
0200
0000
,
0010
0000
0010
0000
0010
0000
0000
0000
0001
0000
0000
0001
0000
0000
0000
0000
,
0301
0000
0000
0010
0000
0000
0100
0000
2000
0000
0001
0000
0001
0000
0000
0000
,
0100
0000
0100
0000
0100
0000
0000
0000
3010
0000
0000
1000
0000
0000
0001
0000
,
0010
0000
0200
0000
0000
0000
1300
0000
0001
0000
0000
1000
0000
0000
0020
0000
,
0100
0000
0100
0000
0100
0000
0000
0000
1000
0000
0000
1000
0000
0000
0000
0000
,
1030
0000
0001
0000
1000
0000
0010
0000
0200
0000
0000
0001
0000
0000
1000
0000
,
0000
0000
0010
0000
0310
0000
1000
0000
0001
0000
0000
1000
0000
0000
0100
0000
,
0010
0000
0002
0000
0100
0000
0000
0000
1003
0000
0000
0001
0000
0000
0020
0000
,
1000
0000
1000
0000
1000
0000
0000
0000
0100
0000
0000
0100
0000
0000
0001
0000
,
0031
0000
1000
0000
0100
0000
0010
0000
0002
0000
0000
0100
0000
0000
0010
0000
,
0000
0000
1000
0000
1003
0000
0001
0000
0010
0000
0000
0001
0000
0000
0100
0000
,
0001
0000
2000
0000
0100
0000
0000
0000
3010
0000
0000
1000
0000
0000
0020
0000
,
0001
0000
0001
0000
0001
0000
0000
0000
1000
0000
0000
1030
0000
0000
0000
0000
,
1001
0000
0010
0000
0100
0000
0001
0000
1000
0000
0000
0100
0000
0000
1000
0000
,
0010
0000
1000
0000
0010
0000
0100
0000
0001
0000
0000
1000
0000
0000
0100
0000
,
1000
0000
0010
0000
1000
0000
0100
0000
0010
0000
0000
0001
0000
0000
0001
0000
,
1000
0000
0000
0001
0000
0000
0010
0000
0200
0000
0000
0000
1300
0000
0000
0000
,
0110
0000
0001
0000
0100
0000
0010
0000
1000
0000
0000
0100
0000
0000
0001
0000
,
1000
0000
0001
0000
0010
0000
0100
0000
0010
0000
0000
0001
0000
0000
1000
0000
,
0100
0000
1000
0000
0010
0000
0100
0000
0010
0000
0000
1000
0000
0000
0001
0000
,
0010
0000
0000
0001
0000
0000
1000
0000
0020
0000
0000
0000
0130
0000
0000
0000
,
0101
0000
1000
0000
0001
0000
0010
0000
0001
0000
0000
0100
0000
0000
0010
0000
,
1000
0000
0100
0000
0010
0000
0100
0000
0010
0000
0000
0001
0000
0000
1000
0000
,
0010
0000
1000
0000
0001
0000
0010
0000
0001
0000
0000
0100
0000
0000
0100
0000
,
0010
1000
0100
0010
0002
0000
1003
0000
,
1100
0000
0100
0000
0010
0000
0001
0000
0100
0000
0000
0010
0000
0000
1000
0000
,
0001
0000
1000
0000
0001
0000
0010
0000
0100
0000
0000
0100
0000
0000
1000
0000
,
0010
0000
0100
0000
0010
0000
1000
0000
0100
0000
0000
1000
0000
0000
0001
0000
,
0010
0001
1000
0100
2000
0000
3010
0000
,
1000
0000
0010
0000
0100
0000
0010
0000
1000
0000
0000
0001
0000
0000
0100
0000
,
0001
0000
0010
0000
0001
0000
0100
0000
1000
0000
0000
1000
0000
0000
0010
0000
,
1000
0000
0001
0000
0010
0000
0001
0000
0100
0000
0000
0100
0000
0000
0010
0000
,
0100
0000
0010
0000
1000
0000
0100
0000
1000
0000
0000
0001
0000
0000
0010
0000
,
0001
0000
1000
0000
0010
0000
0100
0000
0001
0000
0000
0010
0000
0000
1000
0000
,
0100
0000
0010
0000
0001
0000
0100
0000
0001
0000
0000
1000
0000
0000
1000
0000
,
0001
0000
0010
0000
0100
0000
0010
0000
0100
0000
0000
1000
0000
0000
1000
0000
,
0001
0000
1000
0000
0010
0000
1000
0000
0100
0000
0000
0010
0000
0000
0100
0000
,
1000
0010
0100
0010
0100
0010
1000
0002
,
0000
0013
0001
0100
0001
1000
0001
1000
,
0100
0010
0100
1000
0010
0100
0001
2000
,
0000
3100
1000
0001
1000
0001
0000
0000
;

//---------------dance-single - ----------------
#NOTES:
     dance-single:
     :
     Medium:
     8:
     0.275906,0.301821,0.031151,0.342658,0.077877,248.000000,244.000000,4.000000,44.000000,0.000000,0.000000,0.275906,0.301821,0.031151,0.342658,0.077877,248.000000,244.000000,4.000000,44.000000,0.000000,0.000000:
0000
0000
0000
0000
,
0000
0000
0000
0000
,
0000
0000
0000
0000
,
0000
0000
0000
0000
,
1000
0000
0000
0000
0001
0000
0000
0100
0000
0000
0010
0000
0000
0000
0000
0000
,
0100
0000
0000
0000
0001
0000
0000
1000
0000
0000
0010
0000
0000
0000
0000
0000
,
1000
0000
0000
0000
0100
0000
0000
0010
0000
0000
0001
0000
0000
0000
0000
0000
,
1000
0001
1000
0001
0100
0010
0100
0000
,
0001
1000
0001
0000
0010
0100
0000
0000
,
1000
0010
1000
0000
0001
0100
0000
0000
,
0001
0010
0001
0000
1000
0100
0000
0000
,
1000
0010
1000
0000
0001
0010
0000
0000
,
0001
0100
0001
0000
1000
0100
0000
0000
,
1000
0010
1000
0000
0010
0100
0000
0000
,
0001
0010
0001
0000
0100
0010
0000
0000
,
1000
0001
1000
0000
0100
0010
0000
0000
,
0001
0000
0000
1000
0000
0000
0010
0000
0200
0000
0000
0000
0000
0000
0000
0000
,
0000
0000
0000
0000
0000
0000
0000
0000
0310
0000
0000
0100
0000
0000
0001
0000
,
1000
0000
0002
0000
0000
0000
0000
0000
0013
0000
0000
0100
0000
0000
2000
0000
,
0000
0000
0000
3000
,
1000
0000
0000
0001
0000
0000
0100
0000
0020
0000
0000
0000
0000
0000
0000
0000
,
0000
0000
0000
0000
0000
0000
0000
0000
0130
0000
0000
0001
0000
0000
1000
0000
,
0001
0000
2000
0000
0000
0000
0000
0000
3100
0000
0000
0010
0000
0000
0002
0000
,
0000
0000
0000
0003
,
0010
0000
0000
0001
0000
0000
1000
0000
0200
0000
0000
0000
0000
0000
0000
0000
,
0000
0000
0000
0000
0000
0000
0000
0000
1300
0300
0000
0001
0000
0000
0100
0000
,
0001
0000
0020
0000
0000
0000
0000
0000
0031
0000
0000
1000
0000
0000
0200
0000
,
0000
0000
0000
0300
,
1000
0000
0000
0010
0000
0000
0100
0000
0002
0000
0000
0000
0000
0000
0000
0000
,
0000
0000
0000
0000
0000
0000
0000
0000
0103
0000
0000
0010
0000
0000
1000
0000
,
0100
0000
2000
0000
0000
0000
0000
0000
3010
0000
0000
1000
0000
0000
0002
0000
,
0000
0000
0000
0003
,
2000
0001
0001
0000
0100
0000
3020
0000
,
0230
0010
0010
0000
0302
0000
1003
0000
,
0200
0001
0001
0000
0010
0000
2300
0000
,
3001
0000
0000
1000
0000
0000
0001
0000
0100
0000
0000
0000
0110
0000
0000
0000
,
0020
0100
0100
0000
0001
0000
2030
0000
,
3002
0010
0010
0000
0203
0000
0301
0000
,
0200
1000
1000
0000
0010
0000
0302
0000
,
0013
0000
0000
0001
0000
0000
1000
0000
0100
0000
0000
0000
1100
0000
0000
0000
,
2000
0010
0010
0000
0001
0000
3200
0000
,
0320
0001
0001
0000
0230
0000
0310
0000
,
0002
0100
0100
0000
1000
0000
0023
0000
,
0031
0000
0000
0010
0000
0000
0100
0000
1000
0000
0000
0000
1001
0000
0000
0000
,
0002
1000
1000
0000
0100
0000
0023
0000
,
0230
0010
0010
0000
1000
2300
0001
0000
,
3020
0100
0100
0000
0001
0000
2030
0000
,
3010
0000
0000
1000
0000
0000
0001
0000
0100
0000
0000
0000
0101
0000
0000
0000
,
0002
0010
0010
0000
1000
1000
0000
0000
,
0100
0100
0100
0000
1000
1000
0003
0000
,
0001
1000
0100
0000
1000
0001
0000
0000
,
0010
0001
0100
0000
0001
0010
0000
0000
,
0100
0010
1000
0000
0010
0100
0000
0000
,
0010
1000
0001
0000
1000
0010
0000
0000
,
1000
0100
0010
0000
0001
1000
0000
0000
,
0001
1000
0010
0000
1000
0100
0000
0000
,
2000
0000
3020
0000
0130
0010
0000
0200
,
0000
0302
1000
0103
,
0002
0000
2003
0000
3010
1000
0000
0020
,
0000
0000
0130
0000
0001
1000
0000
0000
;

//---------------dance-single - ----------------
#NOTES:
     dance-single:
     :
     Easy:
     4:
     0.166879,0.208515,0.031151,0.186904,0.000000,150.000000,146.000000,4.000000,24.000000,0.000000,0.000000,0.166879,0.208515,0.031151,0.186904,0.000000,150.000000,146.000000,4.000000,24.000000,0.000000,0.000000:
0000
0000
0000
0000
,
0000
0000
0000
0000
,
0000
0000
0000
0000
,
0000
0000
0000
0000
,
1000
0000
0001
0000
,
0010
0000
0100
0000
,
0010
0000
0001
0000
,
1000
0001
0100
1001
,
0010
1000
0100
0000
,
0010
0001
0100
0000
,
0001
0010
1000
0000
,
0100
1000
0001
0000
,
1000
0010
1000
0000
,
0001
0010
0001
0000
,
0100
0001
0100
0000
,
1000
0100
1000
0000
,
0001
0010
0200
0000
,
0000
0300
1000
0001
,
0100
0300
0010
1000
,
0002
0000
0000
0003
,
0010
0001
2000
0000
,
0000
3000
0010
1000
,
0100
0000
1000
0100
,
0020
0000
0000
0030
,
0001
1000
0002
0000
,
0000
0003
0010
0100
,
1000
0000
0001
0100
,
0020
0000
0000
0030
,
0100
0001
0200
0000
,
0000
0300
0010
1000
,
0100
0000
1000
0001
,
2000
0000
0000
3000
,
0002
0000
0000
1003
,
0020
0000
0200
0330
,
2000
0000
0000
3100
,
1000
0001
0100
0110
,
0020
0000
0000
0130
,
0002
0000
2000
3003
,
0200
0000
0000
0310
,
0100
1000
0001
1001
,
2000
0000
0000
3010
,
0200
0000
0002
0303
,
0020
0000
0000
0031
,
0010
0100
1000
0110
,
0002
0000
0000
0103
,
2000
0000
0200
3300
,
0020
0000
0000
1030
,
0001
0010
0100
1000
,
0010
1000
0010
0000
,
1000
0001
1000
0000
,
0001
0010
0001
0000
,
0100
0010
0100
0000
,
0100
0001
0100
0000
,
1000
0100
1000
0000
,
0001
0010
1000
0000
,
0010
0100
0001
0000
,
1000
1000
1000
0000
,
0010
0010
0010
0000
,
0100
0100
0100
0000
,
0001
0001
0001
0000
;

//---------------dance-single - ----------------
#NOTES:
     dance-single:
     :
     Beginner:
     1:
     0.072314,0.092673,0.000000,0.000000,0.000000,65.000000,65.000000,0.000000,0.000000,0.000000,0.000000,0.072314,0.092673,0.000000,0.000000,0.000000,65.000000,65.000000,0.000000,0.000000,0.000000,0.000000:
0000
0000
0000
0000
,
0000
0000
0000
0000
,
0000
0000
0000
0000
,
0000
0000
0000
0000
,
1000
0000
0000
0000
,
0010
0000
0000
0000
,
0100
0000
0000
0000
,
0001
0000
0000
0000
,
0010
0000
0000
0000
,
0100
0000
0000
0000
,
1000
0000
0000
0000
,
0001
0000
0000
0000
,
0100
0000
0000
0000
,
0010
0000
0000
0000
,
1000
0000
0000
0000
,
0001
0000
0000
0000
,
1000
0000
1000
0000
,
0000
0000
0000
0000
,
0010
0000
0100
0000
,
0001
0000
0000
0000
,
0100
0000
0100
0000
,
0000
0000
0000
0000
,
0001
0000
0010
0000
,
1000
0000
0000
0000
,
0010
0000
0010
0000
,
0000
0000
0000
0000
,
1000
0000
0001
0000
,
0100
0000
0000
0000
,
0001
0000
0001
0000
,
0000
0000
0000
0000
,
1000
0000
0100
0000
,
0010
0000
0000
0000
,
0001
0000
0000
0000
,
1000
0000
0000
0000
,
0010
0000
0000
0000
,
0100
0000
0100
0000
,
0100
0000
0000
0000
,
1000
0000
0000
0000
,
0001
0000
0000
0000
,
0010
0000
0010
0000
,
0010
0000
0000
0000
,
0001
0000
0000
0000
,
0100
0000
0000
0000
,
1000
0000
1000
0000
,
1000
0000
0000
0000
,
0010
0000
0000
0000
,
0100
0000
0000
0000
,
0001
0000
0001
0000
,
0001
0000
0000
0000
,
0010
0000
0000
0000
,
0100
0000
0000
0000
,
1000
0000
0000
0000
,
0010
0000
0000
0000
,
1000
0000
0000
0000
,
0001
0000
0000
0000
,
0100
0000
0000
0000
,
0001
0000
0000
0000
,
0100
0000
0000
0000
,
0010
0000
0000
0000
,
1000
0000
0001
0000
;

//---------------dance-single - ----------------
#NOTES:
     dance-single:
     :
     Challenge:
     13:
     0.521774,0.464340,0.155754,0.249206,0.358233,469.000000,449.000000,20.000000,32.000000,0.000000,0.000000,0.521774,0.464340,0.155754,0.249206,0.358233,469.000000,449.000000,20.000000,32.000000,0.000000,0.000000:
// measure 0
0000
0000
0000
0000
,  // measure 1
0000
0000
0000
0000
,  // measure 2
0000
0000
0000
0000
,  // measure 3
0000
0000
0000
0000
,  // measure 4
1000
0000
0010
0000
0100
0000
0001
1000
0000
0001
2000
0000
0000
0000
0000
0000
,  // measure 5
3100
0000
1000
0000
0001
0000
0100
0010
0000
0100
0020
0000
0000
0000
0000
0000
,  // measure 6
1030
0000
0010
0000
1000
0000
0001
0100
0000
0001
0200
0000
0000
0000
0000
0000
,  // measure 7
0310
0100
0001
0000
0001
0000
1000
0100
1000
0010
0100
0002
0000
0000
0000
0000
,  // measure 8
0013
0000
0001
0000
0100
0000
0010
0000
1000
0000
0100
1000
0000
1000
0001
0000
,  // measure 9
0010
0000
0001
0000
1000
0000
0001
0000
1000
0000
0010
0100
0000
0100
0001
0000
,  // measure 10
1000
0000
0010
0000
0100
0000
0001
0000
0010
0000
0100
1000
0000
1000
0001
0000
,  // measure 11
1000
0000
0001
0000
1000
0000
0010
0000
0100
0000
0001
0010
0000
0010
0100
0000
,  // measure 12
1000
0000
0001
0000
1000
0000
0010
0000
1000
0000
0001
0100
0000
0100
0010
0000
,  // measure 13
0100
0000
0001
0000
0010
0000
0100
0000
1000
0000
0001
1000
0000
1000
0010
0000
,  // measure 14
0100
0000
0010
0000
0100
0000
0001
0000
1000
0000
0001
1000
0000
1000
0010
0000
,  // measure 15
0100
0001
0010
0100
1000
0010
0001
0000
,  // measure 16
0100
0000
0010
1000
0000
0010
1000
0000
0002
0000
0000
0100
0000
0000
1000
0000
,  // measure 17
0013
0000
0001
0000
0100
0000
0010
0000
1000
0100
0000
1000
0001
0000
1000
0000
,  // measure 18
0010
0000
0100
0000
0001
0000
1000
0000
1100
0000
0000
0110
0000
0000
0012
0000
,  // measure 19
1000
0000
0100
0000
0100
0000
0000
1000
0000
0000
0010
0000
0013
0000
0000
0000
,  // measure 20
0001
0000
1000
0010
0000
1000
0100
0000
0020
0000
0000
0001
0000
0000
0100
0000
,  // measure 21
0130
0000
0010
0000
1000
0000
0100
0000
1000
0001
0000
0001
0010
0000
0100
0000
,  // measure 22
1000
0000
0001
0000
0100
0000
0010
0000
1010
0000
0000
1001
0000
0000
0201
0000
,  // measure 23
0010
0000
1000
0000
1000
0000
0000
0010
0000
0000
0001
0000
0301
0000
0000
0000
,  // measure 24
0100
0000
0001
0010
0000
0010
0001
0000
2000
0000
0000
0100
0000
0000
0001
0000
,  // measure 25
3100
0000
1000
0000
0010
0000
0100
0000
0001
0010
0000
0010
0001
0000
1000
0000
,  // measure 26
0100
0000
0010
0000
0001
0000
1000
0000
1010
0000
0000
1001
0000
0000
0021
0000
,  // measure 27
0001
0000
1000
0000
1000
0000
0000
0001
0000
0000
0100
0000
0130
0000
0000
0000
,  // measure 28
0010
0000
0001
0100
0000
0010
1000
0000
0002
0000
0000
1000
0000
0000
0100
0000
,  // measure 29
0013
0000
0001
0000
0100
0000
0010
0000
1000
0001
0000
0001
1000
0000
0100
0000
,  // measure 30
0010
0000
0001
0000
1000
0000
0100
0000
1100
0000
0000
0101
0000
0000
0210
0000
,  // measure 31
1000
0000
0001
0000
0001
0000
0000
1000
0000
0000
0010
0000
0310
0000
0000
0000
,  // measure 32
1000
0000
0001
0000
0010
0000
0001
0000
0100
0000
0010
1000
0000
0010
0100
0000
,  // measure 33
0001
0000
0010
0000
0100
0000
1000
0000
0001
0000
1000
0100
0000
1000
0001
0000
,  // measure 34
0010
0001
0100
0010
1000
0100
0001
0000
,  // measure 35
1000
0000
0010
0100
0000
0100
0001
0000
0011
0000
0000
0000
1100
0000
0000
0000
,  // measure 36
0001
0000
0010
0000
0001
0000
0100
0000
0010
0000
1000
0100
0000
0100
1000
0000
,  // measure 37
0010
0000
1000
0000
0001
0000
0100
0000
0010
0000
1000
0100
0000
1000
0010
0000
,  // measure 38
1000
0001
0010
0100
1000
0001
0010
0000
,  // measure 39
0001
0000
1000
0010
0000
0010
0100
0000
0101
0000
0000
0000
1010
0000
0000
0000
,  // measure 40
0100
0000
1000
0000
0100
0000
0010
0000
0001
0000
0010
0001
0000
1000
0010
0000
,  // measure 41
0100
0000
0001
0000
1000
0000
0010
0000
1000
0000
0001
0010
0000
0001
1000
0000
,  // measure 42
0001
0100
0010
0100
0001
0010
1000
0000
,  // measure 43
0100
0000
1000
0001
0000
0001
0100
0000
0101
0000
0000
0000
1100
0000
0000
0000
,  // measure 44
0010
0000
0001
0000
0100
0000
0001
0000
1000
0000
0010
0100
0000
0001
1000
0000
,  // measure 45
0100
0000
0010
0000
0001
0000
1000
0000
0001
0000
0100
0010
0000
0100
0001
0000
,  // measure 46
0010
0001
1000
0010
0100
0001
0100
0000
,  // measure 47
0010
0000
0100
0001
0000
0001
1000
0000
1010
0000
0000
0000
0011
0000
0000
0000
,  // measure 48
0001
0000
1000
0000
0010
0000
1000
0000
0100
0000
0010
0001
0000
0001
1000
0000
,  // measure 49
0010
0000
0100
0000
0010
0000
1000
0000
0100
0000
1000
0001
0000
0010
0100
0000
,  // measure 50
0010
0000
0001
0000
0100
0000
0010
0000
0100
0000
0001
1000
0000
0100
1000
0000
,  // measure 51
0100
0000
0010
0000
0100
0000
1000
0000
0010
0000
0100
0001
0000
1000
0001
0000
,  // measure 52
0010
0000
0001
0000
0100
0000
0001
0000
1000
0000
0010
0100
0000
0010
0100
0000
,  // measure 53
0010
0000
1000
0000
0100
0000
0010
0000
0001
0000
0100
0010
0000
1000
0100
0000
,  // measure 54
0010
0000
0001
0000
0100
0000
0010
0000
1000
0000
0001
0010
0000
0001
0100
0000
,  // measure 55
0001
0000
0010
0000
0100
0000
1000
0000
0010
0000
0100
0001
0000
1000
0100
0000
,  // measure 56
2000
3020
3230
0302
0013
0010
0001
0200
,  // measure 57
0000
0302
0023
0032
0203
0320
2030
3200
,  // measure 58
2300
3002
0203
0320
1030
1000
0100
0020
,  // measure 59
0000
0001
0032
2003
3200
1300
0000
0000
;
