#TITLE:Uptown Funk;
#SUBTITLE:;
#ARTIST:Mark Ronson ft. Bruno Mars;
#TITLETRANSLIT:;
#SUBTITLETRANSLIT:;
#ARTISTTRANSLIT:;
#GENRE:;
#CREDIT:;
#BANNER:Uptown Funk.png;
#BACKGROUND:Uptown Funk-bg.png;
#LYRICSPATH:;
#CDTITLE:;
#MUSIC:Uptown Funk.ogg;
#OFFSET:0.000000;
#SAMPLESTART:50.087002;
#SAMPLELENGTH:20.000000;
#SELECTABLE:YES;
#DISPLAYBPM:115.000000;
#BPMS:0.000000=115.000000
;
#STOPS:
;
#BGCHANGES:;
#KEYSOUNDS:;
#ATTACKS:;

//---------------dance-single - ----------------
#NOTES:
     dance-single:
     :
     Hard:
     12:
     0.505753,0.616571,0.420705,0.325451,0.373078,446.000000,393.000000,53.000000,41.000000,0.000000,0.000000,0.505753,0.616571,0.420705,0.325451,0.373078,446.000000,393.000000,53.000000,41.000000,0.000000,0.000000:
0000
0000
0000
0000
,
0000
0000
0000
0000
,
0010
0000
1001
0000
0000
0000
0110
0100
,
0002
0000
0000
0010
0000
0000
0103
0000
2000
0000
0000
0010
0000
0000
3100
0000
,
0001
0000
0000
0001
0000
0000
0000
0001
1000
0000
0000
1000
0000
0000
0000
0010
,
0100
0000
0000
0100
0000
0000
0100
0000
0000
0000
0202
0000
0303
0000
1000
0001
,
1000
0000
0000
1000
0000
0000
0000
1000
0001
0000
0000
0001
0000
0000
0000
0100
,
0010
0000
0000
0010
0000
0000
0010
0000
2000
0030
0000
0000
3001
0100
0000
0000
,
0010
0000
0000
1000
0000
0000
0001
0000
0010
0000
0000
0100
0000
0000
1000
0000
,
0001
0000
0000
0100
0000
0000
0010
0000
1000
0000
0000
1100
0000
0000
0000
0000
,
0001
0000
0000
1000
0000
0000
0100
0000
0010
0000
0000
0100
0000
0000
0010
0000
,
0001
0000
0000
0100
0000
0000
1000
0000
0010
0000
0100
0001
0000
0000
0000
0000
,
2010
0000
0000
3010
0000
0000
0000
0000
0012
0000
0000
0103
0000
0000
0000
0000
,
0001
0000
1000
0010
0000
1000
0010
0000
0100
0001
0000
0000
0000
0000
0100
0000
,
0010
0000
0000
1001
0000
0000
0001
0000
0100
0000
0000
0010
0000
0000
1000
0000
,
0100
0000
0010
0001
0000
0010
0001
0000
1000
0100
0000
0000
0000
0000
1100
0000
,
0101
0000
1000
0000
1000
0000
1100
0000
0101
0000
0000
0000
0000
0000
0001
1000
,
0002
0000
0000
1000
0000
0000
0103
0000
2000
0000
0000
3001
0000
0000
0011
0000
,
1010
0000
0001
0000
0001
0000
0011
0000
1010
0000
0000
0000
0000
0000
0010
0100
,
0020
0000
0000
1000
0000
0000
0130
0000
2000
0000
0000
3010
0000
0000
1010
0000
,
0011
1000
1000
1010
0011
0000
0000
0000
,
0100
0010
1000
0001
0010
0001
0100
0101
,
1100
0000
0001
0000
0001
0000
0101
0000
1100
0000
0000
0000
0000
0000
0010
1000
,
0020
0000
0000
0230
0000
0000
0301
0000
1000
0000
0100
0010
0100
0000
0000
0000
,
0010
0000
0010
0000
0010
0100
1001
0000
,
0010
0000
0010
0000
0010
0100
1001
0000
,
0010
0000
0010
0000
0010
0100
1001
0000
,
0010
0000
0100
0000
0010
0000
0100
0000
0001
1000
3001
1000
0002
0000
0000
0000
,
0013
0100
0001
0100
0010
0100
0001
0100
,
0010
1000
0100
1000
0010
1000
0100
1000
,
0001
0000
0010
0100
0000
0100
1000
0000
0001
0000
0010
0000
1000
0000
0000
0000
,
0100
0000
1000
0001
0000
1000
0001
0000
0100
0000
0000
0000
0010
0100
0000
0000
,
0001
0000
1000
0100
0000
0000
0010
0000
0001
1000
0000
0000
0001
0000
0100
0010
,
0000
0000
0110
0000
0001
0000
1000
0000
1000
0000
0000
0000
0010
0100
0010
0130
,
0001
0000
0000
0010
0000
0000
0001
0000
1000
0000
0000
0010
0000
0000
0100
0000
,
0010
0000
1000
0001
0000
1000
0001
0000
0100
0000
1010
0000
1010
0000
1010
0000
,
0100
0000
0001
1000
0000
0000
0100
0000
0010
0001
0000
0000
0100
0000
0010
1000
,
0000
0000
0110
0000
0001
0000
1000
0000
1000
0000
0000
0000
0100
0010
0100
0310
,
0001
0000
0000
1000
0000
0000
0100
0000
0010
0000
0000
0001
0000
0000
0100
0000
,
1000
0000
0010
0100
0000
0010
0100
0000
0001
0000
1100
0000
1100
3300
1100
0000
,
0001
0000
1000
0100
0000
1000
0100
0000
0010
0000
0011
0000
0011
0000
0011
0000
,
0100
0000
0001
0010
0000
0001
0010
0000
1000
0000
0101
0000
0101
0000
0101
0000
,
1000
0000
0001
0100
0000
0001
0100
0000
0010
0000
0110
0000
0110
0000
0110
0000
,
1000
1000
0001
0001
0100
1002
0203
0000
,
0320
0000
0000
0000
0230
0000
0000
0000
0301
0000
1000
0010
0000
0000
0000
0000
,
0010
0000
0100
0000
0100
0000
0001
1000
0000
0000
1100
0000
0000
0000
0011
0000
,
0020
0000
0000
0000
0230
0000
0000
0000
1300
0000
0001
0010
0000
0000
0000
0000
,
0010
0000
0100
0000
0100
0000
1000
0000
0001
1000
0001
2000
0000
0000
3100
0000
,
0020
0000
0000
0000
0230
0000
0000
0000
1300
0000
0100
0010
0000
0000
0000
0000
,
0010
0000
0100
0000
0100
0000
1000
0001
0000
0000
0101
0000
0000
0000
1010
0000
,
0020
0000
0000
0000
0230
0000
0000
0000
0301
0000
0100
0010
0000
0000
0000
0000
,
0020
0000
3230
0000
0302
0000
2003
0000
3020
0000
0230
0000
3301
2000
0000
0000
,
3023
0000
0000
0000
0230
0000
0000
0000
0301
0000
0001
0010
0000
0000
0000
0000
,
0010
0000
0100
0000
0100
0000
0010
0001
0000
0000
1100
0000
0000
0000
0101
0000
,
0020
0000
0000
0000
0230
0000
0000
0000
0310
0000
1000
0010
0000
0000
0000
0000
,
0010
0000
0100
0000
0100
0000
0001
0000
1000
0010
1000
0020
0000
0000
0130
0000
,
0020
0000
0000
0000
0230
0000
0000
0000
0310
0000
0100
0010
0000
0000
0000
0000
,
0010
0000
0100
0000
0100
0000
0001
1000
0000
0000
1010
0000
0000
0000
0011
0000
,
0020
0000
0000
0000
0230
0000
0000
0000
1300
0000
1000
0010
0000
0000
0000
0000
,
1000
0001
1000
0001
0000
0100
0000
0010
0100
0010
0000
0000
1001
0000
0000
0000
;

//---------------dance-single - ----------------
#NOTES:
     dance-single:
     :
     Medium:
     9:
     0.395758,0.403143,0.404829,0.222259,0.000000,349.000000,298.000000,51.000000,28.000000,0.000000,0.000000,0.395758,0.403143,0.404829,0.222259,0.000000,349.000000,298.000000,51.000000,28.000000,0.000000,0.000000:
0000
0000
0000
0000
,
0000
0000
0000
0000
,
0010
1001
0000
0110
,
0002
0103
2000
3100
,
0010
1100
0000
0101
,
2000
3100
0002
0103
,
0010
1010
0000
0011
,
2000
0001
3100
1001
,
0001
0011
1000
1010
,
0001
0000
0100
0010
1000
0000
0110
0000
,
0001
0101
1000
1100
,
0010
0000
1001
0000
1000
0010
0100
0000
,
0001
0101
1000
1010
,
0001
1000
0010
1000
0001
0000
0110
0000
,
1000
1100
0001
0011
,
0100
0010
1000
0010
0100
0000
0000
0001
,
2002
0000
3003
0010
0220
0000
0330
0001
,
1000
0000
0101
0000
0010
0100
0001
1000
,
2200
0000
3300
0001
0022
0000
0033
0100
,
0010
1000
0100
0010
0001
0000
1003
0010
,
2020
0000
3030
0100
0202
0000
0303
0000
,
0001
0010
1000
0000
0100
0010
0001
0000
,
0022
0000
0033
1000
2020
0000
3030
0010
,
0100
0000
1001
0000
0001
1000
0100
0000
,
0010
0010
0010
1001
,
0010
0010
0010
1001
,
0010
0010
0010
1001
,
0010
0000
0010
0000
1000
0001
1001
0000
,
0010
1000
0000
0100
0000
0010
0000
0001
,
0000
0100
0000
0010
0000
1000
0000
0001
,
0010
0001
0100
0000
0010
1000
3100
0000
,
1000
0001
0100
0001
1000
0000
0110
0000
,
0001
0100
0000
0100
0010
0000
0010
1000
,
0000
1100
0000
0001
0000
1000
0010
0100
,
0102
1003
2100
3001
,
0010
0001
0100
0001
1000
0010
0010
0000
,
1000
0100
0000
0100
0010
0000
0010
0001
,
0000
0011
0000
1000
0000
0001
0100
0310
,
2010
0000
3100
0000
0012
0030
0103
0000
,
0001
0010
0100
1000
3010
0100
0100
0000
,
0001
0010
0100
0010
0001
1000
1000
0000
,
0010
1000
0100
1000
0010
0100
0100
0000
,
0001
1000
0010
1000
0001
0100
0100
0101
,
0000
1010
0000
1100
0000
1002
3203
0000
,
0310
0000
0100
0000
0001
1000
3010
0000
,
0010
0100
0001
1000
3010
0000
0101
0000
,
0010
0000
0100
0000
0001
0100
0010
0000
,
0010
0100
0001
0100
0010
1000
0100
0000
,
0010
0000
0100
0000
1000
0001
0010
0000
,
0010
0100
1000
0001
0010
0000
0011
0000
,
0010
0000
0100
0000
1000
0100
0010
0000
,
0010
0100
1000
0001
0010
0001
0200
0000
,
0310
0000
0100
0000
1001
1000
0010
0000
,
0010
0100
0010
1000
0010
0000
1010
0000
,
0010
0000
0100
0000
0110
0100
0010
0000
,
0010
0100
0001
1000
0010
1000
0100
0000
,
0010
0000
0100
0000
1100
1000
0010
0000
,
0010
0100
0001
0100
0010
0000
0110
0000
,
0010
0000
0100
0000
0001
1000
0010
0100
,
0001
0010
0100
1000
0001
0000
1001
0000
;

//---------------dance-single - ----------------
#NOTES:
     dance-single:
     :
     Easy:
     6:
     0.250609,0.284571,0.214321,0.031751,0.000000,221.000000,194.000000,27.000000,4.000000,0.000000,0.000000,0.250609,0.284571,0.214321,0.031751,0.000000,221.000000,194.000000,27.000000,4.000000,0.000000,0.000000:
// measure 0
0000
0000
0000
0000
,  // measure 1
0000
0000
0000
0000
,  // measure 2
0010
0000
0000
0000
,  // measure 3
0002
0103
2000
3100
,  // measure 4
0010
0000
0010
0000
,  // measure 5
0001
1000
0001
0000
,  // measure 6
0100
0000
0100
0000
,  // measure 7
0220
0000
0330
1001
,  // measure 8
0001
0001
1000
1000
,  // measure 9
0010
1000
0100
0000
,  // measure 10
0010
0010
0100
0100
,  // measure 11
1000
0001
1000
0000
,  // measure 12
1100
0000
0101
0000
,  // measure 13
1000
0010
1000
0000
,  // measure 14
0001
0001
0100
0100
,  // measure 15
0010
1000
0100
0000
,  // measure 16
1001
0000
0110
0000
,  // measure 17
0001
0100
0010
1000
,  // measure 18
1100
0000
0101
0000
,  // measure 19
0001
0010
0100
1000
,  // measure 20
1010
0000
0011
0000
,  // measure 21
0001
1000
0100
0010
,  // measure 22
0110
0000
1001
0000
,  // measure 23
0010
1000
0001
0100
,  // measure 24
0010
0010
0010
0000
,  // measure 25
0010
0010
0010
0000
,  // measure 26
0010
0010
0010
0000
,  // measure 27
0010
1000
0100
0000
,  // measure 28
0010
0001
0100
0000
,  // measure 29
0010
1000
0001
0000
,  // measure 30
1000
1000
0001
0001
,  // measure 31
1000
0010
0100
1001
,  // measure 32
0001
0001
1000
0010
,  // measure 33
0100
0001
0100
0010
,  // measure 34
1010
0000
0101
0000
,  // measure 35
0001
1000
0100
0110
,  // measure 36
0010
0001
0100
0001
,  // measure 37
1000
0100
0010
0100
,  // measure 38
1100
0000
0011
0000
,  // measure 39
1000
0001
0100
1001
,  // measure 40
0010
1000
0100
0110
,  // measure 41
0010
0001
0100
1001
,  // measure 42
0001
0100
1000
0110
,  // measure 43
0001
0001
1000
1001
,  // measure 44
0010
0100
0001
0001
,  // measure 45
0010
0100
0010
0000
,  // measure 46
0010
0100
1000
1000
,  // measure 47
0010
0100
0010
0101
,  // measure 48
0010
0100
1000
1000
,  // measure 49
0010
0100
0010
0000
,  // measure 50
0010
0100
0001
0001
,  // measure 51
0010
0100
0010
1010
,  // measure 52
0010
0100
0001
1000
,  // measure 53
0010
0100
0010
0000
,  // measure 54
0010
0100
1000
0001
,  // measure 55
0010
0100
0010
0011
,  // measure 56
0010
0100
1000
0001
,  // measure 57
0010
0100
0010
0000
,  // measure 58
0010
0100
0001
1000
,  // measure 59
0010
0100
0010
1001
;

//---------------dance-single - ----------------
#NOTES:
     dance-single:
     :
     Beginner:
     3:
     0.125871,0.142286,0.087316,0.007938,0.000000,111.000000,100.000000,11.000000,1.000000,0.000000,0.000000,0.125871,0.142286,0.087316,0.007938,0.000000,111.000000,100.000000,11.000000,1.000000,0.000000,0.000000:
0000
0000
0000
0000
,
0000
0000
0000
0000
,
0010
0000
0000
0000
,
1000
0000
0001
0000
,
0010
0000
0000
0000
,
0001
0000
0000
0000
,
1000
0000
0000
0000
,
0200
0000
0300
0000
,
0001
0000
0001
0000
,
1000
0000
1000
0000
,
0010
0000
0010
0000
,
0100
0000
0100
0000
,
0001
0000
1000
0000
,
0001
0000
0100
0000
,
0010
0000
0100
0000
,
0010
0000
1000
0000
,
1001
0000
0000
0000
,
0010
0000
0100
0000
,
0110
0000
0000
0000
,
0001
0000
1000
0000
,
1001
0000
0000
0000
,
0100
0000
0010
0000
,
0110
0000
0000
0000
,
0001
0000
1000
0000
,
0010
0000
0000
1001
,
0000
0000
0000
1001
,
0000
0000
0000
1001
,
0000
0000
0000
1001
,
0000
0001
0000
0001
,
0000
1000
0000
1000
,
0000
0010
0010
0000
,
0100
0000
0100
0000
,
0001
0000
1000
0000
,
0100
0000
0000
0000
,
0110
0000
0000
0000
,
0001
0000
1000
0000
,
0001
0000
0100
0000
,
0010
0000
0000
0000
,
0110
0000
0000
0000
,
0001
0000
1000
0000
,
0010
0000
0010
0000
,
1000
0000
0001
0000
,
0100
0000
0100
0000
,
0001
0001
0001
0000
,
0010
0000
1000
0000
,
0010
0000
0010
0000
,
0010
0000
0100
0000
,
0010
0000
0010
0000
,
0010
0000
0001
0000
,
0010
0000
0010
0000
,
0010
0000
0100
0000
,
0010
0000
0000
0000
,
0010
0000
0001
0000
,
0010
0000
0010
0000
,
0010
0000
0100
0000
,
0010
0000
0010
0000
,
0010
0000
1000
0000
,
0010
0000
0010
0000
,
0010
0000
0100
0000
,
0001
0000
0000
1001
;

//---------------dance-single - ----------------
#NOTES:
     dance-single:
     :
     Challenge:
     14:
     0.642964,0.640285,0.396892,0.452456,0.646933,567.000000,517.000000,50.000000,57.000000,0.000000,0.000000,0.642964,0.640285,0.396892,0.452456,0.646933,567.000000,517.000000,50.000000,57.000000,0.000000,0.000000:
0000
0000
0000
0000
,
0000
0000
0000
0000
,
0010
0000
1100
0000
0010
0000
0101
0001
,
2100
0000
0000
0001
0000
0000
3010
0000
0102
0000
0000
1000
0000
0000
0103
0000
,
0110
0000
0000
0110
0000
0000
0001
0000
1001
0000
0000
1001
0000
0000
0010
0000
,
0210
0000
0000
0001
0000
0000
0310
0000
1002
0000
0000
0100
0000
0000
1003
0000
,
1010
0000
0000
1010
0000
0000
0001
0000
0011
0000
0000
0011
0000
0000
1000
0000
,
0020
0000
0100
0000
1000
0000
0001
0000
1000
0000
0130
0000
0010
1000
0000
0000
,
0001
0000
0000
0010
0100
0000
1000
0000
0010
0000
0000
0100
0001
0000
1000
0000
,
0100
0000
0000
0010
0000
0001
1000
0000
0001
0000
0000
0100
0010
0000
0000
0000
,
1000
0000
0000
0100
0000
1000
0001
0000
0010
0000
0000
0001
0100
0000
0010
0000
,
2000
0000
0000
3002
0000
0000
1003
0000
0110
0000
0001
0100
0000
0010
0000
0000
,
1200
3000
0000
1300
0100
0000
0000
0000
0201
0000
0000
0301
0100
0000
0000
0000
,
0001
0100
0001
0010
0000
0100
1000
0000
0001
1000
0000
0000
0110
0000
0100
0000
,
0001
0000
0000
1000
0100
0000
0010
0000
0001
0000
0100
0010
0000
0010
1000
0001
,
1000
0000
0100
0010
0000
0010
0001
0000
1000
0001
0203
0000
0310
0000
1010
0000
,
0012
0000
1000
0000
1003
0000
1010
0000
0012
0000
1000
0000
1003
0001
0000
0000
,
0020
0000
0000
1030
0000
0001
0010
0000
1000
0100
0000
0010
0000
0001
0100
0000
,
0102
0000
1000
0000
1003
0000
1100
0000
0102
0000
1000
0000
1003
0001
0000
0000
,
0010
0000
1000
0001
0000
1000
0100
0000
0010
0001
0000
0100
0000
0010
1000
0000
,
2100
0000
0001
0000
3001
0000
0101
0000
2100
0000
0001
0000
3001
1000
0000
0000
,
0010
1000
0000
0100
0000
1000
0001
0000
0010
0100
0000
0010
0000
0001
1000
0000
,
2010
0000
0001
0000
3001
0000
0011
0000
2010
0000
0001
0000
3001
1000
0000
0000
,
0010
0000
1000
0100
0000
1000
0001
0000
0010
0001
1000
0010
0100
0000
0000
0000
,
0010
0000
0030
1000
0000
0001
0100
0001
1000
0000
0010
0000
2002
0000
3003
3003
,
0010
0000
0000
1000
0000
0001
0100
0001
1000
0000
0010
0000
2002
0000
3003
0000
,
0010
0000
0000
1000
0000
0001
0100
0001
1000
0000
0010
0000
2002
0000
3003
1000
,
0010
0000
0010
0000
0100
0000
0100
0000
0001
1000
0001
1003
0200
0000
0000
1300
,
0010
0000
0010
0000
0100
0000
0100
0000
0001
0010
0001
0010
0001
0000
1000
0100
,
0010
0000
0010
0000
0100
0000
0100
0000
1000
0001
1000
0001
1000
0010
0100
0000
,
0001
0010
0100
1000
0000
1000
0001
0000
0100
0000
0010
1000
0100
0000
0000
0000
,
1000
0000
0001
0100
0000
0100
0010
0000
0110
0000
0000
0000
0001
1000
0000
0000
,
0010
1000
0010
0100
0000
0000
0001
0010
0001
1000
0000
0000
0100
0010
0100
1000
,
0000
0000
1100
0000
0001
0000
0100
0000
0100
0000
0000
0000
0010
1000
0100
0010
,
0001
0000
0010
0100
0000
1000
0010
0000
1000
0000
0100
0010
0000
0001
0100
0000
,
0010
0000
1000
0100
0000
1000
0001
0000
0100
0000
0001
1000
0001
1000
0001
1000
,
0010
0100
0010
0100
0000
0000
0001
1000
0001
1000
0000
0000
0100
0010
0001
1000
,
0000
0000
0101
0000
1000
0000
0100
0000
0100
0000
0000
0000
0010
0001
1000
0001
,
0100
0000
0010
1000
0000
1000
0100
0000
0010
0000
0001
1000
0000
0001
0100
0000
,
0010
0000
1000
0100
0000
0100
0001
0000
0010
0000
0100
1000
0100
1000
0100
1000
,
0100
0000
0010
0001
0000
1000
0001
0000
0100
0000
0010
1000
0010
1000
0010
1000
,
0010
0000
1000
0001
0000
0010
0100
0000
1000
0000
0001
0010
0001
0010
0001
0010
,
0001
0000
1000
0010
0000
1000
0100
0000
0010
0000
0001
0100
0001
0100
0001
0103
,
0001
0101
1000
1100
0010
1001
0110
0000
,
0020
0000
1030
0000
0200
0000
0310
0000
0001
0000
1000
0010
0100
0000
0000
0000
,
0020
0000
0230
0000
0301
0000
1000
0010
0100
0000
0000
0000
0001
0010
0100
1000
,
0020
0000
1030
0000
0200
0000
1300
0000
0001
0000
0100
0010
1000
0000
0000
0000
,
0020
0000
0230
0000
0301
0000
1000
0010
0100
0001
0100
0002
0000
0000
1003
0000
,
0020
0000
1030
0000
0200
0000
0310
0000
0001
0000
1000
0010
0100
0000
0000
0000
,
0020
0000
0230
0000
0301
0000
1000
0010
1000
0000
0000
0000
0100
0010
0001
0100
,
0020
0000
1030
0000
0200
0000
0301
0000
0100
0000
1000
0010
0100
0000
0000
0000
,
0101
0000
0101
0000
1100
0000
1100
0000
1001
0000
0110
0000
1000
0002
0000
0000
,
0023
0000
0031
0000
0200
0000
0301
0000
1000
0000
0100
0010
0001
0000
0000
0000
,
0020
0000
0230
0000
0310
0000
0001
0010
0001
0000
0000
0000
1000
0100
1000
0100
,
0020
0000
0031
0000
0200
0000
1300
0000
0100
0000
0001
0010
0100
0000
0000
0000
,
0020
0000
0230
0000
1300
0000
0001
0010
0001
0100
0010
2000
0000
0000
3001
0000
,
0020
0000
0031
0000
0200
0000
0310
0000
1000
0000
0001
0010
0100
0000
0000
0000
,
0020
0000
0230
0000
1300
0000
0100
0010
0001
0000
0000
0000
1000
0001
0100
0001
,
0020
0031
0200
0301
1000
0001
0011
1010
,
0001
0100
0010
0100
0000
0010
0000
1000
0001
1000
0000
0000
1001
0000
0000
0000
;
