#VERSION:0.83;
#TITLE:Unborn;
#SUBTITLE:;
#ARTIST:Gein;
#TITLETRANSLIT:;
#SUBTITLETRANSLIT:;
#ARTISTTRANSLIT:;
#GENRE:;
#ORIGIN:;
#CREDIT:;
#BANNER:Unborn-bn.png;
#BACKGROUND:Unborn-bg.png;
#PREVIEWVID:;
#JACKET:Unborn-jacket.png;
#CDIMAGE:;
#DISCIMAGE:;
#LYRICSPATH:;
#CDTITLE:;
#MUSIC:Unborn.ogg;
#OFFSET:-0.030000;
#SAMPLESTART:21.987000;
#SAMPLELENGTH:20.000000;
#SELECTABLE:YES;
#DISPLAYBPM:175.000000;
#BPMS:0.000=174.993;
#STOPS:;
#DELAYS:;
#WARPS:;
#TIMESIGNATURES:0.000=4=4;
#TICKCOUNTS:0.000=4;
#COMBOS:0.000=1;
#SPEEDS:0.000=1.000=0.000=0;
#SCROLLS:0.000=1.000;
#FAKES:;
#LABELS:0.000=Song Start;
#BGCHANGES:;
#KEYSOUNDS:;
#ATTACKS:
;

//---------------dance-single - ----------------
#NOTEDATA:;
#CHARTNAME:;
#STEPSTYPE:dance-single;
#DESCRIPTION:;
#CHARTSTYLE:;
#DIFFICULTY:Beginner;
#METER:1;
#RADARVALUES:0.120752,0.177950,0.000000,0.000000,0.000000,76.000000,76.000000,0.000000,0.000000,0.000000,0.000000,0.000000,0.000000,0.000000,0.120752,0.177950,0.000000,0.000000,0.000000,76.000000,76.000000,0.000000,0.000000,0.000000,0.000000,0.000000,0.000000,0.000000;
#CREDIT:;
#NOTES:
0000
0000
0000
0000
,
0000
0000
0000
0000
,
0000
0000
0000
0000
,
0000
0000
0000
0000
,
1000
0000
0100
0000
,
1000
0000
0000
0000
,
0001
0000
0100
0000
,
0001
0000
0000
0000
,
0010
0000
0000
0000
,
0100
0000
0000
0000
,
1000
0000
0000
0000
,
0010
0000
0000
0000
,
0001
0000
0000
0000
,
0100
0000
0000
0000
,
0010
0000
0100
0000
,
0010
0000
0100
0000
,
0001
0000
0000
0000
,
1000
0000
0100
0000
,
0010
0000
0000
0000
,
0001
0000
0100
0000
,
0010
0000
0000
0000
,
1000
0000
0001
0000
,
1000
0000
0000
0000
,
0100
0000
0010
0000
,
0100
0000
0000
0000
,
0001
0000
0000
0000
,
0100
0000
0000
0000
,
1000
0000
0000
0000
,
0010
0000
0000
0000
,
0001
0000
0000
0000
,
0010
0000
0100
0000
,
0010
0000
0000
0000
,
1000
0000
0000
0000
,
0100
0000
0000
0000
,
0001
0000
0000
0000
,
0010
0000
0000
0000
,
1000
0000
0000
0000
,
0100
0000
0000
0000
,
1000
0000
0000
0000
,
0010
0000
0000
0000
,
0100
0000
0000
0000
,
0010
0000
0000
0000
,
0001
0000
0000
0000
,
0100
0000
0000
0000
,
1000
0000
0000
0000
,
0010
0000
0000
0000
,
0100
0000
0010
0000
,
0100
0000
0010
0000
,
1000
0000
0000
0000
,
0001
0000
0010
0000
,
0100
0000
0000
0000
,
1000
0000
0010
0000
,
0100
0000
0000
0000
,
0001
0000
1000
0000
,
0001
0000
0000
0000
,
0010
0000
0100
0000
,
0010
0000
0000
0000
,
1000
0000
0000
0000
,
0010
0000
0000
0000
,
0001
0000
0000
0000
,
0100
0000
0000
0000
,
0010
0000
0000
0000
,
1000
0000
0000
0000
,
0001
0000
0000
0000
,
0100
0000
0000
0000
;

//---------------dance-single - ----------------
#NOTEDATA:;
#CHARTNAME:;
#STEPSTYPE:dance-single;
#DESCRIPTION:;
#CHARTSTYLE:;
#DIFFICULTY:Easy;
#METER:4;
#RADARVALUES:0.238326,0.284720,0.000000,0.033366,0.000000,150.000000,150.000000,0.000000,3.000000,0.000000,0.000000,0.000000,0.000000,0.000000,0.238326,0.284720,0.000000,0.033366,0.000000,150.000000,150.000000,0.000000,3.000000,0.000000,0.000000,0.000000,0.000000,0.000000;
#CREDIT:;
#NOTES:
0000
0000
0000
0000
,
0000
0000
0000
0000
,
0000
0000
0000
0000
,
0000
0000
0000
0000
,
1000
0000
0100
0000
,
1000
0000
0001
0000
,
0100
0000
0001
0000
,
0010
0000
0100
1000
,
0001
0000
0100
0000
,
1000
0000
0100
0000
,
0001
0000
0010
0000
,
1000
0000
0010
0000
,
0000
0001
0100
0001
,
0000
1000
0100
1000
,
0000
0010
0100
0001
,
2000
0000
3000
0100
,
0010
0010
0001
1000
,
0010
0000
0000
0000
,
0100
0100
0001
1000
,
0100
0000
0000
0000
,
0010
0001
0100
1000
,
0010
0000
0000
0000
,
0100
0001
0010
1000
,
0100
0000
0001
0010
,
0100
1000
0010
0000
,
0100
0000
0001
0000
,
1000
0100
0010
0000
,
0001
0000
1000
0000
,
0010
0100
0001
0000
,
1000
0000
0100
0000
,
0010
0001
1000
0000
,
0001
0000
0100
0000
,
0010
0000
1000
0000
,
0001
0000
1000
0000
,
0100
0000
0010
0000
,
0001
1000
0001
1000
,
0100
0000
0010
0000
,
0001
0000
1000
0000
,
0001
0000
0100
0000
,
0001
0010
0001
0010
,
1000
0000
0010
0000
,
0001
0000
0010
0000
,
1000
0000
0100
0000
,
0001
0000
0100
0000
,
0000
1000
0010
1000
,
0000
0001
0010
0001
,
0000
0100
0010
1000
,
0002
0000
0003
0010
,
0100
0100
1000
0010
,
0100
0000
0000
0000
,
0010
0010
0100
0001
,
0010
0000
0000
0000
,
0100
1000
0010
0001
,
0100
0000
0000
0000
,
0010
1000
0100
0001
,
0010
0000
1000
0100
,
0010
0001
0100
0000
,
0010
0000
1000
0000
,
0001
0010
0100
0000
,
1000
0000
0001
0000
,
0100
0010
1000
0000
,
0001
0000
0100
0000
,
1000
0100
0001
0000
,
0020
0000
0000
0000
,
0030
0000
0000
0000
;

//---------------dance-single - ----------------
#NOTEDATA:;
#CHARTNAME:;
#STEPSTYPE:dance-single;
#DESCRIPTION:;
#CHARTSTYLE:;
#DIFFICULTY:Medium;
#METER:8;
#RADARVALUES:0.409920,0.498259,0.133462,0.066731,0.000000,258.000000,246.000000,12.000000,6.000000,0.000000,0.000000,0.000000,0.000000,0.000000,0.409920,0.498259,0.133462,0.066731,0.000000,258.000000,246.000000,12.000000,6.000000,0.000000,0.000000,0.000000,0.000000,0.000000;
#CREDIT:;
#NOTES:
0000
0000
0000
0000
,
0000
0000
0000
0000
,
0000
0000
0000
0000
,
0000
0000
0000
0000
,
1000
0000
0100
0000
0000
1000
0100
0000
,
1000
0000
0010
0000
0000
1000
0010
0000
,
0100
0000
0001
0000
0000
0100
0001
0000
,
0010
0000
0001
0000
0000
0010
0001
0000
,
1000
0101
0001
0011
,
0001
1100
1000
1010
,
0100
0010
0001
0100
,
1000
0000
0010
0000
0100
0001
1000
0000
,
0000
0000
0100
0000
0010
0001
1000
0000
,
0000
0000
0001
0000
0100
0010
1000
0000
,
0001
0100
0001
0100
0010
1000
0010
1000
,
0001
0010
0100
1001
,
0001
0000
0100
0000
1000
0010
0100
0000
,
0001
1000
0100
0000
,
0010
0000
0001
0000
1000
0100
0010
0000
,
0001
0000
0000
0010
0000
0000
0100
0000
,
1000
0000
0010
0000
0001
0100
0010
0000
,
1000
0000
0000
1001
0000
0000
0001
0000
,
0010
0000
0100
0000
1000
0001
0010
0000
,
0100
1000
0010
0110
,
0001
0001
1000
0100
,
0010
0000
0000
0002
0000
0000
1003
0000
,
0100
0100
1000
0010
,
0100
0000
0000
0001
0000
1000
0000
0100
,
0010
0010
0001
1000
,
0010
0000
0000
0002
0000
0000
0103
0000
,
0010
0010
1000
0001
,
0010
0000
0000
0001
0000
1000
0000
0100
,
1000
0001
0100
1000
,
0100
0001
0010
0000
,
1000
0100
0001
0100
,
1000
0000
0010
0000
0100
1000
0100
0000
,
0001
0010
0100
1000
,
0010
0001
0010
0000
,
0100
1000
0010
0001
,
0010
0000
1000
0001
0000
0001
1000
0000
,
1000
0101
0001
0011
,
0001
1100
1000
1010
,
0100
0010
0001
0100
,
1000
0000
0010
0000
0100
0001
1000
0000
,
0000
0000
0100
0000
0010
0001
1000
0000
,
0000
0000
0001
0000
0100
0010
1000
0000
,
0001
0100
0001
0000
1000
0010
1000
0000
,
0001
0010
0100
1001
,
0001
0000
0100
0000
1000
0010
0200
0000
,
0301
0000
1000
0100
0000
0010
0000
0001
,
1000
0001
1000
0100
,
0010
0000
0000
0002
0000
0000
0103
0000
,
0010
1000
0001
0100
,
0010
0000
0000
1000
0000
0001
0000
0100
,
1000
0100
0001
0010
,
0100
0000
0000
1000
0000
0000
0001
0000
,
0100
0001
0010
1000
,
0100
0000
0000
0020
0000
0000
0031
0000
,
1000
0010
0100
0001
,
1000
0000
0100
0000
0000
0010
0001
0000
,
0001
0100
1000
0001
,
0010
0000
1000
0010
0000
0100
0000
0001
,
1000
0100
0010
0001
,
2000
0000
0000
0010
0000
0000
0000
0001
,
3000
0000
0000
0000
;

//---------------dance-single - ----------------
#NOTEDATA:;
#CHARTNAME:;
#STEPSTYPE:dance-single;
#DESCRIPTION:;
#CHARTSTYLE:;
#DIFFICULTY:Hard;
#METER:12;
#RADARVALUES:0.618058,0.674888,0.300290,0.300290,0.127901,389.000000,362.000000,27.000000,27.000000,0.000000,0.000000,0.000000,0.000000,0.000000,0.618058,0.674888,0.300290,0.300290,0.127901,389.000000,362.000000,27.000000,27.000000,0.000000,0.000000,0.000000,0.000000,0.000000;
#CREDIT:;
#NOTES:
0000
0000
0000
0000
,
0000
0000
0000
0000
,
0000
0000
0000
0000
,
0000
0000
0000
0000
,
1000
0000
0000
0000
0100
0000
0000
0010
0000
0000
0001
0000
1000
0000
0000
0000
,
0001
0000
0000
0000
0100
0000
0000
0010
0000
0000
1000
0000
0001
0000
0000
0000
,
0010
0000
0000
0000
1000
0000
0000
0010
0000
0000
0001
0000
1000
0000
0000
0000
,
0010
0000
0000
0000
0001
0000
0000
0010
0000
0000
2000
0000
0000
0000
0000
0000
,
3001
0000
0100
0000
0001
0000
0000
0010
0000
0000
0001
0000
0100
0000
0000
0000
,
0010
0000
1000
0000
0010
0000
0000
0100
0000
0000
0001
0000
0010
0000
0000
0000
,
0100
0000
1000
0000
0001
0000
0000
0100
0000
0000
1000
0000
0100
0000
0001
0000
,
0010
0000
0001
0000
1000
0000
0000
0100
0000
0000
0001
0000
0100
0000
2000
0000
,
0000
0000
3010
0100
0001
0010
0100
2000
,
0000
0000
3010
1000
0100
0010
0001
0001
,
1000
1000
0001
0001
1000
0001
1000
0001
,
1000
0100
0001
0100
1000
0010
0001
0000
,
0110
0000
0110
0000
1000
0010
0100
0000
,
0001
0010
0001
1000
0002
0000
0103
0000
,
1001
0000
1001
0000
0100
0010
1000
0000
,
0001
0100
0001
0010
0100
1000
0001
0000
,
1100
0000
1100
0000
0001
0010
0100
1000
,
0010
0000
0100
0001
2000
0000
3010
0000
,
0101
0000
0101
0000
1000
0001
0100
0000
,
0010
0000
1000
0000
0001
0000
0010
0000
0100
0000
1000
0000
0001
1000
0001
1000
,
0002
0000
0203
0000
1300
0100
0010
1000
,
0001
0000
1001
0010
0100
1000
0001
0000
,
2000
0000
3020
0000
0031
0010
0100
0001
,
1000
0000
0001
0101
0000
1100
0000
1001
,
0200
0000
2300
0000
3001
0010
1000
0010
,
0001
0000
0010
0100
1000
0001
1000
0000
,
0020
0000
0230
0000
0301
1000
0010
0100
,
0001
0000
1000
1010
0000
0101
0000
1001
,
0001
0000
0000
0000
1000
0000
0000
0010
0000
0000
0100
0000
0001
0000
0000
0000
,
1000
0000
0000
0000
0001
0000
0000
0010
0000
0000
0100
0000
1000
0000
0000
0000
,
0010
0000
0000
0000
0001
0000
0000
0010
0000
0000
1000
0000
0100
0000
0010
0000
,
0001
0100
1000
0200
0000
0302
0000
1003
,
0100
0000
0000
0000
0010
0000
0000
0001
0000
0000
0010
0000
0100
0000
0000
0000
,
1000
0000
0000
0000
0010
0000
0000
0100
0000
0000
0001
0000
1000
0000
0000
0000
,
0100
0000
0000
0000
0010
0000
0000
0001
0000
0000
1000
0000
0010
0000
0001
0000
,
0010
1000
0100
0010
0002
0000
2003
0000
,
3001
0000
0010
0000
1000
0000
0000
0100
0000
0000
1000
0000
0010
0000
0000
0000
,
0100
0000
0001
0000
0100
0000
0000
0010
0000
0000
1000
0000
0100
0000
0000
0000
,
0010
0000
0001
0000
1000
0000
0000
0010
0000
0000
0001
0000
0010
0000
1000
0000
,
0100
0000
1000
0000
0001
0000
0000
0010
0000
0000
1000
0000
0010
0000
0002
0000
,
0000
0000
0103
0010
1000
0100
0010
0002
,
0000
0000
0103
0001
0010
0100
1000
1000
,
0001
0001
1000
1000
0001
1000
0001
1000
,
0001
0010
1000
0010
0001
0100
1000
0000
,
0110
0000
0110
0000
0001
0100
0010
0001
,
0010
1000
1001
0000
0100
0010
0100
0000
,
1001
0000
1001
0000
0010
0100
0001
0000
,
1000
0010
1000
0100
0010
0001
1000
0000
,
0011
0000
0011
0000
1000
0100
0010
0001
,
0100
0000
0010
1100
0000
0101
0000
0001
,
1010
0000
1010
0000
0001
1000
0010
0000
,
0100
0000
0001
0000
1000
0000
0100
0000
0010
0000
0001
1000
0001
1000
0001
1000
,
0200
0000
0320
0000
1030
0010
0100
1000
,
0001
0000
1001
0100
0010
1000
0001
0000
,
2000
0000
3200
0000
0301
0100
0010
0001
,
1000
0010
0100
0000
0001
0010
0100
1000
,
0020
0000
2030
0000
3001
0010
1000
0010
,
0001
0000
0010
0100
1000
0001
1000
0000
,
0020
0000
0230
0000
0301
1000
0010
0100
,
0001
0000
0000
1000
0000
0000
0100
0010
;

//---------------dance-double - ----------------
#NOTEDATA:;
#CHARTNAME:;
#STEPSTYPE:dance-double;
#DESCRIPTION:;
#CHARTSTYLE:;
#DIFFICULTY:Easy;
#METER:5;
#RADARVALUES:0.238326,0.284720,0.000000,0.033366,0.000000,150.000000,150.000000,0.000000,3.000000,0.000000,0.000000,0.000000,0.000000,0.000000,0.238326,0.284720,0.000000,0.033366,0.000000,150.000000,150.000000,0.000000,3.000000,0.000000,0.000000,0.000000,0.000000,0.000000;
#CREDIT:;
#NOTES:
00000000
00000000
00000000
00000000
,
00000000
00000000
00000000
00000000
,
00000000
00000000
00000000
00000000
,
00000000
00000000
00000000
00000000
,
01000000
00000000
00100000
00000000
,
01000000
00000000
00010000
00000000
,
10000000
00000000
00010000
00000000
,
00100000
00000000
00001000
00010000
,
00001000
00000000
00000100
00000000
,
00000001
00000000
00000010
00000000
,
00001000
00000000
00010000
00000000
,
01000000
00000000
10000000
00000000
,
00000000
00100000
00010000
00001000
,
00000000
00010000
00001000
00000100
,
00000000
00001000
00000100
00000001
,
00002000
00000000
00003000
00000001
,
00000010
00000100
00001000
00000001
,
00000001
00000000
00000000
00000000
,
00000100
00000010
00010000
00001000
,
00001000
00000000
00000000
00000000
,
00100000
00010000
10000000
00100000
,
00100000
00000000
00000000
00000000
,
01000000
00010000
00100000
00001000
,
00001000
00000000
00010000
00001000
,
00000100
00000010
00000100
00000000
,
00000001
00000000
00001000
00000000
,
00000100
00000010
00000100
00000000
,
00010000
00000000
00001000
00000000
,
00100000
00010000
10000000
00000000
,
00100000
00000000
01000000
00000000
,
00010000
10000000
01000000
00000000
,
00010000
00000000
00001000
00000000
,
00010000
00000000
00000100
00000000
,
00001000
00000000
00000010
00000000
,
00000001
00000000
00000010
00000000
,
00001000
00000100
00010000
00001000
,
00001000
00000000
01000000
00000000
,
00010000
00000000
00100000
00000000
,
10000000
00000000
00100000
00000000
,
00010000
01000000
00001000
00010000
,
00001000
00000000
00000010
00000000
,
00000001
00000000
00000100
00000000
,
00001000
00000000
00010000
00000000
,
00100000
00000000
10000000
00000000
,
00000000
01000000
00010000
00001000
,
00000000
00010000
00001000
00000010
,
00000000
00001000
00000010
00000001
,
00002000
00000000
00003000
00000001
,
00000100
00000010
00001000
00000001
,
00000001
00000000
00000000
00000000
,
00000010
00000100
00010000
00001000
,
00001000
00000000
00000000
00000000
,
01000000
00010000
10000000
01000000
,
01000000
00000000
00000000
00000000
,
00100000
00010000
01000000
00001000
,
00001000
00000000
00010000
00001000
,
00000010
00000100
00000010
00000000
,
00000001
00000000
00001000
00000000
,
00000010
00000100
00000010
00000000
,
00010000
00000000
00001000
00000000
,
01000000
00010000
10000000
00000000
,
01000000
00000000
00100000
00000000
,
00010000
10000000
00100000
00000000
,
02000000
00000000
00000000
00000000
,
03000000
00000000
00000000
00000000
;

//---------------dance-double - ----------------
#NOTEDATA:;
#CHARTNAME:;
#STEPSTYPE:dance-double;
#DESCRIPTION:;
#CHARTSTYLE:;
#DIFFICULTY:Medium;
#METER:8;
#RADARVALUES:0.411509,0.498259,0.133462,0.133462,0.000000,259.000000,247.000000,12.000000,12.000000,0.000000,0.000000,0.000000,0.000000,0.000000,0.411509,0.498259,0.133462,0.133462,0.000000,259.000000,247.000000,12.000000,12.000000,0.000000,0.000000,0.000000,0.000000,0.000000;
#CREDIT:;
#NOTES:
00000000
00000000
00000000
00000000
,
00000000
00000000
00000000
00000000
,
00000000
00000000
00000000
00000000
,
00000000
00000000
00000000
00000000
,
00000001
00000000
00000100
00000000
00000000
00000001
00000100
00000000
,
00000010
00000000
00001000
00000000
00000000
00000010
00001000
00000000
,
00000100
00000000
00010000
00000000
00000000
00000100
00010000
00000000
,
00001000
00000000
00100000
00000000
00000000
00001000
00100000
00000000
,
00010000
10010000
10000000
10010000
,
01000000
01100000
00100000
01100000
,
01000000
00010000
00100000
00001000
,
00010000
00000000
00000010
00000000
00000100
00000001
00000020
00000000
,
00000000
00000000
00000031
00000000
00001000
00000010
00000200
00000000
,
00000000
00000310
00010000
00001000
,
00010000
00001000
00010000
00001000
00100000
00010000
00100000
00010000
,
10000000
00100000
01000000
01100000
,
00010000
00000000
00100000
00000000
01000000
10000000
00010000
00000000
,
01000000
00001000
00010000
00000000
,
00000100
00000000
00001000
00000000
00000001
00000010
00000100
00000000
,
00001000
00000000
00000000
00000001
00000000
00000000
00000100
00000000
,
00000010
00000000
00010000
00000000
00001000
00100000
00010000
00000000
,
01000000
00000000
00000000
00200000
00000000
00000000
10300000
00000000
,
00010000
00000000
00100000
00000000
01000000
10000000
00100000
00000000
,
00010000
00001000
00010000
00011000
,
00000100
00000100
00001000
00000001
,
00000010
00000000
00000000
00000200
00000000
00000000
00001300
00000000
,
00000010
00000010
00010000
00001000
,
00100000
00000000
00000000
00010000
00000000
10000000
00000000
00100000
,
01000000
01000000
00010000
10000000
,
01000000
00000000
00000000
00020000
00000000
00000000
00031000
00000000
,
00000010
00000010
00000001
00001000
,
00000010
00000000
00000000
00000100
00000000
00000001
00000000
00000010
,
00000100
00001000
00000010
00001000
,
00000001
00000100
00000010
00000000
,
00010000
00001000
00010000
01000000
,
10000000
00000000
00100000
00000000
01000000
00010000
01000000
00000000
,
00001000
00010000
00000100
00001000
,
00000001
00000100
00000010
00000000
,
00001000
00000100
00010000
00001000
,
01000000
00000000
00010000
00100000
00000000
00100000
00010000
00000000
,
00010000
10010000
10000000
10010000
,
00100000
01100000
01000000
01100000
,
00100000
00010000
01000000
00001000
,
00010000
00000000
00000100
00000000
00000010
00000001
00000200
00000000
,
00000000
00000000
00000301
00000000
00001000
00000100
00000020
00000000
,
00000000
00000130
00010000
00001000
,
00010000
00001000
00010000
00001000
01000000
00010000
01000000
00010000
,
10000000
01000000
00100000
01100000
,
00010000
00000000
01000000
00000000
00100000
10000000
00020000
00000000
,
00230000
00301000
00010000
00000000
,
00000010
00000000
00001000
00000000
00000001
00000100
00000010
00000000
,
00001000
00000000
00000000
00000002
00000000
00000000
00000013
00000000
,
00000100
00000000
00010000
00000000
00001000
01000000
00010000
00000000
,
00100000
00000000
00000000
01000000
00000000
10000000
00000000
00010000
,
00010000
00000000
01000000
00000000
00100000
10000000
01000000
00000000
,
00010000
00001000
00010000
00011000
,
00000010
00000010
00001000
00000001
,
00000100
00000000
00000000
00000020
00000000
00000000
00001030
00000000
,
00000100
00000100
00010000
00001000
,
01000000
00100000
10000000
01000000
,
00100000
00100000
00010000
10000000
,
00100000
00000000
00000000
00010000
00000000
00001000
00000000
00000100
,
00000001
00000010
00000100
00010000
,
00002000
00000000
00000000
00010000
00000000
00000000
00000000
00100000
,
00003000
00000000
00000000
00000000
;

//---------------dance-double - ----------------
#NOTEDATA:;
#CHARTNAME:;
#STEPSTYPE:dance-double;
#DESCRIPTION:;
#CHARTSTYLE:;
#DIFFICULTY:Hard;
#METER:12;
#RADARVALUES:0.611702,0.674888,0.289168,0.355900,0.116780,385.000000,359.000000,26.000000,32.000000,0.000000,0.000000,0.000000,0.000000,0.000000,0.611702,0.674888,0.289168,0.355900,0.116780,385.000000,359.000000,26.000000,32.000000,0.000000,0.000000,0.000000,0.000000,0.000000;
#CREDIT:;
#NOTES:
00000000
00000000
00000000
00000000
,
00000000
00000000
00000000
00000000
,
00000000
00000000
00000000
00000000
,
00000000
00000000
00000000
00000000
,
00100000
00010000
01000000
00000000
00010000
00000000
00100000
00000000
,
01000000
10000000
00100000
00000000
10000000
00000000
01000000
00000000
,
00010000
00001000
00000100
00000000
00000010
00000000
00001000
00000000
,
00000001
00000010
00001000
00000000
00010000
00022000
00000000
00033000
,
00001000
00000000
00010000
00000000
01000000
00000000
00000000
00100000
00000000
00000000
01000000
00000000
10000000
00000000
00000000
00000000
,
00100000
00000000
10000000
00000000
01000000
00000000
00000000
00100000
00000000
00000000
01000000
00000000
00010000
00000000
00000000
00000000
,
00001000
00000000
00000100
00000000
00000001
00000000
00000000
00000010
00000000
00000000
00000100
00000000
00000010
00000000
00001000
00000000
,
00000010
00000000
00000001
00000000
00000100
00000000
00000000
00001000
00000000
00000000
00010000
00000000
01000000
00000000
20000000
00000000
,
00000000
00000000
30100000
10000000
01000000
00010000
00001000
00000200
,
00000000
00000000
00000310
00000100
00000001
00000010
00001000
00001000
,
00010000
00010000
00001000
00001000
00010000
00001000
00010000
00001000
,
00010000
01000000
10000000
00100000
00010000
00001000
00000010
00000000
,
00000110
00000000
00000110
00000000
00000010
00000001
00000100
00000000
,
00000010
00001000
00000001
00000100
00000020
00000000
00010030
00000000
,
00010010
00000000
00010010
00000000
00001000
00100000
00010000
00000000
,
01000000
00100000
10000000
00010000
00100000
01000000
10000000
00000000
,
10010000
00000000
10010000
00000000
01000000
00010000
00100000
00000000
,
00001000
00010000
00000010
00001000
00000200
00000000
00000301
00000000
,
00000101
00000000
00000101
00000000
00000010
00000001
00001000
00000000
,
00000010
00000000
00000100
00000000
00000001
00000000
00001000
00000000
00000100
00000000
00010000
00000000
00001000
00010000
00001000
00010000
,
00002000
00000000
00203000
00000000
00301000
00100000
00001000
00010000
,
01000000
00000000
10000000
00010000
00000000
00010000
01000000
00000000
,
00002000
00000000
02003000
00000000
03001000
01000000
00010000
00100000
,
00001000
00000000
00010000
00010100
00000000
00001100
00000000
00001001
,
00000200
00000000
00000302
00000000
00000103
00000001
00001000
00000010
,
00010000
00000000
00001000
00100000
00000000
00100000
00010000
00000000
,
20000000
00000000
30200000
00000000
10300000
00100000
01000000
00001000
,
00010000
00000000
00000100
00001100
00000000
00001001
00000000
00000101
,
00000010
00000000
00000000
00000000
00001000
00000000
00000000
00000010
00000000
00000000
00001000
00000000
00000100
00000000
00000000
00000000
,
00000010
00000000
00000000
00000000
00000001
00000000
00000000
00000010
00000000
00000000
00000001
00000000
00000100
00000000
00000000
00000000
,
00001000
00000000
00000000
00000000
00010000
00000000
00000000
01000000
00000000
00000000
10000000
00000000
00100000
00000000
00010000
00000000
,
00001000
00000100
00000001
00000020
00000000
00000230
00000000
00001300
,
00000001
00000000
00000000
00000000
00000100
00000000
00000000
00000001
00000000
00000000
00000100
00000000
00000010
00000000
00000000
00000000
,
00001000
00000000
00000000
00000000
00000100
00000000
00000000
00010000
00000000
00000000
00001000
00000000
01000000
00000000
00000000
00000000
,
00100000
00000000
00000000
00000000
10000000
00000000
00000000
01000000
00000000
00000000
00010000
00000000
00001000
00000000
00000100
00000000
,
00000010
00001000
00000001
00000010
00002000
00000000
00023000
00000000
,
00031000
00000000
00010000
00000000
00100000
00000000
00000000
01000000
00000000
00000000
00100000
00000000
10000000
00000000
00000000
00000000
,
01000000
00000000
10000000
00000000
00100000
00000000
00000000
01000000
00000000
00000000
00100000
00000000
00010000
00000000
00000000
00000000
,
00001000
00000000
00000010
00000000
00000001
00000000
00000000
00000100
00000000
00000000
00000010
00000000
00000100
00000000
00001000
00000000
,
00000100
00000000
00000001
00000000
00000010
00000000
00000000
00001000
00000000
00000000
00010000
00000000
00100000
00000000
20000000
00000000
,
00000000
00000000
31000000
10000000
00100000
00010000
00001000
00000020
,
00000000
00000000
00000130
00000010
00000001
00000100
00001000
00001000
,
00010000
00010000
00001000
00001000
00010000
00001000
00010000
00001000
,
00010000
00100000
10000000
01000000
00010000
00001000
00000100
00000000
,
00000110
00000000
00000000
00000000
00000110
00000000
00000000
00000000
00001000
00000000
00000001
00000000
00000100
00000010
00000100
00000010
,
00000100
00000001
00001000
00000200
00000000
00020300
00000000
00031000
,
00011000
00000000
00011000
00000000
00001000
01000000
00010000
00100000
,
01000000
00000000
10000000
00100000
00000000
00100000
01000000
00000000
,
01100000
00000000
01100000
00000000
10000000
00010000
00100000
01000000
,
10000000
00000000
00100000
00020000
00000000
00032000
00000000
00003100
,
00001100
00000000
00001100
00000000
00000010
00001000
00000001
00000100
,
00000010
00000000
00000000
00000000
00001000
00000000
00000100
00000000
00010000
00000000
00001000
00010000
00001000
00010000
00001000
00010000
,
00002000
00000000
00203000
00000000
00310000
00100000
00001000
01000000
,
00010000
00000000
10000000
00010000
00000000
00010000
01000000
00000000
,
00200000
00000000
02300000
00000000
03010000
01000000
00100000
00010000
,
00001000
00000000
00010000
00000100
00001000
00000001
00000100
00000000
,
00000020
00000000
00002030
00000000
00003100
00010000
00000010
00001000
,
00000100
00000000
00010000
00010100
00000000
00011000
00000000
01001000
,
00020000
00000000
20030000
00000000
30010000
10000000
01000000
00100000
,
00010000
00000000
00000000
01000000
00000000
00000000
10000000
00100000
;

//---------------dance-single - ----------------
#NOTEDATA:;
#CHARTNAME:;
#STEPSTYPE:dance-single;
#DESCRIPTION:;
#CHARTSTYLE:;
#DIFFICULTY:Challenge;
#METER:16;
#RADARVALUES:0.996201,0.972190,0.789652,0.344778,0.900871,627.000000,556.000000,71.000000,31.000000,0.000000,0.000000,0.000000,0.000000,0.000000,0.996201,0.972190,0.789652,0.344778,0.900871,627.000000,556.000000,71.000000,31.000000,0.000000,0.000000,0.000000,0.000000,0.000000;
#CREDIT:;
#NOTES:
// measure 0
0000
0000
0000
0000
,  // measure 1
0000
0000
0000
0000
,  // measure 2
0000
0000
0000
0000
,  // measure 3
0000
0000
0000
0000
,  // measure 4
1000
0000
0000
0000
0101
0000
0000
0001
0000
0100
0010
0000
1000
0000
0000
0001
,  // measure 5
0010
0000
0000
0000
1100
0000
0000
1000
0000
0001
0100
0000
0010
0000
0000
0100
,  // measure 6
0001
0000
0000
0000
0110
0000
0000
0100
0010
0000
1000
0000
0001
0000
0000
0010
,  // measure 7
0001
0000
1000
1010
0010
0100
0001
0011
,  // measure 8
0001
0000
1000
0000
1001
0000
0000
0010
0000
0100
0001
0000
1000
0010
0000
0100
,  // measure 9
0001
0000
0010
0000
0011
0000
0000
0001
0000
1000
0100
0000
1000
0010
0000
0100
,  // measure 10
0010
0000
1000
0000
1100
0000
0000
0100
0000
0010
0001
0000
1000
0001
0000
0100
,  // measure 11
0001
0000
0010
0000
0110
0000
0000
0100
0000
1000
0010
0000
1000
0001
0000
0100
,  // measure 12
0001
0000
0000
0000
1010
0000
1000
0010
0000
0100
0001
0000
0010
0100
0000
1000
,  // measure 13
0001
0000
0000
0000
0101
0000
0001
1000
0000
0100
0010
0000
0100
1000
0000
0010
,  // measure 14
0100
0000
0000
0000
1010
0000
0010
1000
0000
0001
0010
0000
0001
1000
0000
0100
,  // measure 15
1000
0001
1000
0001
0100
0001
0100
0001
0010
0001
0010
0001
0100
0000
0000
0000
,  // measure 16
0010
0000
1000
0100
1000
0000
0001
0100
0001
0000
0010
0000
0100
0000
1000
0000
,  // measure 17
0010
0000
0000
1000
0100
0000
2100
0000
0000
0000
3001
0000
1001
0000
0000
0000
,  // measure 18
0010
0000
0100
0001
0100
0000
0010
0100
0010
0000
1000
0000
0001
0000
1000
0000
,  // measure 19
0100
0000
0010
0011
0001
1000
0010
1010
,  // measure 20
0100
0000
0001
1000
0001
0000
0100
0010
0100
0000
0010
0000
1000
0000
0001
0000
,  // measure 21
1000
0000
0000
0010
0100
0000
0210
0000
0000
0000
0301
0000
0101
0000
0000
0000
,  // measure 22
0001
0000
1000
0010
1000
0000
0001
0010
0001
0000
0100
0000
0010
0000
0100
0000
,  // measure 23
0001
0000
1001
0010
0100
0101
0001
1000
,  // measure 24
1100
0000
1000
0010
0100
0000
0001
0010
0100
0010
0001
0000
1000
0000
0001
0000
,  // measure 25
0010
0000
0001
1000
0001
0000
0012
0000
0000
0103
0010
0000
1010
0000
0000
0000
,  // measure 26
0001
0000
0010
0100
1000
0000
0010
1000
0001
1000
0010
0000
0100
0000
0001
0000
,  // measure 27
0010
0001
0010
0001
0010
0000
0102
0000
1003
0000
2001
0000
3001
0000
0120
0000
,  // measure 28
0130
0000
0010
1000
0100
0000
1000
0001
0010
0001
1000
0000
0001
0000
0100
0000
,  // measure 29
0010
0000
1000
0100
1000
0000
1002
0000
0000
0103
0001
0000
0101
0000
0000
0000
,  // measure 30
1100
0000
0100
0010
0001
0000
0100
0001
1000
0010
1000
0000
0001
0000
0010
0000
,  // measure 31
0001
1000
0001
1000
0001
0000
0021
0000
0130
0000
2100
0000
3010
0000
0210
0000
,  // measure 32
0301
0000
0010
0000
1001
0000
0000
0010
0000
1000
0001
0000
1000
0100
0000
0100
,  // measure 33
1000
0000
0010
0000
0110
0000
0000
0100
0000
0001
0010
0000
0001
1000
0000
0100
,  // measure 34
1000
0000
0100
0000
1010
0000
0000
0010
0000
1000
0001
0000
0010
0001
0000
0100
,  // measure 35
0001
0010
0100
2100
3001
1002
0103
0201
,  // measure 36
0310
0000
1000
0000
1100
0000
0000
1000
0000
0001
0100
0000
0010
0100
0000
0001
,  // measure 37
1000
0001
0010
0011
0001
1000
0100
1100
,  // measure 38
0010
0000
0100
0000
1001
0000
0000
0010
0000
1000
0001
0000
1000
0001
0000
0100
,  // measure 39
0001
0000
0010
0000
0100
0000
1000
0000
0010
0100
0010
0100
0001
1000
0001
1000
,  // measure 40
0100
0000
0010
0000
0011
0000
0000
0001
0000
1000
0010
0000
1000
0100
0000
0001
,  // measure 41
0100
0000
0010
0000
1100
0000
0000
1000
0000
0010
0100
0000
0001
1000
0000
0001
,  // measure 42
0010
0000
0001
0000
0110
0000
0000
0100
0000
1000
0001
0000
1000
0010
0000
0100
,  // measure 43
0010
1000
0100
1200
1300
2010
3001
0201
,  // measure 44
0310
0000
0000
0000
1010
0000
0000
1000
0000
0100
1000
0000
0001
0000
0100
0000
,  // measure 45
0001
0000
0000
0000
0110
0000
0000
0010
0000
1000
0100
0000
1000
0000
0001
0000
,  // measure 46
0100
0000
0000
0000
1001
0000
0000
0010
0000
1000
0001
0000
0010
0000
0100
0000
,  // measure 47
1000
0010
1000
0010
0100
0001
0100
0001
1000
0100
0010
0100
1000
0000
0000
0000
,  // measure 48
1001
0000
0001
0100
0010
0000
1000
0100
0010
0000
0001
0000
1000
0000
0001
0100
,  // measure 49
0010
0100
0010
0100
0010
0000
2010
0000
3001
0000
1200
0000
1300
0000
0120
0000
,  // measure 50
0130
0000
1000
0001
1000
0000
0010
0100
0001
1000
0001
0000
0010
0100
1000
0000
,  // measure 51
0010
0100
0010
0100
0001
0000
0012
0000
0000
0000
1003
0000
2001
0000
0000
0000
,  // measure 52
3010
1000
0010
1000
0100
0000
0010
0001
0100
0001
0100
0000
0001
1000
0010
0000
,  // measure 53
1000
0000
0001
0010
0001
0000
0201
0000
0310
0000
0120
0000
1030
0000
2001
0000
,  // measure 54
3100
0000
1000
0001
1000
0000
0010
0100
0001
0000
0010
0001
1000
0000
0100
0000
,  // measure 55
1000
0010
0100
0000
0001
0000
0011
0000
0010
0000
0100
0000
1000
0001
1000
0001
,  // measure 56
1000
0100
1000
0000
0001
0100
0001
0000
0010
0001
1000
0010
0100
0000
0010
0000
,  // measure 57
1000
0001
0010
0001
1000
0000
1002
0000
0000
0000
0103
0000
0210
0000
0000
0000
,  // measure 58
0301
0010
0001
0000
1000
0010
1000
0000
0100
1000
0010
0100
0001
0000
0100
0000
,  // measure 59
0001
1000
1001
1000
0010
0110
0100
0001
,  // measure 60
0101
0000
0010
0100
1000
0000
0000
0010
1000
0001
1000
0000
0001
0100
0001
0000
,  // measure 61
0010
0000
0001
1000
0100
0000
2010
0000
3001
0000
1002
0000
0013
0000
0021
0000
,  // measure 62
0031
0000
0100
0001
1000
0000
0010
1000
0100
0010
0001
0000
1000
0010
0100
0000
,  // measure 63
0001
0010
0100
1100
0000
1000
0001
0220
,  // measure 64
0000
0000
0000
0330
;
