#TITLE:Turn Down for What;
#SUBTITLE:;
#ARTIST:DJ Snake ft. Lil Jon;
#TITLETRANSLIT:;
#SUBTITLETRANSLIT:;
#ARTISTTRANSLIT:;
#GENRE:;
#CREDIT:;
#BANNER:Turn Down for What-bn.png;
#BACKGROUND:Turn Down for What-bg.png;
#LYRICSPATH:;
#CDTITLE:;
#MUSIC:Turn Down for What.ogg;
#OFFSET:0.000000;
#SAMPLESTART:14.400000;
#SAMPLELENGTH:20.000000;
#SELECTABLE:YES;
#DISPLAYBPM:200.000000;
#BPMS:0.000000=200.000000
;
#STOPS:56.000000=1.200000,
244.000000=1.200000
;
#BGCHANGES:;
#KEYSOUNDS:;
#ATTACKS:;

//---------------dance-single - ----------------
#NOTES:
     dance-single:
     :
     Hard:
     17:
     0.883417,0.998779,0.544697,0.072092,0.384492,772.000000,704.000000,68.000000,9.000000,0.000000,0.000000,0.883417,0.998779,0.544697,0.072092,0.384492,772.000000,704.000000,68.000000,9.000000,0.000000,0.000000:
0000
0000
0000
0000
,
0000
0000
0000
0000
,
0000
0000
0000
0000
,
0000
0000
0000
0000
,
0000
0000
0000
0000
,
0000
0000
0000
0000
,
0000
0000
0000
0000
,
0000
0000
0000
0000
,
0101
0000
1000
1010
0000
0001
0011
0000
,
0100
0000
1100
0000
0000
0000
0010
0000
0100
0000
0001
0000
1000
0001
0100
0010
,
1000
0000
0010
0110
0000
0001
1001
0000
,
0100
0000
1100
0000
0000
0000
0001
0000
1000
0000
0010
0000
1000
0100
0010
0001
,
2000
0010
3010
0100
0201
0001
0301
0010
,
1000
0000
0100
0000
0001
0000
0100
0000
1000
0010
1000
0010
0100
0001
0100
0001
,
0020
0000
0100
0000
0100
0000
0130
1001
,
0110
0000
0010
1000
0100
0010
0001
0000
,
1000
0001
1000
0010
0100
0001
0010
0000
,
0011
0000
1000
0001
0010
0100
1000
0000
,
0001
1000
0010
1000
0100
0010
0001
0100
,
1010
0000
0001
0010
1000
0010
0100
0000
,
1000
0001
0010
0001
1000
0100
0010
0000
,
1001
0000
0100
0001
1000
0100
0010
0000
,
0001
0000
0100
0000
0010
0000
1000
0000
0100
0000
0010
0000
0001
1000
0010
0100
,
0001
0010
1000
0001
0100
0010
1000
0000
,
0100
0010
0001
1000
0001
0100
0010
0000
,
1100
0001
0100
0010
1000
0100
0001
0000
,
0010
0001
1000
0001
0100
1000
0100
0010
,
0101
0001
0010
1000
0100
0010
0001
0000
,
0100
0010
1000
0001
0010
1000
0100
0000
,
0110
0001
0100
1000
0010
0100
0001
0000
,
0010
0000
0001
0000
1000
0000
0010
0000
0100
0000
0001
0000
0010
0100
1000
0001
,
0100
0000
1010
0001
0010
0000
0011
1000
,
0100
0001
0010
0100
1000
0010
0100
1000
,
0100
0010
0100
1000
0100
0001
0010
1000
,
0010
0100
0010
1000
0010
0001
0010
0100
,
0001
0100
0010
1000
0010
0100
1000
0010
,
0001
0010
0100
1000
0100
0001
0010
1000
,
0010
0001
0100
0010
0001
0010
1000
0100
,
0010
0000
1000
0000
0010
0000
0001
0000
0100
0000
0010
0000
1000
0001
1000
0100
,
0010
0001
0100
0010
1000
0100
0001
0100
,
0010
1000
0010
0001
0100
0010
1000
0001
,
0010
1000
0010
1000
0010
0100
0010
0001
,
0100
1000
0100
0001
0100
1000
0100
0010
,
1000
0001
0010
0100
1000
0010
0100
0001
,
0010
1000
0010
0100
0010
0001
0100
0010
,
1000
0001
1000
0010
0001
0010
0100
0001
,
0010
0000
0100
0000
0010
0000
0001
0000
0100
0000
0010
0000
1000
0100
1000
0001
,
1000
0000
0010
1100
0000
0001
0101
0000
,
0100
0000
0110
0000
0000
0000
1000
0000
1001
0000
0001
0000
0010
0001
0100
0010
,
1000
0000
0001
1010
0000
0100
1001
0000
,
0010
0000
0110
0000
0000
0000
1000
0000
0101
0000
0001
0000
0100
0010
1000
0100
,
0010
0000
0001
1100
0000
1000
0011
0000
,
0010
0000
0110
0000
0000
0000
0100
0000
1100
0000
0010
0000
0100
0001
1000
0010
,
1000
0000
0100
1001
0000
0001
1100
0000
,
0010
0000
0101
0000
0000
0000
1000
0000
0110
0000
0001
0000
0010
0001
1000
0010
,
1000
0100
0010
0011
0001
0100
0110
0010
,
1000
0000
1100
0000
0001
0000
0010
0000
0110
0000
0100
0000
1000
0010
0001
0010
,
1000
0001
0010
0011
0001
1000
1100
0100
,
0010
0000
0110
0000
0100
0000
1000
0000
1001
0000
0010
0000
1000
0100
0001
0100
,
2000
0010
3010
0100
0201
0001
0301
1000
,
0010
0000
0100
0000
0001
0000
1000
0000
0001
0010
0100
1000
0001
0100
0010
1000
,
0020
0000
0100
0000
0100
0000
0130
1001
,
0110
0000
0000
0000
0010
0000
1100
0000
0000
0000
0001
0000
0010
0000
0100
1000
,
0001
0000
0100
0010
1000
0100
0001
0000
,
0011
0000
0000
0000
1000
0000
0101
0000
0000
0000
0010
0000
0100
0000
0001
1000
,
0100
0000
0010
0001
0100
1000
0100
0001
,
1001
0000
0000
0000
0010
0000
1010
0000
0000
0000
0001
0000
1000
0000
0100
0010
,
0001
0000
1000
0100
0010
1000
0010
0000
,
0011
0000
0000
0000
0100
0000
1001
0000
0000
0000
0010
0000
1000
0000
0001
0100
,
1000
0000
0000
0000
0010
0000
1000
0000
0100
0000
0001
0000
0100
1000
0010
0100
,
0001
0000
0000
0000
1000
0000
0110
0000
0000
0000
0001
0000
0010
0100
1000
0001
,
0100
0000
0000
0000
1100
0000
0001
0000
0011
0000
0000
0000
1000
0001
0010
0100
,
1000
0000
0000
0000
0010
0000
1001
0000
0000
0000
0100
0000
0001
0010
0100
1000
,
0001
0000
1000
0001
0100
0010
1000
0000
,
1010
0000
0000
0000
0100
0000
0101
0000
0000
0000
1000
0000
0001
0100
0010
1000
,
0100
0000
0000
0000
0011
0000
1000
0000
0101
0000
0000
0000
0010
0001
0100
0010
,
1000
0000
0001
0000
0110
0000
1001
0000
0010
0000
1000
0000
0001
0100
0010
0100
,
0001
0000
0010
0000
0001
0000
1000
0000
0100
0000
0010
0000
0001
0100
0010
1000
,
0100
0000
0000
0000
0011
0000
0001
0000
1000
0000
0000
0000
0010
1000
0100
0001
,
0100
0000
0010
0000
0001
0000
0100
0000
1000
0000
0100
0000
0010
0001
0010
1000
,
0100
0000
0001
0000
0100
0000
0010
0000
0100
0000
1000
0000
0001
0010
1000
0010
,
0001
0000
0100
0010
1000
0000
0100
0010
0001
0000
1000
0001
0100
0000
0000
0000
,
1010
0000
0001
0000
0010
0000
1000
0000
0010
0000
0100
0000
1000
0010
0001
0010
,
0100
0000
1000
0010
1000
0000
0001
0010
0001
0000
0000
0000
0100
1000
0100
0001
,
1000
0000
0010
0000
0100
0000
1000
0000
0100
0000
0001
0000
1000
0001
0010
1000
,
0010
0000
0001
1000
0001
0000
0100
0010
0100
0000
0001
0010
0001
1000
0010
0100
,
0001
0000
0010
0000
0100
0000
1000
0000
0010
0000
0100
0000
0001
1000
0100
1000
,
0010
0000
1000
0100
0001
0000
0001
0100
1000
0000
0000
0000
0010
0100
0001
1000
,
0010
0000
0100
0000
0001
0000
0010
0000
1000
0000
0010
0000
0001
0100
1000
0100
,
0001
0000
1000
0010
0001
0000
0001
0010
1000
0000
0100
1000
0100
0000
0010
0000
,
0001
1000
0001
0000
0010
0000
0100
1000
0100
0000
0010
0000
0001
1000
0100
0010
,
0001
0000
1000
0100
0001
0000
1000
0010
0001
0000
0100
0000
0010
1000
0100
0001
,
0100
0000
1000
0001
0100
0000
0010
0000
1000
0000
0001
0000
0010
0100
1000
0001
,
0100
0000
0101
1001
2010
0001
3100
0000
,
0220
0000
0000
0000
,
0000
0000
0000
0000
,
0000
0000
0000
0000
,
0000
0000
0000
0000
,
0000
0000
0000
0000
,
0000
0000
0000
0330
;

//---------------dance-single - ----------------
#NOTES:
     dance-single:
     :
     Medium:
     13:
     0.647686,0.719121,1.169497,0.216277,0.048062,566.000000,420.000000,146.000000,27.000000,0.000000,0.000000,0.647686,0.719121,1.169497,0.216277,0.048062,566.000000,420.000000,146.000000,27.000000,0.000000,0.000000:
0000
0000
0000
0000
,
0000
0000
0000
0000
,
0000
0000
0000
0000
,
0000
0000
0000
0000
,
0000
0000
0000
0000
,
0000
0000
0000
0000
,
0000
0000
0000
0000
,
0000
0000
0000
0000
,
0101
0000
0000
1100
0000
0000
0011
0000
,
0000
1010
0000
0000
1000
0001
0100
0010
,
1010
0000
0000
1100
0000
0000
0101
0000
,
0000
0011
0000
0000
0010
0001
1000
0100
,
1001
0000
0010
0100
0110
0000
0001
1000
,
0001
0010
0100
1000
0001
0100
0010
1000
,
0120
0000
0100
0000
0100
0000
0130
0010
,
1001
0000
1000
0001
0000
0000
0101
0000
,
0010
0000
1000
0100
0000
0000
0011
0000
,
0100
0000
0010
1000
0000
0000
1100
0000
,
0001
0000
1000
0010
0100
0000
0001
0010
,
0100
0000
1000
0001
0000
0000
0101
0000
,
0010
0000
1000
0100
0000
0000
0110
0000
,
0001
0000
1000
0010
0000
0000
1100
0000
,
0010
0000
1000
0001
0100
0000
0010
1000
,
0100
0000
0010
0001
0000
1000
0010
0000
,
1000
0000
0100
0010
0000
0000
0011
0000
,
1001
0000
1000
0001
0000
0010
0100
0000
,
1000
0000
0001
1000
0100
0000
0010
0001
,
1000
0000
0001
1000
0000
0100
0010
0000
,
0001
0000
1000
0001
0000
0000
1100
0000
,
0110
0000
0001
1000
0000
0010
0100
0000
,
0010
0000
1000
0001
0100
0000
0001
1000
,
0010
0000
0100
0001
0000
0000
1000
1000
,
1000
1100
0110
0011
,
0101
0000
1001
0000
1010
0000
0001
0001
,
0001
0011
1100
0101
,
0010
0000
1000
0001
0000
0000
0100
0100
,
0100
0110
1010
1100
,
0011
0000
1001
0000
0110
0000
0010
0010
,
0010
0000
1100
0000
0011
0000
1000
0001
,
0100
0000
0101
0000
0011
0000
0010
0010
,
0010
1100
1001
0101
,
1100
0000
0110
0000
0011
0000
1000
1000
,
1000
0110
1001
0011
,
1100
0000
1001
0000
1010
0000
0001
0001
,
0001
0011
1100
0110
,
0011
1010
0101
1100
,
1001
0000
0110
0000
1000
0100
0010
0001
,
0011
0000
0000
1100
0000
0000
0101
0000
,
0000
0011
0000
1000
1000
0001
0100
0010
,
1010
0000
0000
0101
0000
0000
0011
0000
,
0000
1100
0000
0010
0010
0100
0001
1000
,
1100
0000
0000
0101
0000
0000
0011
0000
,
0000
1010
0000
0100
0100
0010
1000
0001
,
0101
0000
0000
0011
0000
0000
1100
0000
,
0000
1010
0000
0001
0001
1000
0100
0010
,
0011
0000
0000
0110
0000
0000
1100
0000
,
0000
0101
0000
0010
0010
1000
0100
0001
,
1001
0000
0000
0110
0000
0000
1010
0000
,
0000
0101
0000
1000
1000
0001
0010
0100
,
1100
0000
0010
0100
0101
0000
0001
1000
,
0010
0100
0001
1000
0010
0100
0001
1000
,
0120
0000
0100
0000
0100
0000
0130
0010
,
1001
0000
0000
0000
0000
0000
1100
0000
0000
0000
0000
0000
0001
0000
0100
0010
,
0200
0000
0000
0000
0320
0000
0000
0000
2030
0000
0000
0000
3001
0000
1000
0100
,
1000
0000
0000
0000
0000
0000
0011
0000
0000
0000
0000
0000
0100
0000
0001
0010
,
0002
0000
2003
0000
3200
0000
0310
0001
,
0101
0000
0000
0000
0000
0000
0110
0000
0000
0000
0000
0000
1000
0000
0100
0010
,
0200
0000
0000
0000
0320
0000
0000
0000
0032
0000
0000
0000
1003
0000
0010
0100
,
0010
0000
0000
0000
0000
0000
1100
0000
0000
0000
0000
0000
1000
0000
0001
0100
,
0002
0000
0023
0000
0230
0000
1300
0001
,
0110
0000
0000
0000
0000
0000
0101
0000
0000
0000
0000
0000
0010
0000
1000
0001
,
2000
0000
0000
0000
3200
0000
0000
0000
0320
0000
0000
0000
0031
0000
0100
0010
,
0100
0000
0000
0000
0000
0000
1001
0000
0000
0000
0000
0000
0001
0000
1000
0010
,
2000
0000
3002
0000
0203
0000
0310
1000
,
1100
0000
0000
0000
0000
0000
0011
0000
0000
0000
0000
0000
0100
0000
0001
1000
,
0002
0000
0000
0000
2003
0000
0000
0000
3200
0000
0000
0000
0310
0000
0001
1000
,
0001
0000
0010
0000
0100
0000
1000
0000
0000
0000
0000
0000
0010
0000
1000
0100
,
2000
0000
3010
1000
0100
0000
0010
0001
,
0100
0000
0110
0000
1001
0000
0001
0001
,
0001
1100
0011
0110
,
1001
0000
1010
0000
0101
0000
0010
0010
,
0010
1001
1100
0011
,
0110
0000
0011
0000
0101
0000
1000
1000
,
1000
0110
0101
0011
,
1001
0000
0110
0000
1010
0000
0100
0100
,
0100
0000
1010
0000
0011
0000
0001
1000
,
0010
0000
1100
0000
0011
0000
1000
1000
,
1000
0011
0110
1100
,
1001
0000
0110
0000
0101
0000
0001
0001
,
0001
1100
0011
1100
,
1001
0000
0110
0000
1010
0000
0010
0010
,
0010
0101
0011
1010
,
0110
1001
1100
0011
,
1001
0000
1100
0001
0200
0010
0310
0000
,
0220
0000
0000
0000
,
0000
0000
0000
0000
,
0000
0000
0000
0000
,
0000
0000
0000
0000
,
0000
0000
0000
0000
,
0000
0000
0000
0330
;

//---------------dance-single - ----------------
#NOTES:
     dance-single:
     :
     Easy:
     8:
     0.345585,0.430651,0.096123,0.136174,0.000000,302.000000,290.000000,12.000000,17.000000,0.000000,0.000000,0.345585,0.430651,0.096123,0.136174,0.000000,302.000000,290.000000,12.000000,17.000000,0.000000,0.000000:
0000
0000
0000
0000
,
0000
0000
0000
0000
,
0000
0000
0000
0000
,
0000
0000
0000
0000
,
0000
0000
0000
0000
,
0000
0000
0000
0000
,
0000
0000
0000
0000
,
0000
0000
0000
0000
,
1000
0000
0000
0001
0000
0000
0100
0000
,
0000
0001
0000
0000
1000
0000
0000
0000
,
0010
0000
0000
0100
0000
0000
0001
0000
,
0000
0100
0000
0000
0010
0000
0000
0000
,
2020
3030
0202
0303
,
1000
0100
0010
0001
,
1001
0100
0100
0100
,
0110
0000
0000
0001
0000
0000
1000
0000
,
0000
0000
0100
0010
0000
0000
0001
0000
,
1000
0000
0000
0010
0000
0000
1000
0000
,
0000
0100
0100
0100
,
0010
0000
0000
0001
0000
0000
1000
0000
,
0000
0000
0010
0100
0000
0000
0001
0000
,
0010
0000
0000
0001
0000
0000
1000
0000
,
0000
0100
0100
0100
,
1000
0000
0000
0100
0000
0000
0001
0000
,
0000
0000
1000
0001
0000
0000
0010
0000
,
0001
0000
0000
0100
0000
0000
0010
0000
,
0000
0100
0100
0100
,
0010
0000
0000
1000
0000
0000
0100
0000
,
0000
0000
1000
0100
0000
0000
0001
0000
,
0010
0000
0000
0100
0000
0000
1000
0000
,
0000
0100
0100
0100
,
2002
0000
3003
0001
,
0010
0010
0001
0100
,
1000
0010
1000
0100
,
0010
0001
1000
0001
,
0010
0010
0100
0100
,
0010
0001
0100
1000
,
0010
1000
0100
0100
,
0010
0001
1000
0001
,
1000
0001
0010
0100
,
1000
0001
0001
0010
,
0001
0100
1000
0010
,
1000
0100
0010
0001
,
0010
0001
0100
1000
,
1000
0010
1000
0100
,
0010
0001
0001
0100
,
0001
0001
1000
0100
,
0010
0000
0000
0010
0000
0000
0010
0000
,
0000
0010
0000
0000
0010
0000
0000
0000
,
0001
0000
0000
0001
0000
0000
0001
0000
,
0000
0001
0000
0000
0001
0000
0000
0000
,
0100
0000
0000
0100
0000
0000
0100
0000
,
0000
0100
0000
0000
0100
0000
0000
0000
,
1000
0000
0000
1000
0000
0000
1000
0000
,
0000
1000
0000
0000
1000
0000
0000
0000
,
0100
0000
0000
1000
0000
0000
0010
0000
,
0000
1000
0000
0000
0100
0000
0000
0000
,
0001
0000
0000
0010
0000
0000
1000
0000
,
0000
0010
0000
0000
0001
0000
0000
0000
,
0202
0303
2020
3030
,
0001
0010
0100
1000
,
1001
0100
0100
0100
,
0110
0000
0000
0001
0000
0000
1000
0000
,
0010
1000
0100
0001
,
0010
0000
0000
0100
0000
0000
1000
0000
,
0001
1000
0100
1000
,
0010
0000
0000
0100
0000
0000
0001
0000
,
1000
0001
1000
0100
,
0001
0000
0000
1000
0000
0000
0010
0000
,
1000
0001
0100
0010
,
0100
0000
0000
0010
0000
0000
0100
0000
,
0001
0010
1000
0001
,
1000
0000
0000
0001
0000
0000
1000
0000
,
0010
0001
0100
1000
,
0001
0000
0000
1000
0000
0000
0001
0000
,
0010
0001
0100
0010
,
1000
0000
0001
0100
0000
0000
0010
0000
,
1000
0001
0100
0001
,
2002
0000
3003
0010
,
1000
0001
0010
1000
,
0100
0010
0100
1000
,
0001
0010
1000
1000
,
0010
1000
0010
0100
,
0010
1000
0001
0100
,
0001
1000
0001
0100
,
1000
0010
1000
0100
,
0010
0001
1000
0001
,
0100
0010
0010
1000
,
0100
0010
0001
0100
,
1000
1000
0001
0010
,
0100
0010
0001
0100
,
0010
0100
1000
0001
,
0010
0001
0100
1000
,
2100
3002
2003
3100
,
0220
0000
0000
0000
,
0000
0000
0000
0000
,
0000
0000
0000
0000
,
0000
0000
0000
0330
;

//---------------dance-single - ----------------
#NOTES:
     dance-single:
     :
     Beginner:
     5:
     0.202545,0.391501,0.096123,0.080103,0.000000,177.000000,165.000000,12.000000,10.000000,0.000000,0.000000,0.202545,0.391501,0.096123,0.080103,0.000000,177.000000,165.000000,12.000000,10.000000,0.000000,0.000000:
// measure 0
0000
0000
0000
0000
,  // measure 1
0000
0000
0000
0000
,  // measure 2
0000
0000
0000
0000
,  // measure 3
0000
0000
0000
0000
,  // measure 4
0000
0000
0000
0000
,  // measure 5
0000
0000
0000
0000
,  // measure 6
0000
0000
0000
0000
,  // measure 7
0000
0000
0000
0000
,  // measure 8
2000
0000
0000
0000
,  // measure 9
0000
0000
3000
0000
,  // measure 10
0002
0000
0000
0000
,  // measure 11
0000
0000
0003
0000
,  // measure 12
1001
0000
1001
0000
,  // measure 13
0110
0000
0110
0000
,  // measure 14
1001
0100
0100
0100
,  // measure 15
0010
0000
0000
1000
,  // measure 16
0000
0000
0001
0000
,  // measure 17
0010
0000
0000
0001
,  // measure 18
0000
0100
0100
0100
,  // measure 19
0001
0000
0000
0010
,  // measure 20
0000
0000
0100
0000
,  // measure 21
1000
0000
0000
0001
,  // measure 22
0000
0100
0100
0100
,  // measure 23
0010
0000
0000
1000
,  // measure 24
0000
0000
0100
0000
,  // measure 25
1000
0000
0000
0001
,  // measure 26
0000
0100
0100
0100
,  // measure 27
0010
0000
0000
0100
,  // measure 28
0000
0000
0001
0000
,  // measure 29
0010
0000
0000
0001
,  // measure 30
0000
0100
0100
0100
,  // measure 31
0001
0000
0000
1000
,  // measure 32
0000
1000
0000
0001
,  // measure 33
0000
1000
0000
0010
,  // measure 34
0000
0100
0000
0001
,  // measure 35
0000
0010
0000
0010
,  // measure 36
0000
0100
0000
0100
,  // measure 37
0000
1000
0000
0001
,  // measure 38
0000
1000
0000
0001
,  // measure 39
0000
0010
0000
0010
,  // measure 40
0000
0001
0000
0100
,  // measure 41
0000
1000
0000
0001
,  // measure 42
0000
1000
0000
0010
,  // measure 43
0000
0100
0000
0010
,  // measure 44
0000
0100
0000
0001
,  // measure 45
0000
0010
0000
1000
,  // measure 46
0000
0001
0000
0100
,  // measure 47
0020
0000
0000
0000
,  // measure 48
0000
0000
0030
0000
,  // measure 49
0200
0000
0000
0000
,  // measure 50
0000
0000
0300
0000
,  // measure 51
0002
0000
0000
0000
,  // measure 52
0000
0000
0003
0000
,  // measure 53
2000
0000
0000
0000
,  // measure 54
0000
0000
3000
0000
,  // measure 55
0200
0000
0000
0000
,  // measure 56
0000
0000
0300
0000
,  // measure 57
0020
0000
0000
0000
,  // measure 58
0000
0000
0030
0000
,  // measure 59
0110
0000
0110
0000
,  // measure 60
1001
0000
1001
0000
,  // measure 61
0110
0100
0100
0100
,  // measure 62
0001
0000
0001
0000
,  // measure 63
1000
1000
1000
0000
,  // measure 64
0010
0000
0010
0000
,  // measure 65
1000
0100
0100
0100
,  // measure 66
1000
0000
0001
0000
,  // measure 67
0010
0010
0010
0000
,  // measure 68
0001
0000
1000
0000
,  // measure 69
0001
0100
0100
0100
,  // measure 70
0010
0000
1000
0000
,  // measure 71
0100
0010
0100
0000
,  // measure 72
1000
0000
0001
0000
,  // measure 73
0010
0100
0100
0100
,  // measure 74
0010
0000
0001
0000
,  // measure 75
1000
0001
1000
0000
,  // measure 76
0001
0000
0010
0000
,  // measure 77
0001
0100
0100
0100
,  // measure 78
0010
0000
0000
1000
,  // measure 79
0000
0001
0000
0010
,  // measure 80
0000
0001
0000
0100
,  // measure 81
0000
0010
0000
1000
,  // measure 82
0000
0010
0000
0010
,  // measure 83
0000
0100
0000
0100
,  // measure 84
0000
1000
0000
0001
,  // measure 85
0000
1000
0000
0001
,  // measure 86
0000
0010
0000
0001
,  // measure 87
0000
0100
0000
0010
,  // measure 88
0000
1000
0000
1000
,  // measure 89
0000
0001
0000
0001
,  // measure 90
0000
0010
0000
0001
,  // measure 91
0000
0100
0000
0010
,  // measure 92
0000
1000
0000
0100
,  // measure 93
0010
0000
1001
0000
,  // measure 94
0220
0000
0000
0000
,  // measure 95
0000
0000
0000
0000
,  // measure 96
0000
0000
0000
0000
,  // measure 97
0000
0000
0000
0330
;
