#TITLE:Travis;
#SUBTITLE:;
#ARTIST:Just Dave;
#TITLETRANSLIT:;
#SUBTITLETRANSLIT:;
#ARTISTTRANSLIT:;
#GENRE:;
#CREDIT:;
#BANNER:Travis-bn.png;
#BACKGROUND:Travis-bg.png;
#LYRICSPATH:;
#CDTITLE:;
#MUSIC:Travis.ogg;
#OFFSET:0.000000;
#SAMPLESTART:16.174273;
#SAMPLELENGTH:20.000000;
#SELECTABLE:YES;
#DISPLAYBPM:111.000000:123.000000;
#BPMS:0.000000=111.000000
,4.000000=117.000000
,8.000000=120.000000
,16.000000=121.000000
,23.000000=118.000000
,25.500000=119.870003
,28.000000=122.000000
,32.000000=119.000000
,35.000000=118.000000
,39.000000=120.000000
,55.500000=119.870003
,66.500000=121.000000
,74.500000=119.000000
,81.500000=122.000000
,83.250000=120.000000
,87.500000=119.000000
,91.250000=117.000000
,95.500000=119.870003
,96.500000=121.000000
,112.000000=120.000000
,119.000000=118.000000
,120.000000=120.000000
,123.000000=121.000000
,124.000000=119.000000
,126.000000=123.000000
,128.000000=119.870003
,131.000000=119.000000
,138.000000=117.000000
,140.000000=120.000000
,147.000000=121.199997
,152.000000=123.000000
,154.000000=122.000000
,156.000000=120.000000
,162.500000=119.000000
,175.000000=120.400002
;
#STOPS:
;
#BGCHANGES:;
#KEYSOUNDS:;
#ATTACKS:;

//---------------dance-single - ----------------
#NOTES:
     dance-single:
     :
     Hard:
     9:
     0.396825,0.383557,0.275198,0.352597,0.107499,323.000000,291.000000,32.000000,41.000000,0.000000,0.000000,0.396825,0.383557,0.275198,0.352597,0.107499,323.000000,291.000000,32.000000,41.000000,0.000000,0.000000:
0000
0000
0000
0000
,
0000
0000
0000
0000
,
0000
0000
0000
0000
,
0000
0000
0000
0000
,
0010
0000
1000
0001
0000
0001
1000
0100
,
0010
0001
1000
0002
0000
1003
0200
0000
,
1300
0010
0100
0001
0000
0010
0100
1000
,
0001
1000
0010
1000
0100
0010
0001
0000
,
1002
0000
1003
0010
1000
0100
0010
0000
,
0011
0001
1000
0010
0000
0010
0100
0000
,
0010
0010
1000
0002
0000
0100
0103
0010
,
1000
0000
0001
0010
0000
0100
1000
0000
,
2100
0000
3100
1000
0010
0100
0001
0000
,
0101
0001
1000
0100
0000
1000
0001
0000
,
0010
0001
1000
0020
0000
0130
0000
2010
,
0000
3001
0000
0210
0000
0001
0301
0000
,
1001
0000
0000
0000
1000
0000
0100
0000
0000
0000
2100
0000
0000
3002
0000
0000
,
0013
0001
0100
0010
0000
1000
0100
0000
,
0010
0000
0000
0000
0001
0000
1000
0000
0000
0000
1020
0000
0000
0230
0000
0000
,
0001
0301
0100
0010
0000
1000
0100
0000
,
0110
0000
0000
0000
0010
0000
0001
0000
0000
0000
0201
0000
0000
0302
0000
0000
,
0010
0013
0001
0100
0000
0001
1000
0000
,
0001
0000
0000
0000
1000
0000
0001
0000
0000
0000
0021
0000
0000
0130
0000
0000
,
0220
0000
0000
0330
,
1000
0001
0010
0100
0000
0100
0010
0001
,
1000
0001
1000
0100
0000
0100
0020
0000
,
0031
1000
0010
0100
0000
0001
2001
0000
,
0010
3010
1000
0001
0000
0100
0100
0000
,
1000
0001
0100
0010
0000
0010
0100
0001
,
0010
0001
1000
0100
0000
1000
1020
0000
,
0130
0010
1000
0001
0000
0010
0001
1000
,
0010
1000
0100
1000
0010
0100
0001
0000
,
0201
0000
0310
0100
1000
0001
1000
0000
,
1100
1000
0001
2000
0000
0100
3100
0000
,
1000
0001
0010
0002
0000
0100
0103
0010
,
0200
0000
0301
1000
0000
1000
0100
0000
,
0012
0000
1003
0001
0010
0100
1000
0000
,
1001
0010
1000
0002
0000
0100
0103
0000
,
0010
1000
0001
2000
0000
3100
0000
1100
,
0000
0101
0000
0210
0000
0010
0310
0000
,
2010
0000
0000
0000
3001
0000
0010
0000
0000
0000
0012
0000
0000
2003
0000
0000
,
0100
3100
1000
0001
0000
0010
0001
0000
,
0201
0000
0000
0000
0310
0000
0100
0000
0000
0000
0120
0000
0000
2030
0000
0000
,
0001
3001
1000
0200
0000
1300
0010
0000
,
1020
0000
0000
0000
0130
0000
0001
0000
0000
0000
0021
0000
0000
0230
0000
0000
,
1300
0010
1000
0001
0000
0100
0100
0000
,
0001
0000
1000
0000
0010
0000
1000
0000
0000
0000
2100
0000
0000
3001
0000
0000
,
1001
0000
0000
1000
0000
0100
1000
0000
0000
0001
0000
0100
,
0001
0000
1000
0001
0000
0100
0000
0000
0010
0100
0000
0000
,
0001
0000
0000
1000
0000
0010
1000
0000
0000
0010
0000
0100
,
0001
0000
0010
0001
0000
1000
0000
0000
0100
1000
0000
0000
,
0110
0000
0000
0001
0000
0100
0010
0000
0000
0100
0000
0001
,
1000
0000
0100
1000
0000
0001
0000
0000
0100
0010
0000
0000
,
1000
0000
0000
1000
0000
0100
0010
0000
0001
0100
0000
0000
,
2002
0000
0000
0000
,
0000
0000
0000
3003
;

//---------------dance-single - ----------------
#NOTES:
     dance-single:
     :
     Medium:
     7:
     0.299769,0.335612,0.240798,0.309598,0.000000,244.000000,216.000000,28.000000,36.000000,0.000000,0.000000,0.299769,0.335612,0.240798,0.309598,0.000000,244.000000,216.000000,28.000000,36.000000,0.000000,0.000000:
// measure 0
0000
0000
0000
0000
,  // measure 1
0000
0000
0000
0000
,  // measure 2
0000
0000
0000
0000
,  // measure 3
0000
0000
0000
0000
,  // measure 4
0010
0000
1000
0000
0001
1000
0100
0000
,  // measure 5
0010
0000
0100
0000
1000
0001
2000
0000
,  // measure 6
3001
1000
0010
0000
1000
0100
0010
0000
,  // measure 7
0002
0000
1000
0000
0103
0010
0100
0000
,  // measure 8
1001
0000
0100
0000
0010
1000
0001
0000
,  // measure 9
0022
0000
0000
0003
0000
0000
0031
0000
0000
0000
0100
0000
0010
0000
0000
0000
,  // measure 10
1000
0010
0100
0000
0001
1000
0010
0000
,  // measure 11
0202
0000
0000
0003
0000
0000
0301
0000
0000
0000
1000
0000
0010
0000
0000
0000
,  // measure 12
1010
0000
1000
0000
0010
0100
0001
0000
,  // measure 13
0220
0000
0000
0300
0000
0000
1030
0000
0000
0000
0010
0000
0100
0000
0000
0000
,  // measure 14
0001
1000
0001
0000
0100
0010
1000
0000
,  // measure 15
1100
0101
1100
0000
,  // measure 16
1001
0000
0001
0000
0000
2000
0000
3010
,  // measure 17
1000
0001
0000
0200
0000
0000
0300
0000
,  // measure 18
0110
0000
1000
0000
0000
0002
0000
0013
,  // measure 19
0001
1000
0000
0200
0000
0000
0300
0000
,  // measure 20
1010
0000
0000
1000
0000
0100
0000
1000
,  // measure 21
0001
0200
0000
0020
0000
0000
0330
0000
,  // measure 22
1010
0000
0000
2100
0000
3001
1000
0000
,  // measure 23
0022
0000
0000
0033
,  // measure 24
0010
0000
0001
0000
0010
0100
1000
0000
,  // measure 25
1000
0000
0010
0000
1000
0001
0200
0000
,  // measure 26
0310
0100
1000
0000
0100
0010
0002
0000
,  // measure 27
0103
0001
0000
1000
0000
0000
0000
0000
,  // measure 28
0001
0010
0100
0000
1000
0010
1000
0000
,  // measure 29
0001
0000
0100
0000
0010
0100
0002
0000
,  // measure 30
0013
0001
1000
0000
0010
1000
0001
0000
,  // measure 31
0200
0000
0310
0000
1000
0001
1000
0000
,  // measure 32
1001
0000
0100
0000
1000
0001
0010
0000
,  // measure 33
0220
0000
0000
0300
0000
0000
1030
0000
0000
0000
0001
0000
0100
0000
0000
0000
,  // measure 34
0001
0010
0001
0000
1000
0100
1000
0000
,  // measure 35
2020
0000
0000
3000
0000
0000
0130
0000
0000
0000
0010
0000
1000
0000
0000
0000
,  // measure 36
1100
0000
1000
0000
0010
0100
0001
0000
,  // measure 37
0202
0000
0000
0003
0000
0000
0310
0000
0000
0000
1000
0000
0100
0000
0000
0000
,  // measure 38
1000
0001
1000
0000
0100
0010
0001
0000
,  // measure 39
0011
1010
0011
0000
,  // measure 40
0110
0000
0100
0000
0000
2000
0000
3010
,  // measure 41
0100
0001
0000
2000
0000
0000
3000
0000
,  // measure 42
1010
0000
0001
0000
0000
2000
0000
3001
,  // measure 43
0100
0010
0000
0200
0000
0000
0300
0000
,  // measure 44
1001
0000
0100
0000
0000
0002
0000
1003
,  // measure 45
0001
0100
0000
0020
0000
0000
0030
0000
,  // measure 46
1010
0000
0000
0002
0000
1003
0100
0000
,  // measure 47
1100
0100
1000
0001
,  // measure 48
0010
0100
0010
0001
,  // measure 49
0100
0001
1000
0001
,  // measure 50
0010
0100
1000
0001
,  // measure 51
1000
0001
0010
0100
,  // measure 52
0010
0001
0100
0001
,  // measure 53
1000
0100
0010
0001
,  // measure 54
2002
0000
0000
0000
,  // measure 55
0000
0000
0000
3003
;

//---------------dance-single - ----------------
#NOTES:
     dance-single:
     :
     Easy:
     3:
     0.154799,0.191778,0.060200,0.085999,0.000000,126.000000,119.000000,7.000000,10.000000,0.000000,0.000000,0.154799,0.191778,0.060200,0.085999,0.000000,126.000000,119.000000,7.000000,10.000000,0.000000,0.000000:
0000
0000
0000
0000
,
0000
0000
0000
0000
,
0000
0000
0000
0000
,
0000
0000
0000
0000
,
0010
0000
0010
0000
,
0001
0000
0001
0000
,
1000
0000
1000
0000
,
0100
0000
0100
0000
,
1001
0000
1000
0100
,
0002
0000
0000
0003
,
0010
0010
0001
1000
,
0200
0000
0000
0300
,
0110
0000
0100
1000
,
0020
0000
0000
0030
,
1000
1000
0001
0010
,
0100
0100
0100
0000
,
1000
0000
0001
0000
,
0010
0000
0010
0000
,
0001
0000
0100
0000
,
0001
0000
1000
0000
,
0010
0000
1000
0000
,
0100
0000
0010
0000
,
0001
0000
1000
0000
,
0220
0000
0000
0330
,
1000
0100
1000
0000
,
0001
0100
0001
0000
,
0010
0100
1000
0000
,
0010
0100
0001
0000
,
0100
0010
0100
0000
,
0001
1000
0001
0000
,
1000
0010
1000
0000
,
0001
0010
0001
0000
,
1001
0000
0100
0001
,
2000
0000
0000
3000
,
0100
0100
1000
0001
,
0020
0000
0000
0030
,
0110
0000
0010
0001
,
0200
0000
0000
0300
,
0010
0010
1000
0001
,
0100
0100
0100
0000
,
0001
0000
0010
0000
,
0001
0000
1000
0000
,
0010
0000
1000
0000
,
0100
0000
0010
0000
,
0001
0000
0100
0000
,
0001
0000
1000
0000
,
0010
0000
0100
0000
,
0110
0000
1000
0000
,
0001
0100
0010
0000
,
1000
0000
0001
0000
,
0010
0001
1000
0000
,
0100
0000
0010
0000
,
0001
0100
0010
0000
,
1000
0000
0001
0000
,
2002
0000
0000
0000
,
0000
0000
0000
3003
;

//---------------dance-single - ----------------
#NOTES:
     dance-single:
     :
     Beginner:
     1:
     0.088456,0.116099,0.077399,0.000000,0.000000,72.000000,63.000000,9.000000,0.000000,0.000000,0.000000,0.088456,0.116099,0.077399,0.000000,0.000000,72.000000,63.000000,9.000000,0.000000,0.000000,0.000000:
0000
0000
0000
0000
,
0000
0000
0000
0000
,
0000
0000
0000
0000
,
0000
0000
0000
0000
,
0010
0000
0000
0000
,
0001
0000
0000
0000
,
1000
0000
0000
0000
,
0100
0000
0000
0000
,
0010
0000
0010
0000
,
0010
0000
0000
0000
,
0100
0000
0100
0000
,
0100
0000
0000
0000
,
1000
0000
1000
0000
,
1000
0000
0000
0000
,
0001
0000
0001
0000
,
0001
0000
0000
0000
,
1001
0000
0000
0000
,
1000
0000
0000
0000
,
1001
0000
0000
0000
,
0001
0000
0000
0000
,
1001
0000
0000
0000
,
0100
0000
0000
0000
,
0010
0000
0000
0000
,
1001
0000
0000
0000
,
1000
0000
0000
0000
,
0100
0000
0000
0000
,
0010
0000
0000
0000
,
0001
0000
0000
0000
,
0010
0000
0000
0000
,
0001
0000
0000
0000
,
1000
0000
0000
0000
,
0100
0000
0000
0000
,
1000
0000
1000
0000
,
1000
0000
0000
0000
,
0001
0000
0001
0000
,
0001
0000
0000
0000
,
0100
0000
0100
0000
,
0100
0000
0000
0000
,
0010
0000
0010
0000
,
0010
0000
0000
0000
,
1001
0000
0000
0000
,
0001
0000
0000
0000
,
1001
0000
0000
0000
,
1000
0000
0000
0000
,
1001
0000
0000
0000
,
0010
0000
0000
0000
,
0100
0000
0000
0000
,
1001
0000
1000
0000
,
0001
0000
0000
0000
,
0100
0000
0010
0000
,
0100
0000
0000
0000
,
0001
0000
1000
0000
,
0010
0000
0000
0000
,
1000
0000
0001
0000
,
1001
0000
0000
0000
;
