#TITLE:Touch My Body;
#SUBTITLE:;
#ARTIST:anubasu-anubasu;
#TITLETRANSLIT:;
#SUBTITLETRANSLIT:;
#ARTISTTRANSLIT:;
#GENRE:;
#CREDIT:;
#BANNER:Touch My Body-bn.png;
#BACKGROUND:Touch My Body-bg.png;
#LYRICSPATH:;
#CDTITLE:;
#MUSIC:Touch My Body.ogg;
#OFFSET:0.000000;
#SAMPLESTART:73.599998;
#SAMPLELENGTH:20.000000;
#SELECTABLE:YES;
#DISPLAYBPM:150.000000;
#BPMS:0.000000=150.000000
;
#STOPS:
;
#BGCHANGES:;
#KEYSOUNDS:;
#ATTACKS:;

//---------------dance-single - ----------------
#NOTES:
     dance-single:
     :
     Hard:
     15:
     0.828683,0.960515,0.902911,0.187397,0.890134,681.000000,575.000000,106.000000,22.000000,0.000000,0.000000,0.828683,0.960515,0.902911,0.187397,0.890134,681.000000,575.000000,106.000000,22.000000,0.000000,0.000000:
0000
0000
0000
0000
,
0000
0000
0000
0000
,
0000
0000
0000
0000
,
0000
0000
0000
0000
,
0000
0000
0000
0000
,
0101
1100
0011
1010
,
0001
0001
0010
0010
0100
0100
1000
1000
,
0010
1000
0100
1000
0001
0100
0001
0010
0100
1000
0010
1000
0001
0100
0010
0001
,
0010
0000
1000
0100
0000
1000
0001
0000
0011
0000
0110
0000
1100
0000
1010
0000
,
1001
0000
0000
0000
1000
0010
1000
0010
0100
0001
0100
0001
0010
0000
0010
0000
,
0001
1000
0001
1000
0001
0100
0001
0100
0010
1000
0010
1000
0100
0000
1100
0000
,
0101
0000
0000
0000
0010
0001
0010
0001
1000
0100
1000
0100
0010
0000
0010
0000
,
0001
0010
0001
1000
0000
1000
0100
0000
1100
0000
1001
0000
0011
0000
0100
0001
,
1000
0000
0000
0000
0010
0100
0010
0100
0001
1000
0001
1000
0100
0000
0100
0000
,
1000
0100
0010
0001
0100
0010
0100
0001
1000
0000
0010
1000
0000
0001
0100
0000
,
0010
0000
0000
0000
1000
0001
1000
0001
0010
0100
0010
0100
1000
0000
1000
0000
,
0001
0000
1000
0010
0100
0010
1000
0000
1010
0000
0110
0000
0101
0000
0011
0000
,
1001
0000
0000
0000
1100
0000
0001
0100
0000
0100
0010
0000
0110
0000
0000
0000
,
0101
0000
0101
0000
0101
0000
0001
1000
0000
1000
0010
0000
0110
0000
0100
0000
,
0001
0000
0000
0000
1010
0000
0100
0010
0000
0010
1000
0000
1100
0000
0000
0000
,
1010
0000
1010
0000
1010
0000
1000
0001
0000
0001
0010
0100
1000
0010
0100
0001
,
0010
0000
0000
0000
0011
0000
0100
1000
0000
1000
0001
0000
0011
0000
0000
0000
,
1001
0000
1001
0000
1001
0000
0100
0001
0000
0010
0100
0000
1100
0000
0001
0000
,
0100
0000
0000
0000
0110
0000
0001
0010
0000
0100
1000
0000
1100
0000
0001
0000
,
0011
0000
0010
0100
0000
0100
1000
0000
1010
0000
1001
0000
0011
0000
0110
0000
,
2100
0001
0000
0001
,
0000
0002
0000
3003
,
2000
0000
0000
0000
3002
0000
0000
0010
0000
0013
0000
0001
0200
0000
0000
0000
,
0301
0000
0100
0010
0000
0100
0010
0000
1010
0000
1100
0000
1001
0000
0000
0000
,
0002
0000
0000
0000
0023
0000
0000
0100
0000
0130
0000
1000
0002
0000
0000
0000
,
0010
0013
0001
0001
0101
1010
0110
0000
,
0020
0000
0000
0000
2030
0000
0000
0100
0000
3100
0000
1000
0002
0000
0000
0000
,
0013
0000
0001
1000
0000
0001
1000
0000
1100
0000
0110
0000
0012
0000
1003
0000
,
0200
0000
0000
0000
2300
0000
0000
0010
0000
3010
0000
0100
0002
0000
0000
0000
,
0013
0000
0001
1000
0000
0010
0100
0000
0110
0000
0101
0000
0011
0000
1001
0000
,
1010
0000
0000
0000
0101
0000
0000
1000
0000
0001
0000
0100
0010
0000
1000
0100
,
0010
0000
0001
0100
0000
0010
0000
2000
0000
3010
0100
0010
1000
0000
0000
0000
,
1100
0000
0000
0000
0011
0000
0000
0001
0000
0100
0000
0010
1000
0000
0010
1000
,
0001
0000
0010
0001
0000
1000
0000
0020
0000
0130
0001
1000
0100
0000
0000
0000
,
1001
0000
0000
0000
0110
0000
0000
0010
0000
1000
0000
0001
0100
0000
0001
1000
,
0100
0000
1000
0010
0000
0100
0000
0002
0000
0013
0001
1000
0010
0000
0000
0000
,
0110
0000
0000
0000
1001
0000
0000
0100
0000
0010
0000
0001
1000
0000
0001
1000
,
0010
0000
0010
0000
0010
0000
0010
0000
0010
0100
0010
0100
0010
0000
0000
0000
,
0001
0000
1000
0010
0000
0010
0100
0000
0101
0000
0011
0000
0110
0000
0000
0000
,
1010
0110
0101
0011
1001
0110
1001
0000
,
0001
1000
0100
0010
0100
0010
0001
1000
0001
0010
0100
1000
0001
0100
0010
1000
,
0001
0000
0010
0100
0000
0010
0001
0000
1001
0000
1010
0000
1100
0000
0110
0000
,
0011
0000
0000
0000
1000
0000
0000
0010
1000
0001
0000
0010
0100
0000
0000
0000
,
1000
0000
1000
0000
1000
0010
0000
0100
0001
0010
0000
0100
1000
0000
0010
0000
,
0100
0000
0000
0000
0010
0000
0000
1000
0100
1000
0000
0001
0100
0000
0000
0000
,
0001
0000
0001
0000
0001
1000
0000
0010
0100
0010
0000
1000
0100
0000
0010
0000
,
0001
0000
0000
0000
0010
0000
0000
0001
1000
0100
0000
1000
0010
0000
0000
0000
,
0100
0000
0100
0000
0100
0001
0000
0010
0100
1000
0000
0001
1000
0000
0010
0000
,
1000
0000
0000
0000
0001
0000
0000
0010
0100
1000
0000
0010
0100
0000
0000
0000
,
0010
0000
0010
0000
0010
1000
0000
0001
0010
0001
0000
1000
0001
0000
0100
0000
,
0020
0000
0000
0000
0230
0000
0000
0001
0000
0301
0000
1000
0100
0000
0000
0000
,
1100
0000
0110
0000
0011
0000
0001
1000
0000
0010
0000
0100
0001
0000
1000
0000
,
0010
0000
0000
0000
0100
0000
0000
0001
0010
0100
0000
1000
0001
0000
0000
0000
,
0010
0000
0010
0000
0010
0100
0000
1000
0001
1000
0000
0010
0100
0000
0001
0000
,
0011
0000
0000
0000
1001
0000
0000
1010
0000
1010
0000
1000
0100
0000
0000
0000
,
1000
0000
1000
0000
1000
0001
0000
0010
0001
0100
0000
0100
0010
0000
1000
0100
,
0010
0000
0000
0000
0011
0000
0000
0101
0000
0101
0000
0001
0100
0000
0000
0000
,
0001
0000
0001
0000
0001
1000
0000
0010
0000
1000
0100
0010
0100
1000
0001
0100
,
0010
0000
0000
0000
0010
0000
0000
1000
0001
1000
0000
0001
1000
0000
0000
0000
,
0001
0010
0100
1000
0010
0100
0010
0100
0001
1000
0001
1000
0100
0000
0100
0000
,
1000
0000
0000
0000
1000
0000
0000
0010
0100
0010
0000
0100
0010
0000
0000
0000
,
0100
0001
0100
0001
0000
1000
0100
0000
1100
0000
1001
0000
1010
0000
0001
1000
,
0001
0000
0000
0000
0001
0000
0000
1000
0100
1000
0000
0100
1000
0000
0000
0000
,
0011
0000
0011
0000
0001
0000
1000
0100
0000
0100
0010
0000
0002
0000
1003
0000
,
1010
0000
0000
0011
0000
0000
0110
0000
0000
1100
0000
0000
0101
0000
0000
0000
,
1001
0000
1000
0010
0000
0010
0100
0000
0101
0000
0011
0000
0110
0000
1100
0000
,
2001
0100
0000
0001
,
0000
0100
0000
3010
;

//---------------dance-single - ----------------
#NOTES:
     dance-single:
     :
     Medium:
     12:
     0.578009,0.588702,0.357757,0.221469,0.336462,475.000000,433.000000,42.000000,26.000000,0.000000,0.000000,0.578009,0.588702,0.357757,0.221469,0.336462,475.000000,433.000000,42.000000,26.000000,0.000000,0.000000:
0000
0000
0000
0000
,
0000
0000
0000
0000
,
0000
0000
0000
0000
,
0000
0000
0000
0000
,
0000
0000
0000
0000
,
1010
0101
0011
1100
,
0001
0010
0100
1000
0010
0100
0001
1000
,
0001
0010
0001
1000
0010
0100
0010
1000
,
0002
0000
0000
0100
0000
0000
0103
0000
0010
0000
0010
0000
0010
0000
0010
0000
,
1001
0000
0001
1000
0010
0100
0001
0000
,
0010
0001
1000
0010
0100
0001
1000
1000
,
1000
0000
0100
0010
0001
1000
0010
0000
,
1000
0000
0000
0010
0000
0000
0100
0000
0001
0000
0001
0000
1000
0000
0010
0000
,
0110
0000
0010
1000
0100
0010
0001
0000
,
0100
0001
0100
0000
0010
0000
1000
0000
0001
0000
0000
1000
0000
0000
0010
0000
,
0100
0000
0010
1000
0001
1000
0100
0000
,
0010
0000
0001
1000
0001
0000
0100
0000
0010
0000
0010
0000
0010
0000
0010
0000
,
1001
0000
0000
0000
2100
0000
0000
3002
0000
0000
1000
0000
1003
0000
0000
0000
,
0001
0000
0001
0000
0002
0000
0000
2003
0000
0000
0100
0000
3100
0000
0000
0000
,
1100
0000
0000
0000
0012
0000
0000
0203
0000
0000
0010
0000
0310
0000
0000
0000
,
0010
0000
1000
0000
0002
0000
0000
0023
0000
0000
0130
1000
0100
1000
0100
0000
,
0010
0000
0000
0000
0021
0000
0000
0230
0000
0000
1000
0000
1300
0000
0000
0000
,
0010
0000
0010
0000
0020
0000
0000
0230
0000
0000
0001
0000
0301
0000
0000
0000
,
1000
0000
0000
0000
2010
0000
0000
3200
0000
0000
0010
0000
0310
0000
0000
0000
,
0002
0000
0000
1000
0000
0000
1003
0000
0010
0000
0010
0000
0010
0000
0010
0000
,
0220
0000
0000
0000
,
0000
0000
0000
0030
,
0001
0000
0000
0000
0301
0000
0000
1000
0000
0010
0000
0000
1000
0000
0000
0000
,
0001
0010
0001
1000
0100
0100
1100
0000
,
0010
0000
0000
0000
0010
0000
0000
0100
0000
0001
0000
0000
0100
0000
0000
0000
,
0001
1000
0001
0100
0010
0010
1010
0000
,
1000
0000
0000
0000
1000
0000
0000
0010
0000
0100
0000
0000
0010
0000
0000
0000
,
1000
0001
0010
0001
0100
0100
0101
0000
,
0001
0000
0000
0000
0001
0000
0000
1000
0000
0100
0000
0000
1000
0000
0000
0000
,
0002
0000
0000
0100
0000
0000
0103
0000
0010
0000
0010
0000
0010
0000
0010
0000
,
1010
0000
0000
0000
0101
0000
0000
0001
0000
1000
0000
0000
0010
0000
0100
0001
,
0100
0001
0010
0100
1000
0001
0100
0000
,
0011
0000
0000
0000
1100
0000
0000
1000
0000
0010
0000
0000
0100
0000
0001
1000
,
0001
0010
0100
1000
0010
1000
0001
0000
,
1001
0000
0000
0000
0110
0000
0000
0010
0000
0100
0000
0000
0001
0000
1000
0100
,
1000
0001
1000
0010
0100
0001
0010
0000
,
0110
0000
0000
0000
1001
0000
0000
0100
0000
0010
0000
0000
0001
0000
1000
0010
,
2000
0000
0001
0000
0001
0000
0000
0000
3001
1000
0001
1000
0001
0000
0000
0000
,
0010
0000
0000
0001
0000
0000
1000
0000
0000
0001
0000
0000
0100
0000
0100
0000
,
0010
0000
0000
1000
0000
0000
0100
0000
0000
0010
0000
0000
0001
0000
0001
0000
,
1000
0010
1000
0100
0010
0001
0100
0001
,
2000
0000
0000
0001
0000
0000
3001
0000
0010
0000
0010
0000
0010
0000
0010
0000
,
0011
0000
0000
0000
1010
0000
0000
0001
0000
1000
0000
0010
0100
0000
0000
0000
,
0001
1000
0100
0010
0001
0100
0010
1000
,
1100
0000
0000
0000
0101
0000
0000
0001
0000
0010
0000
0100
1000
0000
0000
0000
,
0010
1000
0001
0010
0100
1000
0001
0100
,
0110
0000
0000
0000
1010
0000
0000
1000
0000
0010
0000
0100
0001
0000
0000
0000
,
0010
0001
0100
0001
1000
0100
1000
0010
,
1001
0000
0000
0000
0011
0000
0000
0001
0000
0100
0000
0010
1000
0000
0000
0000
,
0100
1000
0010
0100
0001
0010
0100
1000
,
0020
0000
1000
0000
0001
0001
0031
0000
,
1000
1000
1000
0001
0010
0001
0100
0010
,
1010
0000
0000
0000
0101
0000
0000
0010
0000
0100
0000
0001
1000
0000
0000
0000
,
0100
0010
0001
1000
0100
1000
0010
0100
,
0101
0000
0000
0000
1010
0000
0000
0001
0000
1000
0000
0100
0010
0000
0000
0000
,
0001
1000
0010
1000
0100
0010
0001
0100
,
0110
0000
0000
0000
1001
0000
0000
0010
0000
1000
0000
0001
0100
0000
0000
0000
,
0010
0000
0100
0000
0001
0000
1000
0000
0100
0000
0010
0000
0001
1000
0001
1000
,
0001
0000
0000
0000
1000
0000
0000
0010
0000
1000
0000
0001
0100
0000
0000
0000
,
0001
1000
0001
0000
0010
0000
0100
0000
1000
0000
0001
0000
0100
0000
0000
0000
,
0010
0000
0000
0000
1000
0000
0000
0100
0000
0010
0000
0001
1000
0000
0000
0000
,
0010
0100
0001
1000
0100
0100
1001
0000
,
0001
0000
0000
0000
0010
0000
0000
0001
0000
0100
0000
0010
1000
0000
0000
0000
,
0100
0100
1000
0010
1000
0001
0010
0010
,
0012
0000
0000
0100
0000
0000
0010
0000
0000
1003
0000
0000
0001
0000
0000
0000
,
0201
0000
0000
0302
0000
0000
1003
0000
0010
0000
0010
0000
0010
0000
0010
0000
,
2001
0100
0000
0100
,
0000
0000
0000
3000
;

//---------------dance-single - ----------------
#NOTES:
     dance-single:
     :
     Easy:
     9:
     0.428335,0.464765,0.255541,0.127770,0.000000,352.000000,322.000000,30.000000,15.000000,0.000000,0.000000,0.428335,0.464765,0.255541,0.127770,0.000000,352.000000,322.000000,30.000000,15.000000,0.000000,0.000000:
0000
0000
0000
0000
,
0000
0000
0000
0000
,
0000
0000
0000
0000
,
0000
0000
0000
0000
,
0000
0000
0000
0000
,
0001
0001
0001
0001
,
1000
1000
1000
1000
,
0010
0100
0010
0100
0010
0100
0010
0100
,
0020
0030
1010
0101
,
1001
1000
0001
1000
,
0010
0000
0100
0000
0001
0000
1000
1000
,
1000
0010
0100
0001
,
0010
0001
0010
0000
0100
0100
0100
0000
,
1100
0001
0100
0001
,
0010
0100
1000
0000
0011
0000
1100
0000
,
1001
0000
0100
0000
0010
0000
0001
0001
,
1000
0100
1000
0000
0110
0000
1001
0000
,
0110
1000
0100
0001
,
0010
0010
0010
0000
0001
1000
0100
0000
,
1000
0001
0100
0010
,
0100
0100
0100
0000
0001
1000
0010
0100
,
0001
0000
0010
0000
0100
1000
0001
0000
,
1000
1000
1000
0000
0010
0100
0001
0000
,
0010
0000
0001
0000
1000
0010
0100
0000
,
0002
0003
0011
1100
,
2002
0000
0000
0000
,
0000
0000
0000
0003
,
0010
0010
0010
3010
,
1000
0000
0001
0000
0100
0100
0100
0000
,
0001
0001
0001
0001
,
0010
0000
0100
0000
1000
1000
1000
0000
,
0100
0100
0100
0100
,
0010
0000
0001
0000
0010
0010
0010
0000
,
1000
1000
1000
1000
,
0200
0300
1100
0101
,
1001
0000
0010
0000
1000
0001
1000
0000
,
0001
0000
0010
0000
0100
1000
0010
0000
,
1010
0000
0001
0000
0100
0010
1000
0000
,
0100
0000
0010
0000
0001
1000
0001
0000
,
0011
0000
0001
0000
1000
0010
0100
0000
,
0001
0000
1000
0000
0100
0010
0001
0000
,
0110
0000
1000
0000
0010
0100
0001
0000
,
2020
0000
0030
0000
0001
0001
3001
0000
,
0010
0000
0100
0000
1000
1000
1000
0000
,
0001
0000
0100
0000
0010
0010
0010
0000
,
1000
0001
1000
0001
1000
0001
1000
0001
,
2000
3000
1010
0011
,
0001
0000
0001
0000
0010
0100
1000
0000
,
0010
0100
0001
0000
0010
0100
1000
0000
,
0010
0000
0010
0000
1000
0001
0100
0000
,
0001
1000
0010
0000
1000
0001
0100
0000
,
0010
0000
0010
0000
1000
0001
0100
0000
,
0010
0001
0100
0000
0010
1000
0100
0000
,
1000
0000
0010
0000
0100
0001
1000
0000
,
0100
0010
0001
0000
0010
0001
1000
0000
,
0002
0023
0230
2300
,
3010
0010
0010
1000
0100
0000
0100
0000
,
1000
0000
0010
0000
0100
0001
1000
0000
,
0001
0010
0100
0000
1000
0010
0100
0000
,
1001
0000
0110
0000
0010
1000
0100
0000
,
1000
0001
0010
0000
0100
1000
0001
0000
,
0011
0000
1100
0000
1000
0010
0100
0000
,
0001
1000
0001
0010
0100
0000
0100
1000
,
0010
0000
0010
0000
1000
0001
0010
0000
,
0001
1000
0001
0000
0100
0010
0100
0000
,
0001
0000
0001
0000
0010
0001
0100
0000
,
1000
0001
1000
0000
0100
0100
0100
0000
,
1000
0000
1000
0000
0010
1000
0100
0000
,
0010
0001
0100
0000
0010
0000
1000
1000
,
1000
0000
0101
0000
0001
0010
0100
0000
,
2000
3000
0011
1100
,
2002
0000
0000
0000
,
0000
0000
0000
3003
;

//---------------dance-single - ----------------
#NOTES:
     dance-single:
     :
     Beginner:
     5:
     0.217818,0.244468,0.076662,0.025554,0.000000,179.000000,170.000000,9.000000,3.000000,0.000000,0.000000,0.217818,0.244468,0.076662,0.025554,0.000000,179.000000,170.000000,9.000000,3.000000,0.000000,0.000000:
// measure 0
0000
0000
0000
0000
,  // measure 1
0000
0000
0000
0000
,  // measure 2
0000
0000
0000
0000
,  // measure 3
0000
0000
0000
0000
,  // measure 4
0000
0000
0000
0000
,  // measure 5
1000
1000
1000
0000
,  // measure 6
0001
0001
0001
0000
,  // measure 7
0100
0100
0100
0100
,  // measure 8
0100
0000
0000
0000
,  // measure 9
1001
0000
0001
0000
,  // measure 10
0010
0010
0010
0000
,  // measure 11
1001
0000
1000
0000
,  // measure 12
0100
0100
0100
0000
,  // measure 13
0110
0000
0001
0000
,  // measure 14
0100
0000
0010
0010
,  // measure 15
0010
0000
1000
0000
,  // measure 16
0001
0001
0001
0000
,  // measure 17
0110
0000
1000
0000
,  // measure 18
0100
0100
0100
0000
,  // measure 19
1001
0000
0010
0000
,  // measure 20
1000
1000
1000
1000
,  // measure 21
1000
0000
0001
0000
,  // measure 22
0010
0010
0010
0000
,  // measure 23
0110
0000
0010
0000
,  // measure 24
0001
0000
1000
1000
,  // measure 25
2000
0000
0000
0000
,  // measure 26
0000
3000
0000
0000
,  // measure 27
0001
0001
0001
0001
,  // measure 28
0000
0000
0000
0000
,  // measure 29
0010
0010
0010
0010
,  // measure 30
0000
0000
0000
0000
,  // measure 31
0100
0100
0100
0100
,  // measure 32
0000
0000
0000
0000
,  // measure 33
1000
1000
1000
1000
,  // measure 34
0000
0000
0000
0000
,  // measure 35
0010
0010
0010
0000
,  // measure 36
0100
0100
0100
0000
,  // measure 37
0001
0001
0001
0000
,  // measure 38
1000
1000
1000
0000
,  // measure 39
0100
0100
0100
0000
,  // measure 40
0010
0010
0010
0000
,  // measure 41
0001
0001
0001
0000
,  // measure 42
1001
0000
0000
0000
,  // measure 43
0010
0000
1000
0000
,  // measure 44
0100
0000
0010
0000
,  // measure 45
0001
0001
0001
0001
,  // measure 46
0001
0000
0000
0000
,  // measure 47
1000
1000
1000
0000
,  // measure 48
0010
0010
0010
0000
,  // measure 49
0100
0100
0100
0000
,  // measure 50
0001
0001
0001
0000
,  // measure 51
0010
0010
0010
0000
,  // measure 52
0001
0001
0001
0000
,  // measure 53
0100
0100
0100
0000
,  // measure 54
1000
1000
1000
0000
,  // measure 55
0110
0000
0000
0000
,  // measure 56
1000
1000
1000
0000
,  // measure 57
0100
0100
0100
0000
,  // measure 58
0010
0010
0010
0000
,  // measure 59
0001
0001
0001
0000
,  // measure 60
0100
0100
0100
0000
,  // measure 61
0001
0001
0001
0000
,  // measure 62
1000
1000
1000
0000
,  // measure 63
0010
0010
0010
0010
,  // measure 64
0010
0000
0100
0000
,  // measure 65
0001
0001
0001
0001
,  // measure 66
0001
0000
1000
0000
,  // measure 67
0100
0100
0100
0100
,  // measure 68
0100
0000
1000
0000
,  // measure 69
0010
0010
0010
0010
,  // measure 70
0010
0000
0000
0000
,  // measure 71
2002
0000
0000
3003
;
