#VERSION:0.83;
#TITLE:Titanium;
#SUBTITLE:;
#ARTIST:David Guetta ft. Sia;
#TITLETRANSLIT:;
#SUBTITLETRANSLIT:;
#ARTISTTRANSLIT:;
#GENRE:;
#ORIGIN:;
#CREDIT:;
#BANNER:Titanium-bn.png;
#BACKGROUND:Titanium-bg.png;
#PREVIEWVID:;
#JACKET:Titanium-jacket.png;
#CDIMAGE:;
#DISCIMAGE:;
#LYRICSPATH:;
#CDTITLE:;
#MUSIC:Titanium.ogg;
#OFFSET:0.000000;
#SAMPLESTART:68.571434;
#SAMPLELENGTH:20.000000;
#SELECTABLE:YES;
#DISPLAYBPM:126.000000;
#BPMS:0.000=126.000;
#STOPS:;
#DELAYS:;
#WARPS:;
#TIMESIGNATURES:0.000=4=4;
#TICKCOUNTS:0.000=4;
#COMBOS:0.000=1;
#SPEEDS:0.000=1.000=0.000=0;
#SCROLLS:0.000=1.000;
#FAKES:;
#LABELS:0.000=Song Start;
#BGCHANGES:;
#KEYSOUNDS:;
#ATTACKS:
;

//---------------dance-single - ----------------
#NOTEDATA:;
#CHARTNAME:;
#STEPSTYPE:dance-single;
#DESCRIPTION:;
#CHARTSTYLE:;
#DIFFICULTY:Hard;
#METER:12;
#RADARVALUES:0.403899,0.455873,0.138668,0.261929,0.115557,367.000000,349.000000,18.000000,34.000000,0.000000,0.000000,0.000000,0.000000,0.000000,0.403899,0.455873,0.138668,0.261929,0.115557,367.000000,349.000000,18.000000,34.000000,0.000000,0.000000,0.000000,0.000000,0.000000;
#CREDIT:;
#DISPLAYBPM:126.000000;
#NOTES:
0000
0000
0000
0000
,
0000
0000
0000
0000
,
0000
0000
0000
0000
,
0000
0000
0000
0000
,
0000
0000
0000
0000
,
0000
0000
0000
0000
,
0000
0000
0000
0000
,
0000
0000
0000
0000
,
1000
0000
0001
1000
0010
0100
0001
0010
,
0100
0000
0100
0000
0010
0000
0100
1000
,
0001
0100
0010
1000
0000
0001
0010
0001
,
0100
0010
1000
0001
0010
0100
1000
0000
,
0010
0000
0100
0001
1000
0001
0010
0100
,
1000
0000
0010
0100
0010
1000
0001
0000
,
0010
0001
0100
0001
1000
0001
1000
0200
,
0000
2300
0000
3002
0000
0023
0000
0031
,
1000
0000
0000
0001
0010
0000
0001
0000
0100
0000
0010
0000
1000
0000
0100
0000
,
0010
0000
0000
0010
0001
0000
0100
0000
0010
0000
1000
0000
0001
0000
1000
0000
,
0100
1000
0010
0100
0001
0010
0001
1000
,
0010
1000
0100
0010
0001
0100
0001
0000
,
1000
0000
0000
0100
0010
0000
0100
0000
1000
0000
0001
0000
0010
0000
0001
0000
,
0100
0000
0000
0100
0001
0000
0010
0000
0001
0000
1000
0000
0010
0000
0000
0000
,
1000
0001
0010
0100
0010
0100
1000
0020
,
0000
0230
0000
0302
0000
2003
0000
3010
,
1001
0000
0000
1000
0100
0010
0001
0000
,
0101
0000
0000
0001
0010
0100
1000
0000
,
1100
0000
0000
0000
1000
0001
0010
0200
,
0000
0001
0000
2300
0000
3010
0100
0001
,
0011
0000
0000
0000
0001
1000
0010
0000
,
1010
0000
0000
1000
0001
0100
0010
0000
,
0110
0000
0000
0000
1000
0010
0100
0002
,
0000
1000
0000
0023
0000
0031
1000
0100
,
0010
0000
0010
0001
0100
0001
0100
0000
,
0010
0000
0010
1000
0100
1000
0100
0000
,
0010
0000
0010
0000
0010
0001
1000
0001
,
1000
0100
0010
0001
1000
0010
0100
0001
,
0010
0000
0010
0001
0100
0001
0100
0000
,
0010
0000
0010
1000
0100
1000
0100
0000
,
1000
0001
1000
0001
0100
0010
0100
0010
,
1000
0010
0100
0001
1000
0100
0010
0001
,
0010
0000
0000
0010
0001
0000
0000
0001
0100
0000
0000
0100
0010
0000
0000
0010
,
1000
0000
0000
1000
0001
0000
0000
0001
1000
0000
0000
1000
0100
0000
0000
0100
,
1000
0000
0000
1000
0010
0000
0000
0010
0100
0000
0000
0100
0001
0000
0000
0001
,
0010
0000
0000
0010
0001
0000
0000
0001
1000
0000
0000
1000
0100
0000
0000
0100
,
1000
0000
0000
1000
0001
0000
0000
0001
0010
0000
0000
0010
0001
0000
0000
0001
,
1000
0000
0000
1000
0100
0000
0000
0100
0010
0000
0000
0010
0100
0000
0000
0100
,
0010
0000
0000
0010
0001
0000
0000
0001
1000
0000
0100
0000
1000
0000
0100
0000
,
1000
0010
0100
0001
1000
0100
0010
0001
,
2002
3000
0010
1003
,
0220
0000
0300
1000
1000
0000
0031
0000
,
0202
0000
0003
0000
0301
0010
0100
1000
,
0001
0011
2020
3000
,
0230
0000
0320
1030
,
2100
0000
3002
0000
1003
0010
0200
0000
,
0302
2003
3002
2003
,
3020
0230
0320
0130
,
0110
0000
0000
1000
0001
0010
0100
0000
,
1100
0000
0000
0010
1000
0001
0100
0000
,
0101
0000
0000
0000
0010
0100
0001
1000
,
0001
0010
0100
1000
0001
0100
0010
1000
,
1010
0000
0010
1000
0100
1000
0100
0000
,
0011
0000
0010
0001
0100
0001
0100
0000
,
0001
1000
0001
1000
0010
0100
0010
0100
,
0001
0100
0010
1000
0001
0010
0100
1000
,
2002
0000
0000
0000
,
0000
0000
0000
3003
;

//---------------dance-single - ----------------
#NOTEDATA:;
#CHARTNAME:;
#STEPSTYPE:dance-single;
#DESCRIPTION:;
#CHARTSTYLE:;
#DIFFICULTY:Medium;
#METER:9;
#RADARVALUES:0.298247,0.354568,0.138668,0.416005,0.000000,271.000000,253.000000,18.000000,54.000000,0.000000,0.000000,0.000000,0.000000,0.000000,0.298247,0.354568,0.138668,0.416005,0.000000,271.000000,253.000000,18.000000,54.000000,0.000000,0.000000,0.000000,0.000000,0.000000;
#CREDIT:;
#DISPLAYBPM:126.000000;
#NOTES:
// measure 0
0000
0000
0000
0000
,  // measure 1
0000
0000
0000
0000
,  // measure 2
0000
0000
0000
0000
,  // measure 3
0000
0000
0000
0000
,  // measure 4
0000
0000
0000
0000
,  // measure 5
0000
0000
0000
0000
,  // measure 6
0000
0000
0000
0000
,  // measure 7
0000
0000
0000
0000
,  // measure 8
0010
0000
0010
0000
0001
0100
1000
0000
,  // measure 9
0010
0000
0010
0000
1000
0000
0001
0200
,  // measure 10
0000
0320
0000
2030
0000
3002
0000
0023
,  // measure 11
0000
0230
0000
2300
0000
0000
3000
0000
,  // measure 12
1000
0000
1000
0000
1000
0010
0001
0000
,  // measure 13
0100
0000
0100
0000
0100
0001
1000
0000
,  // measure 14
0010
0000
1000
0000
0100
0010
0001
0000
,  // measure 15
0100
0000
0001
0000
0010
0100
1000
0000
,  // measure 16
0001
0000
1010
0000
0100
0010
1000
0000
,  // measure 17
0100
0000
0011
0000
1000
0001
0010
0000
,  // measure 18
0100
0000
1001
0000
0010
1000
0001
0000
,  // measure 19
1000
0100
0001
0000
0010
0100
1000
0000
,  // measure 20
0001
0000
1100
0000
0010
1000
0100
0000
,  // measure 21
1000
0000
0110
0000
0001
0100
0010
0000
,  // measure 22
1000
0000
0101
0000
0001
0010
0100
2000
,  // measure 23
0000
3020
0000
0230
0000
0301
0000
0000
,  // measure 24
1001
0000
0000
0000
1000
0100
1000
0000
,  // measure 25
0101
0000
0000
0000
0001
0010
0001
0000
,  // measure 26
1100
0000
0000
0000
0001
1000
0010
0200
,  // measure 27
0000
0000
0000
0302
0000
0000
1003
0001
,  // measure 28
0010
0000
0000
0000
0001
1000
0001
0000
,  // measure 29
1010
0000
0000
0000
0100
0010
0100
0000
,  // measure 30
0110
0000
0000
0000
0001
0010
0100
2000
,  // measure 31
0000
0000
0000
3002
0000
0000
0103
0010
,  // measure 32
1000
0000
1000
0000
0001
0100
1000
0000
,  // measure 33
0010
0000
0010
0000
1000
0100
0001
0000
,  // measure 34
0010
0000
0010
0000
0001
0100
0001
2000
,  // measure 35
0000
0000
3010
0200
0000
0000
0301
2000
,  // measure 36
0100
0000
3100
0000
1000
0010
0001
0000
,  // measure 37
1000
0000
1000
0000
0001
0010
1000
0000
,  // measure 38
0010
0100
0001
0000
1000
0010
0001
0000
,  // measure 39
0100
0010
1000
0000
0100
1000
0001
0000
,  // measure 40
0210
0320
2030
3002
,  // measure 41
0023
0230
2300
3020
,  // measure 42
0230
0302
0023
0230
,  // measure 43
0320
0032
2003
3002
,  // measure 44
2003
3200
0320
0032
,  // measure 45
2003
3020
0230
0320
,  // measure 46
0230
0000
0302
0000
1003
0001
1000
0002
,  // measure 47
0000
0000
0000
2003
0000
0000
0000
3020
,  // measure 48
0100
0000
0001
1030
,  // measure 49
0000
0000
0000
0010
1000
0000
0100
0000
,  // measure 50
0000
0000
0000
0000
0001
0010
0001
1000
,  // measure 51
0020
2030
0002
3003
,  // measure 52
0101
0000
1000
0010
,  // measure 53
0000
0000
1010
0000
0001
0100
1000
0000
,  // measure 54
0002
0010
1000
0010
,  // measure 55
0100
1000
0010
0103
,  // measure 56
0110
0000
0001
0000
0010
1000
0100
0000
,  // measure 57
1100
0000
0001
0000
0010
0001
1000
0000
,  // measure 58
0010
0000
0100
0000
0001
0010
0100
2000
,  // measure 59
0000
0000
3100
0020
0000
0000
0031
1000
,  // measure 60
0100
0000
0010
0000
0001
0100
1000
0000
,  // measure 61
0011
0000
0100
0000
0001
0010
1000
0000
,  // measure 62
0100
0010
0001
0000
1000
0010
0100
0000
,  // measure 63
0001
0010
1000
0000
0100
0001
1000
0000
,  // measure 64
2002
0000
0000
0000
,  // measure 65
0000
0000
0000
3003
;

//---------------dance-single - ----------------
#NOTEDATA:;
#CHARTNAME:;
#STEPSTYPE:dance-single;
#DESCRIPTION:;
#CHARTSTYLE:;
#DIFFICULTY:Easy;
#METER:6;
#RADARVALUES:0.215707,0.253263,0.146372,0.261929,0.000000,196.000000,177.000000,19.000000,34.000000,0.000000,0.000000,0.000000,0.000000,0.000000,0.215707,0.253263,0.146372,0.261929,0.000000,196.000000,177.000000,19.000000,34.000000,0.000000,0.000000,0.000000,0.000000,0.000000;
#CREDIT:;
#DISPLAYBPM:126.000000;
#NOTES:
0000
0000
0000
0000
,
0000
0000
0000
0000
,
0000
0000
0000
0000
,
0000
0000
0000
0000
,
0000
0000
0000
0000
,
0000
0000
0000
0000
,
0000
0000
0000
0000
,
0000
0000
0000
0000
,
0001
0100
1000
0100
,
0001
0010
0100
1000
,
0010
0100
0010
1000
,
0100
0010
0001
0000
,
1000
0010
0001
0010
,
0100
1000
0001
0100
,
0001
0010
1000
0000
,
0001
0100
1000
0000
,
0010
0100
0001
0010
,
1000
0100
1000
0001
,
0010
0100
1000
0001
,
1000
0010
0100
0000
,
0010
1000
0100
1000
,
0001
0010
0001
0100
,
1000
0001
0010
0000
,
0001
0100
1000
0000
,
2002
0003
0010
3010
,
0220
0300
1000
1030
,
2002
3000
0100
0103
,
0002
0000
0200
0303
,
0220
0030
0001
0301
,
2002
3000
1000
0103
,
0220
0030
0001
0310
,
2000
0000
0020
3030
,
1001
0000
0001
0100
,
1000
0000
0010
0100
,
0001
0000
1000
0100
,
0020
0000
0200
0330
,
0110
0001
1000
0001
,
0100
0010
1000
0100
,
0010
0001
1000
0001
,
2000
0000
0002
3003
,
1001
0100
0010
0000
,
1010
1000
0001
0000
,
0011
0001
0100
0000
,
0110
0010
1000
0000
,
1100
0001
0010
0000
,
0101
1000
0100
0000
,
0001
0001
1000
1000
,
0002
0000
0020
0033
,
2002
3000
0100
1003
,
0000
0000
0001
0100
,
0000
0000
0001
1000
,
0010
1000
0100
0000
,
0220
0030
0001
0310
,
0000
1000
0001
0100
,
0020
0030
2000
3000
,
0002
0003
0200
0300
,
0110
0000
0010
1000
,
0100
0000
1000
0001
,
0010
0000
0001
0100
,
2000
0000
0200
3300
,
1001
0010
1000
0100
,
1000
0010
0100
0001
,
0010
0100
1000
0001
,
1000
0010
0100
0001
,
2002
0000
0000
0000
,
0000
0000
0000
3003
;

//---------------dance-single - ----------------
#NOTEDATA:;
#CHARTNAME:;
#STEPSTYPE:dance-single;
#DESCRIPTION:;
#CHARTSTYLE:;
#DIFFICULTY:Beginner;
#METER:2;
#RADARVALUES:0.118859,0.147913,0.115557,0.000000,0.000000,108.000000,93.000000,15.000000,0.000000,0.000000,0.000000,0.000000,0.000000,0.000000,0.118859,0.147913,0.115557,0.000000,0.000000,108.000000,93.000000,15.000000,0.000000,0.000000,0.000000,0.000000,0.000000,0.000000;
#CREDIT:;
#DISPLAYBPM:126.000000;
#NOTES:
0000
0000
0000
0000
,
0000
0000
0000
0000
,
0000
0000
0000
0000
,
0000
0000
0000
0000
,
0000
0000
0000
0000
,
0000
0000
0000
0000
,
0000
0000
0000
0000
,
0000
0000
0000
0000
,
0000
0000
0010
0010
,
0000
0000
0000
0000
,
1000
0000
0100
0000
,
1000
0000
0001
0000
,
0000
0000
1000
1000
,
0000
0000
0001
0001
,
0000
0000
0000
0000
,
0000
0000
0000
0000
,
0000
0000
0100
0100
,
0000
0000
0000
0000
,
0010
0000
1000
0000
,
0001
0000
0010
0000
,
0000
0000
0100
0100
,
0000
0000
0010
0010
,
0000
0000
0001
0000
,
1000
0000
0001
0000
,
1001
0000
0000
0000
,
0110
0000
0000
0000
,
1001
0000
0000
0000
,
0010
0000
0010
0000
,
0110
0000
0000
0000
,
1001
0000
0000
0000
,
0110
0000
0000
0000
,
0001
0000
0001
0000
,
1001
0000
1000
1000
,
0000
0000
0001
0001
,
0000
0000
0010
0000
,
0001
0000
1000
0000
,
1001
0000
0010
0010
,
0000
0000
0100
0100
,
0000
0000
0010
0000
,
1000
0000
0001
0000
,
1001
0000
0001
0000
,
0001
0000
0001
0000
,
1000
0000
1000
0000
,
1000
0000
1000
0000
,
0110
0000
0010
0000
,
0010
0000
0010
0000
,
0100
0000
0100
0000
,
0100
0000
0100
0000
,
1001
0000
0000
0000
,
0010
0000
0000
0000
,
1000
0000
0000
0000
,
0001
0000
0001
0000
,
0110
0000
0000
0000
,
1000
0000
0000
0000
,
0010
0000
0010
0000
,
0100
0000
0100
0000
,
0110
0000
0001
0001
,
0000
0000
0010
0010
,
0000
0000
1000
0000
,
0010
0000
0100
0000
,
0110
0000
1000
1000
,
0000
0000
0100
0100
,
0000
0000
0010
0000
,
0001
0000
0100
0000
,
1001
0000
0000
0000
;
