#VERSION:0.83;
#TITLE:The Road;
#SUBTITLE:;
#ARTIST:Faouzia;
#TITLETRANSLIT:;
#SUBTITLETRANSLIT:;
#ARTISTTRANSLIT:;
#GENRE:;
#ORIGIN:;
#CREDIT:;
#BANNER:The Road-bn.png;
#BACKGROUND:The Road-bg.png;
#PREVIEWVID:;
#JACKET:The Road-jacket.png;
#CDIMAGE:;
#DISCIMAGE:;
#LYRICSPATH:;
#CDTITLE:;
#MUSIC:The Road.ogg;
#OFFSET:1.120000;
#SAMPLESTART:42.416000;
#SAMPLELENGTH:20.000000;
#SELECTABLE:YES;
#DISPLAYBPM:135.000000;
#BPMS:0.000=135.060;
#STOPS:131.667=0.050,
259.667=0.050;
#DELAYS:;
#WARPS:;
#TIMESIGNATURES:0.000=4=4;
#TICKCOUNTS:0.000=4;
#COMBOS:0.000=1;
#SPEEDS:0.000=1.000=0.000=0;
#SCROLLS:0.000=1.000;
#FAKES:;
#LABELS:0.000=Song Start;
#BGCHANGES:;
#KEYSOUNDS:;
#ATTACKS:
;

//---------------dance-single - ----------------
#NOTEDATA:;
#CHARTNAME:;
#STEPSTYPE:dance-single;
#DESCRIPTION:;
#CHARTSTYLE:;
#DIFFICULTY:Hard;
#METER:10;
#RADARVALUES:0.415721,0.415517,0.136765,0.455882,0.448284,383.000000,365.000000,18.000000,60.000000,0.000000,0.000000,0.000000,0.000000,0.000000,0.415721,0.415517,0.136765,0.455882,0.448284,383.000000,365.000000,18.000000,60.000000,0.000000,0.000000,0.000000,0.000000,0.000000;
#CREDIT:;
#DISPLAYBPM:135.000000;
#NOTES:
0000
0000
0000
0000
,
0000
0000
0000
0000
,
0000
0000
0000
0000
,
0000
0000
0000
0000
,
0000
0000
0000
0000
,
0010
0000
0000
0100
0000
0000
0002
0000
0000
1003
0100
1000
,
0100
0000
0000
1000
0000
0000
0020
0000
0000
0130
0001
0100
,
0001
0000
0000
0010
0000
0000
2000
0000
0000
3100
0010
0100
,
0010
0000
0000
0001
0000
0000
1000
0000
0001
0200
0000
0000
,
0300
0000
0000
1000
0010
1000
0010
0000
0100
0001
0000
0001
,
0000
0000
0000
0100
0010
0100
0010
0000
1000
0001
0000
0000
,
0000
0000
0000
0001
0100
0001
0100
0000
0010
1000
0000
1000
,
0000
0000
0000
1000
0100
1000
0100
0000
0010
0001
0000
0000
,
0000
0000
0000
0010
0001
0010
0001
0000
0100
0010
0000
1000
,
0000
0000
0000
1000
0001
1000
0001
0000
0100
0010
0000
0000
,
0000
0000
0000
0100
0001
0100
0001
0000
1000
0010
0000
1000
,
0000
0000
0000
0010
1000
0010
1000
0000
0001
0100
0000
0000
,
0000
0002
0203
0320
,
2030
3200
0320
0032
,
1003
0000
0000
0001
0100
0010
2000
0000
0000
0001
0000
0000
,
0100
0100
0100
3100
,
0000
2000
3002
0203
,
0320
0230
0302
2003
,
3010
0000
0000
1000
0001
0100
0020
0000
0000
1000
0000
0000
,
0130
0000
0000
0000
0000
0000
0001
0000
0001
1000
0000
1000
,
0001
0000
0000
0101
0000
0000
0100
0000
0100
0010
0000
0010
,
1000
0000
0000
0000
0000
0000
0100
0000
0100
1000
0000
1000
,
0010
0000
0000
1010
0000
0000
0100
0000
0100
0001
0000
0001
,
0010
0000
0000
0000
0000
0000
0001
0000
0001
0010
0000
0010
,
0200
0000
0000
2300
0000
0000
3001
0000
1000
0002
0000
0000
,
0000
0000
0000
0003
0000
0000
1000
0000
1000
0100
0000
0100
,
0020
0001
0100
1000
,
0000
0000
0000
0000
0000
0000
0031
0000
1000
0001
0000
1000
,
0010
0000
0000
1100
0000
0000
1000
0000
0100
1000
0000
0001
,
0100
0000
0000
0000
0000
0000
0010
0000
1000
0100
0000
1000
,
0001
0000
0000
0011
0000
0000
0100
0000
0010
0100
0000
0010
,
1000
0000
0000
0000
0000
0000
1000
0000
0100
0010
0000
0001
,
0200
0000
0000
0320
0000
0000
1030
0000
0001
2000
0000
0000
,
0100
0000
0000
3100
0000
0000
1000
0000
0010
1000
0000
0010
,
2000
3002
0023
0032
,
0100
0000
0000
0103
0000
0000
0210
0000
0000
0310
0100
0010
,
0100
0000
0000
0001
0000
0000
0020
0000
0000
0031
1000
0001
,
1000
0000
0000
0010
0000
0000
0200
0000
0000
0301
0010
0001
,
0010
0000
0000
1000
0000
0000
0002
0000
0000
1003
0001
0100
,
0010
0000
0000
0100
0000
0000
0001
0000
0001
2000
0000
0000
,
3010
0000
0000
1000
0000
0000
0002
0000
0000
0013
0001
0100
,
0010
0000
0000
0100
0000
0000
0020
0000
0000
1030
0001
1000
,
0001
0000
0000
1000
0000
0000
0200
0000
0000
1300
0010
0100
,
0001
0000
0000
1000
0000
0000
0010
0000
0100
0010
0000
0100
,
0001
0000
0000
0011
0000
0000
0100
0000
0010
0100
0000
0010
,
1000
0000
0000
0000
0000
0000
0100
0000
1000
0100
0000
1000
,
0010
0000
0000
1010
0000
0000
1000
0000
0001
1000
0000
0001
,
0100
0000
0000
0000
0000
0000
0010
0000
0100
0001
0000
1000
,
0002
0000
0000
2003
0000
0000
3010
0000
0010
2000
0000
0000
,
0000
0000
0000
3000
0000
0000
0100
0000
1000
0001
0000
0100
,
0020
0230
0302
2003
,
3020
0000
0000
0230
0000
0000
0301
0000
0100
0010
0000
1000
,
0100
0000
0000
1001
0000
0000
0010
0000
0010
1000
0000
1000
,
0001
0000
0000
0000
0000
0000
0100
0000
0100
0010
0000
0010
,
1000
0000
0000
1100
0000
0000
1000
0000
0001
1000
0000
0100
,
0010
0000
0000
0000
0000
0000
0001
0000
0100
0010
0000
0100
,
0002
0000
0000
0023
0000
0000
0130
0000
0100
2000
0000
0000
,
0010
0000
0000
3010
0000
0000
1000
0000
0001
1000
0000
0001
,
0200
0010
1000
0001
,
0010
0000
0000
0310
0000
0000
0110
0000
0000
0001
1000
0001
,
1000
1100
0001
0101
,
2000
0000
0000
3002
0000
0000
0103
0000
0000
0010
0100
0010
,
0100
0101
0010
1010
,
0200
0000
0000
0320
0000
0000
1030
0000
0000
0001
0010
0001
,
0010
1001
0100
1001
,
2000
0000
0000
3020
0000
0000
0130
0000
0000
0010
1000
0001
,
0100
0110
0010
0110
,
0200
0000
0000
0302
0000
0000
1003
0001
1000
0001
0100
0010
;

//---------------dance-single - ----------------
#NOTEDATA:;
#CHARTNAME:;
#STEPSTYPE:dance-single;
#DESCRIPTION:;
#CHARTSTYLE:;
#DIFFICULTY:Challenge;
#METER:13;
#RADARVALUES:0.489530,0.554023,0.303921,0.395098,0.562254,451.000000,411.000000,40.000000,52.000000,0.000000,0.000000,0.000000,0.000000,0.000000,0.489530,0.554023,0.303921,0.395098,0.562254,451.000000,411.000000,40.000000,52.000000,0.000000,0.000000,0.000000,0.000000,0.000000;
#CREDIT:;
#DISPLAYBPM:135.000000;
#NOTES:
0000
0000
0000
0000
,
0000
0000
0000
0000
,
0000
0000
0000
0000
,
0000
0000
0000
0000
,
0000
0000
0000
0000
,
0010
0000
0000
0100
0000
0000
0102
0000
0000
1003
0001
0100
,
0010
0000
0000
1000
0000
0000
2100
0000
0000
3001
0100
0010
,
1000
0000
0000
0001
0000
0000
0021
0000
0000
0031
0100
0010
,
1000
0000
0000
0001
0000
0000
2010
0000
0100
3100
0000
0000
,
1001
0000
0000
1000
0100
0010
0001
0000
0001
0100
0000
0010
,
1000
0000
0000
0001
1000
0010
0100
0000
0100
0001
0000
0000
,
0010
0000
0000
0001
0100
0001
1000
0000
1000
0010
0000
0100
,
0001
0000
0000
0010
0001
1000
0100
0000
1000
0010
0000
0000
,
0110
0000
0000
0100
0010
1000
0001
0000
1000
0100
0000
0100
,
0010
0000
0000
0100
1000
0010
0100
0000
0001
1000
0000
0000
,
0001
0000
0000
0010
0100
0010
0100
0000
1000
0010
0000
1000
,
0100
0000
0000
1000
0001
0010
0001
0000
1000
0100
0000
0000
,
0010
0002
2003
3020
,
2030
3200
0320
0032
,
0203
0000
0000
0310
1000
0100
0010
0000
0001
0100
0000
0000
,
0101
0110
1010
1100
,
0001
2000
3200
0320
,
0032
2003
3020
0230
,
0301
0000
1000
0010
1000
0100
0010
0001
0100
0002
0000
0000
,
1000
0000
0000
1003
0000
0000
0001
0000
0100
0010
0000
1000
,
0100
0000
0000
1001
0000
0000
1000
0000
0100
0010
0000
0001
,
0100
0000
0000
0000
0000
0000
0010
0000
0100
0010
0000
1000
,
0100
0000
0000
1100
0000
0000
1000
0000
0001
0010
0000
0001
,
0100
0000
0000
0000
0000
0000
0010
0000
1000
0001
0000
1000
,
0002
0000
0000
2003
0000
0000
3010
1000
0001
0200
0000
0000
,
0000
0000
0000
0000
0000
0000
0310
0000
0100
0010
0000
0100
,
0020
2030
3200
0320
,
0032
0000
0000
0000
0000
0000
1003
0100
1000
0001
0100
0001
,
0010
0001
0000
0101
0000
0000
0100
0000
0010
1000
0000
0100
,
1000
0000
0000
0011
0000
0000
0001
0000
1000
0100
0000
0010
,
0100
1000
0000
1010
0000
0000
0010
0000
0100
0001
0000
1000
,
0100
0000
0000
0110
0000
0000
0010
0000
0001
0100
0000
0001
,
2000
0000
0000
3002
0000
0000
1003
0001
0100
0020
0000
0000
,
1000
0000
0000
0100
0000
0000
1030
0000
0010
0100
0000
0001
,
0200
0320
2030
3002
,
0010
0000
0000
1003
0000
0000
0201
0000
0000
0310
1000
0100
,
0010
0000
0000
0001
0000
0000
2001
0000
0000
3010
1000
0100
,
0010
0000
0000
0001
0000
0000
0201
0000
0000
0310
0100
0001
,
1000
0000
0000
0100
0000
0000
1020
0000
0000
0130
0001
0010
,
0001
0000
0000
1000
0000
0000
0102
0000
1000
1003
0000
0000
,
0010
0000
0000
0100
0000
0000
2010
0000
0000
3100
1000
0001
,
0100
0000
0000
0010
0000
0000
0120
0000
0000
1030
0001
0010
,
0100
0000
0000
1000
0000
0000
1200
0000
0000
1300
0010
0100
,
0001
0000
0000
1000
0000
0000
0001
0000
0010
0100
0000
1000
,
0010
0000
0000
0110
0000
0000
0010
0000
1000
0001
0000
0100
,
0001
0000
0000
0000
0000
0000
0010
0000
0001
0100
0000
0010
,
1000
0000
0000
1100
0000
0000
1000
0000
0010
0100
0000
0001
,
0010
0000
0000
0000
0000
0000
0001
0000
0100
0010
0000
1000
,
0002
0000
0000
2003
0000
0000
3010
1000
0001
0200
0000
0000
,
0000
0000
0000
0000
0000
0000
0310
0000
0010
0100
0000
0100
,
0002
1003
0020
0130
,
0101
0000
0000
1100
0000
0000
0001
0010
0001
1000
0010
1000
,
0010
0100
0000
0110
0000
0000
0100
0000
0010
1000
0000
1000
,
0001
0000
0000
0011
0000
0000
0010
0000
0001
0100
0000
0010
,
1000
0001
0000
0101
0000
0000
0001
0000
0100
0010
0000
0100
,
0001
0000
0000
1010
0000
0000
1000
0000
1000
0010
0000
0010
,
0200
0000
0000
0320
0000
0000
1030
0100
0010
0002
0000
0000
,
0010
0000
0000
0100
0000
0000
1003
0000
0001
1000
0000
0100
,
2000
0010
0100
3001
,
1000
0100
1000
0100
0010
0100
0010
0001
0010
0001
1000
0001
,
1000
0000
0000
1100
0000
0000
0001
0000
0000
0100
0010
0100
,
0010
0000
0000
0101
0000
0000
1000
0000
0000
0001
1000
0100
,
1000
0000
0000
0110
0000
0000
0010
0000
0000
1000
0001
0100
,
0010
0000
0000
0101
0000
0000
1000
0000
0000
0100
0010
0001
,
0100
0000
0000
1001
0000
0000
0010
0000
0000
0100
0001
0010
,
0001
0000
0000
1010
0000
0000
0100
0000
0000
1000
0010
1000
,
0001
0000
0000
0101
0000
0000
1000
0000
0000
0010
1000
0100
,
0010
0000
0000
0011
0000
0000
0001
1000
0100
1000
0100
0010
;

//---------------dance-single - ----------------
#NOTEDATA:;
#CHARTNAME:;
#STEPSTYPE:dance-single;
#DESCRIPTION:;
#CHARTSTYLE:;
#DIFFICULTY:Medium;
#METER:8;
#RADARVALUES:0.293067,0.387816,0.075980,0.273529,0.113970,270.000000,260.000000,10.000000,36.000000,0.000000,0.000000,0.000000,0.000000,0.000000,0.293067,0.387816,0.075980,0.273529,0.113970,270.000000,260.000000,10.000000,36.000000,0.000000,0.000000,0.000000,0.000000,0.000000;
#CREDIT:;
#DISPLAYBPM:135.000000;
#NOTES:
0000
0000
0000
0000
,
0000
0000
0000
0000
,
0000
0000
0000
0000
,
0000
0000
0000
0000
,
0000
0000
0000
0000
,
0010
0010
0002
0003
,
0010
0010
2000
3000
,
0001
0001
0200
0300
,
1000
1000
0020
0130
,
0000
0001
1000
0001
,
0000
0000
0000
0100
0000
0000
0010
0000
0010
0100
0000
0000
,
0000
0010
1000
0001
,
0000
0000
0000
1000
0000
0000
0010
0000
0010
0100
0000
0000
,
0000
0010
0100
0001
,
0000
0000
0000
1000
0000
0000
0001
0000
1000
0001
0000
0000
,
0000
0100
0001
1000
,
0000
0000
0000
0010
0000
0000
1000
0000
1000
0001
0000
0000
,
0000
0002
1003
0200
,
1300
0020
0130
0001
,
1000
1000
2000
0000
,
0000
0000
0000
3000
,
0000
0020
0130
0002
,
1003
0200
1300
0001
,
1000
1000
2000
0000
,
0000
0000
0000
3000
0000
0000
0010
0000
0100
0010
0000
0000
,
1000
0000
0000
0010
0000
0000
0100
0000
0010
0100
0000
0000
,
0001
0000
0000
0000
0000
0000
1000
0000
0100
1000
0000
0000
,
0010
0000
0000
1000
0000
0000
0001
0000
0001
0100
0000
0000
,
0010
0000
0000
0000
0000
0000
1000
0000
0001
0100
0000
0000
,
0002
0013
2000
3010
,
0000
0000
0000
0000
0000
0000
1000
0000
0010
1000
0000
0000
,
0020
1030
0200
1300
,
0000
0000
0000
0000
0000
0000
0001
0000
0100
0010
0000
0000
,
1000
0000
0000
0001
0000
0000
0100
0000
0010
0100
0000
0000
,
1001
0000
0000
0000
0000
0000
0010
0000
0010
1000
0000
0000
,
0100
0000
0000
1000
0000
0000
0001
0000
0001
0010
0000
0000
,
0110
0000
0000
0000
0000
0000
0001
0000
1000
0001
0000
0000
,
0200
0310
2000
3001
,
0010
0000
0000
0000
0000
0000
0100
0000
0001
1000
0000
0000
,
0020
0130
0002
1003
,
0010
0010
1001
0000
,
0010
0100
0002
1003
,
0001
0010
0200
1300
,
0010
0100
2000
3001
,
0100
0001
0020
1030
,
0010
0001
2000
3100
,
1000
0010
0200
0301
,
1000
0100
0020
0031
,
0002
0000
0000
0003
0000
0000
0100
0000
0010
0100
0000
0000
,
0010
0000
0000
1000
0000
0000
0100
0000
1000
0100
0000
0000
,
1001
0000
0000
0000
0000
0000
0010
0000
1000
0001
0000
0000
,
0010
0000
0000
0001
0000
0000
0100
0000
0010
0100
0000
0000
,
0110
0000
0000
0000
0000
0000
0100
0000
0100
0001
0000
0000
,
2000
3001
0200
0310
,
0000
0000
0000
0000
0000
0000
0010
0000
0100
0001
0000
0000
,
0020
0031
0002
0103
,
1001
0000
0000
0110
0000
0000
0010
0000
1000
0100
0000
0000
,
1000
0000
0000
0001
0000
0000
0010
0000
0001
0100
0000
0000
,
0110
0000
0000
0000
0000
0000
0100
0000
0010
0100
0000
0000
,
0010
0000
0000
0100
0000
0000
0001
0000
1000
0100
0000
0000
,
0110
0000
0000
0000
0000
0000
0010
0000
0001
0100
0000
0000
,
0002
0013
0200
1300
,
0010
0000
0000
0100
0000
0000
0010
0000
1000
0010
0000
0000
,
2000
3100
0020
0031
,
0100
0010
1001
0000
,
0010
0100
0010
0100
,
0001
0001
0001
0000
,
0100
0010
0100
0010
,
1000
1000
1000
0000
,
0001
0010
0100
1000
,
0010
0010
0010
0000
,
1000
0010
0100
0001
,
0100
0000
0000
0100
0000
0000
0100
0000
0000
0010
0100
0010
;

//---------------dance-single - ----------------
#NOTEDATA:;
#CHARTNAME:;
#STEPSTYPE:dance-single;
#DESCRIPTION:;
#CHARTSTYLE:;
#DIFFICULTY:Easy;
#METER:4;
#RADARVALUES:0.168242,0.221103,0.000000,0.091176,0.000000,155.000000,155.000000,0.000000,12.000000,0.000000,0.000000,0.000000,0.000000,0.000000,0.168242,0.221103,0.000000,0.091176,0.000000,155.000000,155.000000,0.000000,12.000000,0.000000,0.000000,0.000000,0.000000,0.000000;
#CREDIT:;
#DISPLAYBPM:135.000000;
#NOTES:
0000
0000
0000
0000
,
0000
0000
0000
0000
,
0000
0000
0000
0000
,
0000
0000
0000
0000
,
0000
0000
0000
0000
,
0000
0000
0002
0003
,
0001
0000
2000
3000
,
1000
0000
0020
0030
,
0010
0000
0200
0300
,
0000
0000
0100
0100
,
0000
0000
1000
1000
,
0000
0000
0001
0001
,
0000
0000
0010
0010
,
0000
0000
0001
1000
,
0000
0000
0010
0100
,
0000
0000
0100
0010
,
0000
0000
1000
0001
,
0000
1000
1000
0001
,
0001
1000
0100
0000
,
0010
0010
0020
0000
,
0000
0030
0000
0000
,
0000
0100
0100
0010
,
0010
1000
0001
0000
,
0100
0100
0200
0000
,
0000
0300
0010
0000
,
1000
0000
0001
1000
,
0100
0000
0010
0000
,
0001
0000
0100
0001
,
1000
0000
0010
0000
,
1000
1000
1000
1000
,
0000
0000
0100
0000
,
0001
0001
0001
0001
,
0000
0000
0100
0000
,
0100
0000
0010
1000
,
0100
0000
1000
0000
,
0001
0000
0010
0001
,
1000
0000
0100
0000
,
1000
0001
1000
0001
,
0000
0000
0001
0000
,
0100
0010
0100
0010
,
0000
0000
1000
0000
,
0000
0000
0020
0030
,
0010
0000
0200
0300
,
0100
0000
2000
3000
,
0001
0000
1000
0001
,
0000
0000
0002
0003
,
1000
0000
2000
3000
,
0001
0000
0200
0300
,
0010
0000
1000
0000
,
0001
0000
0010
0000
,
1000
0000
0000
0000
,
0100
0000
0010
0000
,
0001
0000
0000
0000
,
0100
0010
1000
1000
,
0000
0000
0000
0000
,
0010
0100
0001
0001
,
1000
0001
0100
0000
,
0010
0000
1000
0100
,
0001
0000
1000
0000
,
0010
0000
0100
0010
,
1000
0000
0001
0000
,
0010
0001
0100
0100
,
0000
0000
0001
0000
,
1000
0001
0100
0100
,
0000
0000
0010
0000
,
1000
0000
0001
0000
,
1000
0100
0001
0000
,
0100
0000
0010
0000
,
0100
0001
0010
0000
,
0001
0000
0100
0000
,
0001
1000
0100
0000
,
1000
0000
0001
0000
,
1000
0001
0100
0010
;

//---------------dance-single - ----------------
#NOTEDATA:;
#CHARTNAME:;
#STEPSTYPE:dance-single;
#DESCRIPTION:;
#CHARTSTYLE:;
#DIFFICULTY:Beginner;
#METER:1;
#RADARVALUES:0.089006,0.138664,0.015196,0.000000,0.000000,82.000000,80.000000,2.000000,0.000000,0.000000,0.000000,0.000000,0.000000,0.000000,0.089006,0.138664,0.015196,0.000000,0.000000,82.000000,80.000000,2.000000,0.000000,0.000000,0.000000,0.000000,0.000000,0.000000;
#CREDIT:;
#DISPLAYBPM:135.000000;
#NOTES:
// measure 0
0000
0000
0000
0000
,  // measure 1
0000
0000
0000
0000
,  // measure 2
0000
0000
0000
0000
,  // measure 3
0000
0000
0000
0000
,  // measure 4
0000
0000
0000
0000
,  // measure 5
0000
0000
0001
0000
,  // measure 6
0000
0000
1000
0000
,  // measure 7
0000
0000
0010
0000
,  // measure 8
0000
0000
0100
0000
,  // measure 9
0000
0000
0000
0001
,  // measure 10
0000
0000
0000
0010
,  // measure 11
0000
0000
0000
0100
,  // measure 12
0000
0000
0000
1000
,  // measure 13
0000
0000
0000
0010
,  // measure 14
0000
0000
0000
0100
,  // measure 15
0000
0000
0000
0001
,  // measure 16
0000
0000
0000
1000
,  // measure 17
0000
0000
0001
0000
,  // measure 18
0001
0000
0001
0000
,  // measure 19
1000
0000
1000
0000
,  // measure 20
0000
0000
0000
0000
,  // measure 21
0000
0000
0010
0000
,  // measure 22
0010
0000
0010
0000
,  // measure 23
0100
0000
0100
0000
,  // measure 24
0000
0000
0000
0000
,  // measure 25
0010
0000
0000
0000
,  // measure 26
1000
0000
0000
0000
,  // measure 27
0001
0000
0000
0000
,  // measure 28
0100
0000
0000
0000
,  // measure 29
0001
0000
0010
0000
,  // measure 30
0000
0000
0000
0000
,  // measure 31
0100
0000
1000
0000
,  // measure 32
0000
0000
0000
0000
,  // measure 33
0010
0000
0010
0000
,  // measure 34
0010
0000
0000
0000
,  // measure 35
0100
0000
0100
0000
,  // measure 36
0100
0000
0000
0000
,  // measure 37
0001
0000
0100
0000
,  // measure 38
0000
0000
0000
0000
,  // measure 39
1000
0000
0010
0000
,  // measure 40
0000
0000
1001
0000
,  // measure 41
0000
0000
0010
0000
,  // measure 42
0000
0000
0100
0000
,  // measure 43
0000
0000
0001
0000
,  // measure 44
0000
0000
1000
0000
,  // measure 45
0000
0000
1000
0000
,  // measure 46
0000
0000
0010
0000
,  // measure 47
0000
0000
0001
0000
,  // measure 48
0000
0000
0100
0000
,  // measure 49
0100
0000
0000
0000
,  // measure 50
0000
0000
0000
0000
,  // measure 51
0010
0000
0000
0000
,  // measure 52
0000
0000
0000
0000
,  // measure 53
1000
0000
0100
0000
,  // measure 54
0000
0000
0000
0000
,  // measure 55
0001
0000
0001
0000
,  // measure 56
1000
0000
1000
0000
,  // measure 57
0010
0000
1000
0000
,  // measure 58
0100
0000
0000
0000
,  // measure 59
0010
0000
0001
0000
,  // measure 60
0100
0000
0000
0000
,  // measure 61
0010
0000
0010
0000
,  // measure 62
0000
0000
0000
0000
,  // measure 63
1000
0000
1000
0000
,  // measure 64
0000
0000
1001
0000
,  // measure 65
0010
0000
0100
0000
,  // measure 66
0010
0000
0000
0000
,  // measure 67
1000
0000
0001
0000
,  // measure 68
0100
0000
0000
0000
,  // measure 69
0001
0000
1000
0000
,  // measure 70
0001
0000
0000
0000
,  // measure 71
0100
0000
0000
0000
,  // measure 72
1000
0000
0000
0000
,  // measure 73
0010
0000
0000
0000
;
