#TITLE:Teen Town;
#SUBTITLE:;
#ARTIST:Weather Report;
#TITLETRANSLIT:;
#SUBTITLETRANSLIT:;
#ARTISTTRANSLIT:;
#GENRE:;
#CREDIT:;
#BANNER:Teen Town-bn.png;
#BACKGROUND:Teen Town-bg.png;
#LYRICSPATH:;
#CDTITLE:;
#MUSIC:Teen Town.ogg;
#OFFSET:0.939000;
#SAMPLESTART:8.860000;
#SAMPLELENGTH:20.000000;
#SELECTABLE:YES;
#DISPLAYBPM:122.000000:132.000000;
#BPMS:0.000000=125.999992
,8.000000=122.000000
,20.000000=124.999992
,28.000000=126.999992
,68.000000=131.000000
,76.000000=128.000000
,92.000000=126.999992
,96.000000=128.000000
,98.000000=130.000000
,104.000000=132.000000
,112.000000=131.000000
,116.000000=126.999992
,128.000000=129.000000
,136.000000=126.999992
,156.000000=124.000000
,192.000000=128.000000
,196.000000=126.999992
,216.000000=128.000000
;
#STOPS:
;
#BGCHANGES:;
#KEYSOUNDS:;
#ATTACKS:;

//---------------dance-single - ----------------
#NOTES:
     dance-single:
     :
     Hard:
     14:
     0.526177,0.600017,0.205663,0.271102,0.420675,394.000000,372.000000,22.000000,29.000000,0.000000,0.000000,0.526177,0.600017,0.205663,0.271102,0.420675,394.000000,372.000000,22.000000,29.000000,0.000000,0.000000:
// measure 0
0000
0000
0000
0000
,  // measure 1
0000
0000
0000
0000
,  // measure 2
0000
0000
0000
0000
,  // measure 3
1000
0001
1000
0002
0000
0000
0103
0010
,  // measure 4
1000
0000
0100
0000
0010
0000
0002
0000
0000
0000
0000
0000
0000
0000
1000
1003
,  // measure 5
0000
1000
0100
0000
1000
0000
0001
0000
0100
0000
0010
0000
0100
0000
0001
0000
,  // measure 6
0010
0001
0010
0001
0000
0100
0000
0000
0000
0000
1000
0000
0000
0000
1000
0000
,  // measure 7
0000
0010
0000
1000
0001
0000
0010
0000
0100
0000
1000
0000
0001
0000
0100
0000
,  // measure 8
0010
1000
0010
1000
0001
1000
0000
0000
0000
0000
0100
0000
0000
0000
0100
0000
,  // measure 9
0010
0000
0000
0000
1000
0100
1000
0001
0000
0001
0000
0000
0000
0000
0100
0000
,  // measure 10
0000
0000
0010
1000
0010
1000
0010
0100
0001
0010
0002
0000
0000
0000
0103
0000
,  // measure 11
1000
0000
0000
0000
0010
0100
0010
1000
0000
0001
0000
0000
0000
0000
0100
0000
,  // measure 12
0000
0000
0100
0000
0000
0000
0100
0010
0000
0000
0010
1000
0000
0000
1000
0001
,  // measure 13
0000
0000
0001
0100
0000
0001
0000
0000
1000
0000
0010
0000
0000
0000
0010
0000
,  // measure 14
0100
0000
0000
0001
0010
0000
0000
0000
0001
0000
0100
0000
1000
0000
0000
1000
,  // measure 15
0000
1000
0001
0000
0100
0001
0100
0010
0000
0000
1000
0000
0000
0000
0010
0000
,  // measure 16
0000
0000
1000
2000
0000
0001
3001
0000
0000
0000
0010
0000
0000
0000
0010
0010
,  // measure 17
0000
0000
0000
0000
0000
0000
0000
2000
0000
0000
3001
1000
0100
1000
0001
0000
,  // measure 18
0010
0100
0001
1000
0100
1000
0000
0000
0000
0000
0000
0000
0001
0010
0001
1000
,  // measure 19
0000
0100
0000
1000
0000
0001
0000
0000
0000
0000
0000
0000
0100
0010
0100
0010
,  // measure 20
0000
1000
1000
0000
1001
0000
0000
0000
0000
0000
0001
0000
0001
0001
0000
1000
,  // measure 21
0000
0010
1000
0000
0100
0000
0010
0000
0001
0000
0100
0000
0001
0000
1000
0000
,  // measure 22
0010
0100
0010
1000
0000
0001
0000
0000
1000
0100
1000
0000
0001
0100
0001
0000
,  // measure 23
0000
0100
0000
0001
1000
0000
0010
0000
1000
0000
0100
0000
0010
0000
0001
0000
,  // measure 24
1000
0100
1000
0001
0010
0100
0000
0000
0000
0000
0000
0000
1001
0000
0000
0000
,  // measure 25
0010
0000
0000
0000
1000
0100
1000
0010
0000
0100
0000
0000
0001
0000
0000
0000
,  // measure 26
0000
0000
1000
0001
1000
0001
0010
0100
1000
0010
0100
0010
0100
0001
0100
0000
,  // measure 27
0000
0000
0000
0000
1000
0100
1000
0010
0000
0100
0000
0000
0001
0000
0000
0000
,  // measure 28
0000
0000
0010
0000
0000
0000
1000
0100
0000
0000
0100
0001
0000
0000
0001
0010
,  // measure 29
0002
0000
0000
0000
0100
0000
0000
0000
1000
0000
0000
0000
0010
0000
0000
2003
,  // measure 30
0000
3020
0000
0000
0100
0000
0000
0000
0001
0000
0000
0000
1030
0000
0000
0020
,  // measure 31
0000
0230
0000
0000
0001
0000
0000
0000
1000
0000
0000
0000
0310
0000
0000
2000
,  // measure 32
0000
3002
0000
0000
0000
1003
0001
0100
0000
0000
0100
0010
0000
0000
0010
1000
,  // measure 33
0000
0000
1000
0001
0000
0010
0000
0000
0001
0000
0000
0000
1000
0000
0000
0000
,  // measure 34
0010
1000
0100
1000
0010
0001
0100
0001
,  // measure 35
0010
1000
0100
1000
0001
0100
0110
1001
,  // measure 36
0001
0000
0010
0000
0100
0000
1000
0000
0010
0000
0010
0000
0010
0100
0000
0001
,  // measure 37
1000
0010
0100
0002
0000
0000
0013
0001
,  // measure 38
0100
0010
1000
0200
0000
0001
0301
0000
,  // measure 39
1000
0010
0100
0020
0000
0000
0130
0001
,  // measure 40
0010
0001
0100
2000
0000
0010
3010
0000
,  // measure 41
0010
1000
0100
0020
0000
0000
0031
1000
,  // measure 42
0001
0100
0001
0200
0000
0010
0310
0000
,  // measure 43
1000
0100
1000
0002
0000
0000
0013
0001
,  // measure 44
0100
0001
0010
1000
0100
1000
0010
0001
,  // measure 45
1000
0000
0011
0011
0101
0101
1001
1001
,  // measure 46
2010
0000
0100
0000
0001
0001
0001
0000
,  // measure 47
3100
0000
1100
1100
1010
1010
1001
1001
,  // measure 48
0201
0000
1000
0000
0010
0010
0010
0000
,  // measure 49
0320
0100
0100
0100
0001
0001
1000
1000
,  // measure 50
2030
0000
0100
0000
0001
0001
0001
0000
,  // measure 51
3002
0000
1000
1000
0203
0001
0001
0010
,  // measure 52
0320
0100
0100
0100
0230
0001
0001
0001
,  // measure 53
0302
1000
1000
0100
0103
0010
0110
0000
,  // measure 54
1000
0100
0010
0001
0000
0102
1003
0000
,  // measure 55
0010
0000
0000
0000
1100
0000
0000
0000
0101
0000
0000
0000
0010
0010
0000
0000
;

//---------------dance-single - ----------------
#NOTES:
     dance-single:
     :
     Medium:
     9:
     0.368591,0.417403,0.280450,0.149573,0.088809,276.000000,246.000000,30.000000,16.000000,0.000000,0.000000,0.368591,0.417403,0.280450,0.149573,0.088809,276.000000,246.000000,30.000000,16.000000,0.000000,0.000000:
0000
0000
0000
0000
,
0000
0000
0000
0000
,
0000
0000
0000
0000
,
1000
0001
1000
0001
0000
0000
1001
0000
,
0110
0000
0000
0000
0100
0000
0010
0000
0000
0000
0000
0000
0000
0000
0100
0010
,
0000
1000
0001
0000
0010
0001
0100
0010
,
1000
0100
0001
0000
0000
0000
0000
0000
,
0000
0100
0010
0000
1000
0001
1000
0100
,
0010
0100
1000
0000
0000
0000
0000
0000
,
0000
0000
0010
0001
1000
0001
0100
0000
,
0000
0000
0010
0000
0100
0000
0001
0000
1000
0100
2000
0000
0000
0000
0000
0000
,
3000
0000
1000
0100
0010
0001
0100
0000
,
0000
0000
0000
0101
0000
1100
0000
1010
,
0000
0011
0010
0000
0000
0000
0000
0000
,
0001
0000
0000
1000
0001
0000
0000
0000
0100
0000
0010
0000
1000
0000
0000
0000
,
0010
0100
0001
1000
0100
0000
1000
0000
,
0000
0000
0000
0200
0000
0000
0310
0000
0000
0000
0000
0000
0000
0000
1000
0001
,
0000
0000
0000
0000
0000
0000
0000
0020
0000
0000
0031
0000
1000
0000
0100
0000
,
1000
0010
0001
0000
0000
0000
0100
0010
,
1000
0100
0010
0001
0000
0000
0000
0000
,
0100
0000
0000
0000
0010
0000
0000
0000
0000
0000
1000
0000
1000
0001
0000
0100
,
0000
0010
1000
0000
0100
1000
0001
0100
,
0001
1000
0100
0000
1100
0000
0101
0000
,
0000
0010
0001
0000
1000
0100
0010
0001
,
0100
0001
0010
0000
0000
0000
1001
0000
,
0000
0000
1000
0100
1000
0010
0100
0000
,
0000
0000
0100
0000
0010
0000
1000
0000
0001
0100
0002
0000
0000
0000
0000
0000
,
0003
0000
0001
1000
0100
1000
0001
0000
,
0000
0000
0000
1010
0000
0011
0000
0110
,
0020
0000
0000
0000
1000
0000
0000
0000
0000
0000
0000
0000
0130
0000
0000
0001
,
0000
0002
0000
0000
1000
0000
0000
0000
0000
0000
0000
0000
0013
0000
0000
1000
,
0000
2000
0000
0000
0001
0000
0000
0000
0000
0000
0000
0000
3010
0000
0000
0100
,
0000
0200
0000
0000
0010
0000
0000
0000
0000
0000
0000
0000
1300
0000
0000
0000
,
0001
0100
1000
0000
0001
0010
1000
0000
,
0010
1000
0100
0000
0001
0100
0010
0000
,
1000
0000
0000
0010
0000
0100
0000
0001
0000
0000
0000
0000
1001
0000
1001
0000
,
0000
0001
0100
0000
0010
1000
0110
0000
,
1000
0100
1000
0100
0000
0000
1100
0000
,
0011
0000
0010
0001
0000
0000
0000
0000
,
0100
0010
0100
0010
0000
0000
0110
0000
,
1010
0000
1000
0001
0000
0000
0000
0000
,
0100
0001
0100
0001
0000
0000
0011
0000
,
1100
0000
1000
0010
0000
0000
0000
0000
,
1000
0001
1000
0001
0000
0000
0011
0000
,
0010
0010
0010
0000
0100
0100
0100
0000
,
0011
0000
0001
0100
1000
0000
0001
0100
,
2000
0000
3000
0110
,
0000
0000
1000
0100
0001
0000
1000
0010
,
0002
0000
0003
1100
,
0001
0010
0010
0000
0001
0100
1000
0000
,
0020
1000
0130
0101
,
0200
0000
0310
0100
0002
0000
1003
0001
,
0020
0031
0200
0310
,
2000
0100
0100
3100
,
1000
0001
1000
0001
0000
1001
0000
0000
,
1010
0000
0000
0000
0011
0000
0000
0000
1010
0000
0000
0000
1000
0001
0000
0000
;

//---------------dance-single - ----------------
#NOTES:
     dance-single:
     :
     Easy:
     7:
     0.269766,0.391315,0.149573,0.224360,0.032719,202.000000,186.000000,16.000000,24.000000,0.000000,0.000000,0.269766,0.391315,0.149573,0.224360,0.032719,202.000000,186.000000,16.000000,24.000000,0.000000,0.000000:
0000
0000
0000
0000
,
0000
0000
0000
0000
,
0000
0000
0000
0000
,
1000
0001
1000
0001
0000
0000
0000
0000
,
0100
0010
0100
0010
0000
0000
0000
1001
,
0000
0010
1000
0100
,
1000
0001
0100
0010
,
1000
0100
0001
0010
,
0100
0010
0001
1000
,
0010
1000
0100
0110
,
0000
0001
1000
0010
,
0000
0100
0010
1000
,
0001
0000
1000
1000
,
0010
0100
0001
1000
,
0100
0010
0100
1000
,
0001
1000
0010
0100
,
0001
0000
1000
0001
0000
0000
0000
0110
,
0000
0000
1000
0100
,
1000
0001
0010
0001
,
0010
0100
1000
0010
,
0100
0000
0001
0000
0000
0010
0010
0001
,
0100
1001
0010
0100
,
0001
1000
0100
0010
,
0001
0100
1000
0010
,
0100
0010
1000
0101
,
0010
0100
1000
0011
,
0000
0001
0100
0010
,
0000
1000
0100
0001
,
0010
0000
0100
0100
,
1002
0000
0000
0000
0000
0000
0000
0000
0000
0000
0000
0000
0000
0000
0000
0103
,
0000
0020
0000
0000
0000
0000
0000
0000
0000
0000
0000
0000
0000
0000
0000
0130
,
0000
2000
0000
0000
0000
0000
0000
0000
0000
0000
0000
0000
0000
0000
0000
3001
,
0000
0200
0000
0000
0000
0000
0000
0000
0000
0000
0000
0000
0300
0000
0000
0000
,
0010
1000
0001
0100
,
0010
0001
0100
1000
,
0010
0000
1000
0000
0010
0000
0001
0001
,
0000
0110
0000
1001
,
1000
0010
1000
0010
0000
0000
0000
0000
,
0100
0001
0100
0001
0000
0000
0000
0000
,
0001
0010
0001
0010
0000
0000
0000
0000
,
0100
1000
0100
1000
0000
0000
0000
0000
,
0010
0100
0010
0100
0000
0000
0000
0000
,
0001
1000
0001
1000
0000
0000
0000
0000
,
0001
0010
0100
1000
0000
0000
1001
0000
,
1100
1100
0101
0101
,
0010
2000
3200
0320
,
0032
0000
0000
1003
,
0010
0002
0023
0230
,
2300
0000
0000
3001
,
0100
1000
0002
0000
2003
0000
3020
0000
,
0230
0000
0000
0300
,
0020
2030
3020
0230
,
0302
0003
2000
3000
,
0002
0000
0000
0003
,
0010
0100
0001
1000
0000
0200
0300
0000
,
0000
0000
0000
0000
1001
0000
0000
0000
0110
0000
0000
0000
1000
0001
0000
0000
;

//---------------dance-single - ----------------
#NOTES:
     dance-single:
     :
     Beginner:
     2:
     0.142896,0.182409,0.046742,0.074787,0.000000,107.000000,102.000000,5.000000,8.000000,0.000000,0.000000,0.142896,0.182409,0.046742,0.074787,0.000000,107.000000,102.000000,5.000000,8.000000,0.000000,0.000000:
0000
0000
0000
0000
,
0000
0000
0000
0000
,
0000
0000
0000
0000
,
1000
1000
0000
0000
,
0001
0001
0000
0000
,
1001
0000
0010
0000
,
0100
0100
0000
0000
,
0010
0000
1000
0000
,
0001
0001
0000
0000
,
0000
0010
0010
0000
,
0000
0100
0100
0000
,
0000
0001
0001
0000
,
0000
0000
1000
0000
,
0100
0100
0000
0000
,
0000
0001
0001
0001
,
0000
1000
1000
0000
,
0000
0110
0000
0000
,
1001
0000
0100
0000
,
1000
1000
0000
0100
,
0100
0100
0000
0001
,
0001
0001
0000
1000
,
1000
0000
0001
0000
,
0100
0100
0000
0000
,
0000
0001
0001
0000
,
0010
0010
0000
0110
,
0000
1000
1000
0000
,
0000
0001
0001
0000
,
0000
0100
0100
0000
,
0000
0000
0010
0000
,
0020
0000
0030
0000
,
0200
0000
0300
0000
,
0002
0000
0003
0000
,
2000
0000
3000
0000
,
0001
0000
0001
0000
,
1000
0000
1000
0000
,
0010
0000
0010
0000
,
0100
0000
0100
0000
,
0001
0001
0000
0000
,
0100
0100
0000
0000
,
1000
1000
0000
0000
,
0100
0100
0000
0000
,
0001
0001
0000
0000
,
0010
0010
0000
0000
,
1000
1000
0000
0000
,
0010
0000
0010
0000
,
0000
0100
0100
0100
,
0200
0000
0000
0300
,
0000
0010
0010
0010
,
0020
0000
0030
0000
,
2000
0000
3000
0000
,
0002
0000
0003
0000
,
0010
0000
0100
0000
,
0010
0000
0100
0000
,
1001
0000
0000
0000
,
1000
1000
0000
0000
,
0000
0010
0010
0010
;
