#VERSION:0.83;
#TITLE:TYCOON;
#SUBTITLE:;
#ARTIST:SOUND HOLIC feat. Nana Takahashi;
#TITLETRANSLIT:;
#SUBTITLETRANSLIT:;
#ARTISTTRANSLIT:;
#GENRE:;
#ORIGIN:;
#CREDIT:;
#BANNER:TYCOON-bn.png;
#BACKGROUND:TYCOON-bg.png;
#PREVIEWVID:;
#JACKET:TYCOON-jacket.png;
#CDIMAGE:;
#DISCIMAGE:;
#LYRICSPATH:;
#CDTITLE:;
#MUSIC:TYCOON.ogg;
#OFFSET:1.166667;
#SAMPLESTART:49.656864;
#SAMPLELENGTH:20.000000;
#SELECTABLE:YES;
#DISPLAYBPM:170.000000;
#BPMS:0.000=170.000;
#STOPS:;
#DELAYS:;
#WARPS:;
#TIMESIGNATURES:0.000=4=4;
#TICKCOUNTS:0.000=4;
#COMBOS:0.000=1;
#SPEEDS:0.000=1.000=0.000=0;
#SCROLLS:0.000=1.000;
#FAKES:;
#LABELS:0.000=Song Start;
#BGCHANGES:;
#KEYSOUNDS:;
#ATTACKS:
;

//---------------dance-single - ----------------
#NOTEDATA:;
#CHARTNAME:;
#STEPSTYPE:dance-single;
#DESCRIPTION:;
#CHARTSTYLE:;
#DIFFICULTY:Hard;
#METER:13;
#RADARVALUES:0.720831,0.783322,0.631924,0.191492,0.287238,527.000000,461.000000,66.000000,20.000000,0.000000,0.000000,0.000000,0.000000,0.000000,0.720831,0.783322,0.631924,0.191492,0.287238,527.000000,461.000000,66.000000,20.000000,0.000000,0.000000,0.000000,0.000000,0.000000;
#CREDIT:;
#NOTES:
0000
0000
0000
0000
,
0000
0000
0000
0000
,
0000
0000
0000
0000
,
0000
0000
0000
0000
,
0000
0000
0000
0000
0000
0000
0000
0010
,
1002
0100
1000
0100
,
0010
0100
1000
0013
,
0001
1000
0000
1000
0010
0000
0000
0000
1000
0001
0000
0001
0100
0000
0000
0000
,
0010
1000
0000
1000
0001
0000
0010
0100
0000
0100
1000
0000
0010
0100
0010
0100
,
0001
0000
0000
0001
1000
0000
0000
1000
0010
0000
0100
0000
0010
0000
1010
0000
,
0000
0000
0101
0000
0000
0000
0001
1000
0001
0000
0010
0000
0100
0000
1000
0000
,
0000
0000
0010
0000
0010
0000
1000
0000
0001
0000
0100
0000
0100
0000
0000
0001
,
0010
0000
0000
0000
1100
0000
0000
1000
0000
0010
0100
0000
0001
0000
1000
0000
,
0010
0000
0000
0010
0100
0000
0000
0100
0001
0000
1000
0000
0100
0000
0110
0000
,
0000
0000
0011
0000
0000
0000
0001
0100
0001
0000
0010
0000
0100
0000
1000
0000
,
0010
1000
0000
0000
1100
0000
0000
0110
0000
0000
0011
0000
0000
1000
0000
0010
,
0100
0101
0000
0000
0001
1001
0000
1010
,
0001
1000
0010
0100
0001
0010
0100
0000
,
1000
0001
1000
0010
0100
0001
0010
0100
,
1000
0100
0010
0001
0100
0010
1000
0001
,
1000
0001
0100
0000
0101
0000
1100
0000
,
0010
1000
0100
1000
0001
0010
0100
0000
,
1000
0010
1000
0001
0010
0100
1000
1000
,
1000
0001
0010
0001
1000
0100
0010
0100
,
1000
0001
0010
0000
0001
1000
0100
0000
,
0010
0001
0010
0000
0001
1000
0000
0000
1010
0000
0000
1100
0000
0000
0011
0000
,
0000
0000
1001
0000
1000
0010
0000
0100
0001
0000
0000
0011
0000
0000
1100
0000
,
0000
0000
0010
0000
1000
0001
0000
1000
0100
0000
0000
0110
0000
0000
1001
0000
,
0001
1000
0001
0000
1000
0100
0000
0100
0010
0000
0000
0011
0000
0000
0101
0000
,
1000
1000
1000
1000
0001
0010
0001
0200
,
0000
0001
0302
0000
0010
0000
1003
0100
,
2000
0001
0000
3100
1000
0010
0100
0001
,
0010
0100
1000
0000
0010
0100
0001
1000
,
0020
0000
1030
0100
0010
0001
0100
0010
,
1000
0001
1000
0100
0000
1010
0000
0102
,
0010
0000
0100
0000
1000
1000
1003
0000
,
1100
0000
0001
0011
0000
1001
0000
0110
,
1000
0000
0000
1000
0010
0000
0000
0010
0100
0000
0000
0100
0001
0000
0011
0000
,
0010
0000
0000
0010
0001
0000
0000
0001
1000
0000
0000
1000
0010
0000
1001
0000
,
0000
1000
1000
0010
0100
0100
0001
0011
,
0000
0010
0010
0100
1000
1000
0001
0100
,
0101
0000
0000
0001
0010
0000
0100
0000
0000
0000
1100
0000
0000
0000
1000
0000
,
1010
0000
0000
0010
1000
0000
0001
0000
0000
0000
0011
0000
0000
0000
0100
0000
,
1000
0010
1000
0001
0010
0100
1000
0000
,
0001
1000
0010
0100
0000
0101
0000
1001
,
0100
0000
0000
0100
0001
0000
0000
0001
0010
0000
0000
0010
0100
0000
1100
0000
,
1000
0000
0000
1000
0001
0000
0000
0001
0100
0000
0000
0100
0010
0000
0101
0000
,
0000
0010
0010
0001
0100
0100
0010
1010
,
0000
1000
1000
0010
0100
0100
0001
1000
,
1001
0000
0000
0001
1000
0000
0100
0000
0000
0000
0110
0000
0000
0000
0010
0000
,
0011
0000
0000
0001
1000
0000
0010
0000
0000
0000
1010
0000
0000
0000
0100
0000
,
0002
0000
1003
0010
0200
0000
0301
0010
,
0100
1000
0010
0100
0000
0001
1000
0001
,
0010
0001
0101
0000
1000
0100
1100
0000
,
0010
1000
0001
1000
0010
0100
0001
1000
,
0200
0000
0001
0000
1300
0000
0010
0200
,
0010
0000
1000
0000
0301
0000
0100
0020
,
1000
0001
1000
0130
,
1000
0000
0010
0000
0100
0001
1000
0200
,
0001
1000
0310
0100
,
1000
0001
2000
3100
,
0002
0010
0100
1003
,
1001
0000
0010
1010
0000
0101
0000
0220
,
0300
0000
0000
0000
1030
0000
0000
0000
1010
0000
0000
0001
0100
0000
1001
0000
,
0000
0000
0000
1000
0010
0000
0000
0100
0001
0000
0000
0010
0100
0000
1100
0000
,
0000
0010
0010
1000
0001
0001
0100
0101
,
0000
0001
0001
1000
0100
0100
0010
0001
,
1000
0010
1000
0001
0000
0011
0000
1100
,
0010
0100
0001
1000
0000
0001
0010
0200
,
0000
1300
0010
0200
0000
0301
1000
0020
,
0000
0130
0010
0000
1000
0001
0100
0001
,
0011
0000
0000
0000
1010
0000
0000
1000
0001
0000
0100
0000
0110
0000
0110
0000
,
0000
0000
1000
0000
0001
0000
0000
0000
1000
0100
1000
0100
1000
0000
0020
0000
,
0000
0000
1000
0000
1030
0000
0001
0100
0001
0000
0010
0000
0010
0000
0000
0000
,
1001
1001
0110
1001
0000
0000
0000
0000
;

//---------------dance-single - ----------------
#NOTEDATA:;
#CHARTNAME:;
#STEPSTYPE:dance-single;
#DESCRIPTION:;
#CHARTSTYLE:;
#DIFFICULTY:Medium;
#METER:10;
#RADARVALUES:0.504718,0.605294,0.382984,0.363835,0.052660,369.000000,329.000000,40.000000,38.000000,0.000000,0.000000,0.000000,0.000000,0.000000,0.504718,0.605294,0.382984,0.363835,0.052660,369.000000,329.000000,40.000000,38.000000,0.000000,0.000000,0.000000,0.000000,0.000000;
#CREDIT:;
#NOTES:
0000
0000
0000
0000
,
0000
0000
0000
0000
,
0000
0000
0000
0000
,
0000
0000
0000
0000
,
0000
0000
0000
0000
0000
0000
0000
0010
,
1002
0000
2000
0003
,
0020
3000
0200
0330
,
0001
1000
0010
0000
1000
0001
0010
0000
,
0001
1000
0010
1000
0100
0010
0001
0000
,
0011
0000
1100
0000
0001
0001
0000
0101
,
0000
1010
0000
1000
0010
0100
0001
1000
,
0000
1000
0100
0010
0001
1000
0001
0000
,
1001
0000
0110
0000
1000
0100
0010
0000
,
0011
0000
1010
0000
0010
0010
0000
0101
,
0000
1100
0000
0001
1000
0100
0010
0001
,
0200
0000
0000
0320
0000
0000
2030
0000
0000
3002
0000
0000
0203
0000
0000
0310
,
0000
0110
0000
0000
1000
0002
0000
0013
,
0001
0000
1000
0010
0000
1000
0000
0100
,
0000
0010
0001
0010
0000
0000
0001
1000
,
0010
0000
1000
0001
0000
0010
0000
0100
,
0000
0000
0000
0000
0000
0000
1000
0010
,
2000
0000
0001
3001
0000
0000
0000
0100
,
0002
0000
1000
1003
0000
0000
0010
0100
,
0001
0000
1000
0010
0000
0100
0000
0010
,
0000
0000
0000
0000
0000
0110
0000
1001
,
0000
0000
0020
0000
0000
1000
0000
0000
0001
0000
0000
1030
0000
0000
0010
0000
,
0000
0000
0200
0000
0000
0001
0000
0000
1000
0000
0000
0301
0000
0000
0100
0000
,
0000
0000
0002
0000
0000
0010
0000
0000
0100
0000
0000
0013
0000
0000
0001
0000
,
0000
0000
2000
0000
0000
0010
0000
0000
0100
0000
0000
3010
0000
0000
1000
0000
,
0001
0100
0001
0100
0001
0000
1000
1000
,
0000
0001
0001
0000
0000
0000
0100
0010
,
2000
0000
0000
0100
3100
1000
0001
0100
,
0000
0000
0000
0000
0000
0000
0010
1000
,
0020
0000
0000
1030
0001
0100
0000
0010
,
0200
0000
0000
0001
0000
1000
0000
0302
,
0000
1000
0010
0103
,
1001
0000
0000
1100
0000
0110
0000
0012
,
0000
0000
0010
0000
1000
0000
0103
0020
,
0000
0000
0001
0000
0100
0000
1030
0200
,
0000
1000
1300
0010
0100
0001
0000
0020
,
0000
0001
0031
1000
0010
0100
0000
0001
,
1000
0000
0010
0100
0000
0101
0000
1100
,
0000
0001
0000
1000
0000
0010
0000
0100
,
0001
0000
1000
0100
0000
1010
0000
0011
,
0000
0110
0000
1100
0000
1010
0000
2001
,
0000
0000
0100
0000
0001
0000
3010
0200
,
0000
0000
1000
0000
0001
0000
0310
2000
,
0000
0001
3001
1000
0100
0010
0000
0002
,
0000
0010
0013
0001
1000
0100
0000
1000
,
0010
0000
0100
0001
0000
0011
0000
1100
,
0000
0010
0000
0100
0000
0001
0000
1000
,
0020
0000
0030
1000
0200
0000
0300
0010
,
0002
0000
1003
0001
0000
1000
0010
0200
,
0001
0001
1000
1000
,
0301
0100
0010
1000
0100
0010
0001
1000
,
0010
1000
0100
0010
,
0001
0100
0001
1000
,
0010
1000
0100
0010
,
0100
1000
0010
0100
,
0001
1000
0001
0010
,
0001
0100
0010
1000
,
0100
1000
0010
0100
,
1001
0000
0000
0101
0000
0110
0000
2020
,
0000
0000
0000
0000
0030
0000
0001
3002
,
0000
0000
1000
0000
0100
0000
1003
0020
,
0000
0100
0130
0010
1000
0001
0000
2000
,
0000
0100
3100
1000
0010
0100
0000
0001
,
0010
0000
0001
1000
0000
1010
0000
0101
,
0000
1001
0000
0110
0000
1000
0010
0100
,
0000
0001
1000
0001
0000
0100
0010
0100
,
0000
0000
0000
0000
0001
1000
0010
0200
,
0001
0000
1000
0000
0010
0310
0000
0110
,
0000
1001
0000
1000
0001
0010
0100
1000
,
0000
0001
1000
0010
1000
0001
0100
0000
,
0101
0001
1000
1100
0000
0000
0000
0000
;

//---------------dance-single - ----------------
#NOTEDATA:;
#CHARTNAME:;
#STEPSTYPE:dance-single;
#DESCRIPTION:;
#CHARTSTYLE:;
#DIFFICULTY:Easy;
#METER:7;
#RADARVALUES:0.365203,0.498478,0.287238,0.344686,0.000000,267.000000,237.000000,30.000000,36.000000,0.000000,0.000000,0.000000,0.000000,0.000000,0.365203,0.498478,0.287238,0.344686,0.000000,267.000000,237.000000,30.000000,36.000000,0.000000,0.000000,0.000000,0.000000,0.000000;
#CREDIT:;
#NOTES:
0000
0000
0000
0000
,
0000
0000
0000
0000
,
0000
0000
0000
0000
,
0000
0000
0000
0000
,
0000
0000
0000
0000
,
0002
0000
2003
0000
,
3020
0000
0230
0000
,
0301
0001
1000
1000
,
0010
0100
0010
0100
,
0101
1100
0001
1000
,
0010
1000
0100
0010
,
0001
0100
0001
1000
,
1001
0110
0010
1000
,
1010
0011
0001
1000
,
0100
0010
0001
0100
,
0001
0001
1000
1000
,
0010
0100
0000
0000
0000
0001
0000
1000
,
0002
0010
1000
0013
,
2000
0100
0001
3100
,
0020
0001
0100
1030
,
0200
0010
0001
1300
,
1020
0001
0100
1030
,
0102
0010
0100
1003
,
0200
0010
1000
0301
,
2000
0001
0100
3010
,
1000
0100
0010
0011
,
0001
0010
0100
1100
,
1000
0010
0100
0110
,
0001
0100
0010
1001
,
0010
0010
0010
0010
,
1000
0001
0100
0010
,
1000
0100
0010
0100
,
1000
0010
0100
0001
,
0010
0001
0100
0001
,
1000
0000
0000
0020
0000
0230
0000
0302
,
0000
0000
0000
0003
,
2001
0000
0000
0001
0000
0100
0000
3002
,
0000
0000
0000
0000
0000
0000
0103
0020
,
0000
0000
0000
0000
,
1030
0001
0100
0101
,
0001
1000
0100
1100
,
0002
0010
1000
0013
,
2000
0100
0001
3100
,
0001
0010
0100
1000
,
0010
0100
0001
1000
,
1001
0010
1000
0100
,
1001
0010
0001
0100
,
0001
1000
0010
1010
,
1000
0001
0010
0011
,
0200
1000
0010
0301
,
0020
0100
1000
0031
,
2000
3000
2000
3000
,
0001
0010
0100
1000
,
0220
0000
0000
0300
,
1000
0001
1000
0031
,
0200
0000
0000
0000
0000
0000
0301
2000
,
0000
0000
0000
0000
0000
0000
3100
0020
,
0000
0000
0000
0000
,
0000
0000
0000
0000
0000
0031
1000
0002
,
0000
0000
0000
0000
,
0000
0000
2003
0000
,
0200
0000
0000
3300
,
1002
0000
0000
0100
0000
0013
0000
2002
,
0000
0000
0003
0000
0000
0000
3010
0200
,
0000
0000
0000
0300
,
0001
1000
0010
1010
,
0100
0010
1000
1100
,
0001
1000
0010
1000
,
0100
0010
0001
0100
,
0011
0001
1010
1000
,
0110
0100
1001
0001
,
0011
1100
0010
0100
,
0001
1000
0100
0010
,
1000
1000
0001
0001
,
0100
0010
0100
0010
0000
0000
0000
0000
;

//---------------dance-single - ----------------
#NOTEDATA:;
#CHARTNAME:;
#STEPSTYPE:dance-single;
#DESCRIPTION:;
#CHARTSTYLE:;
#DIFFICULTY:Beginner;
#METER:4;
#RADARVALUES:0.173711,0.248820,0.028724,0.057448,0.000000,127.000000,124.000000,3.000000,6.000000,0.000000,0.000000,0.000000,0.000000,0.000000,0.173711,0.248820,0.028724,0.057448,0.000000,127.000000,124.000000,3.000000,6.000000,0.000000,0.000000,0.000000,0.000000,0.000000;
#CREDIT:;
#DISPLAYBPM:170.000000;
#NOTES:
// measure 0
0000
0000
0000
0000
,  // measure 1
0000
0000
0000
0000
,  // measure 2
0000
0000
0000
0000
,  // measure 3
0000
0000
0000
0000
,  // measure 4
0000
0000
0000
0000
,  // measure 5
0002
0000
0000
0000
,  // measure 6
0003
0000
0000
0000
,  // measure 7
1000
0000
1000
0000
,  // measure 8
0010
0000
0100
0000
,  // measure 9
0001
0001
0001
0000
,  // measure 10
0010
0010
0010
0000
,  // measure 11
0100
0100
0100
0000
,  // measure 12
1000
1000
1000
0000
,  // measure 13
0010
0010
0010
0000
,  // measure 14
0100
0100
0100
0000
,  // measure 15
0001
0000
0001
0000
,  // measure 16
1000
0000
1000
0000
,  // measure 17
0010
0000
0000
0000
,  // measure 18
0100
0000
0000
0000
,  // measure 19
0001
0000
0000
0000
,  // measure 20
1000
0000
0000
0000
,  // measure 21
0010
0000
0000
0000
,  // measure 22
1000
0000
0000
0000
,  // measure 23
0001
0000
0000
0000
,  // measure 24
0100
0000
0000
0000
,  // measure 25
0001
0000
0001
0000
,  // measure 26
0100
0000
0100
0000
,  // measure 27
0010
0000
0010
0000
,  // measure 28
1000
0000
1000
0000
,  // measure 29
0001
0001
0001
0000
,  // measure 30
1000
1000
0000
0000
,  // measure 31
0010
0000
1000
0000
,  // measure 32
0001
0000
0000
0000
,  // measure 33
1000
0000
0100
0000
,  // measure 34
0010
0000
0001
0001
,  // measure 35
0001
0000
0000
0000
,  // measure 36
1001
0000
0000
0000
,  // measure 37
2000
0000
3000
0000
,  // measure 38
0002
0000
0003
0000
,  // measure 39
0100
0100
0100
0000
,  // measure 40
0010
0010
0010
0000
,  // measure 41
1000
0000
0001
0000
,  // measure 42
0100
0000
0000
0000
,  // measure 43
0001
0000
1000
0000
,  // measure 44
0010
0000
0000
0000
,  // measure 45
0020
0000
0030
0000
,  // measure 46
0200
0000
0300
0000
,  // measure 47
0001
0001
0001
0000
,  // measure 48
1000
1000
1000
0000
,  // measure 49
0010
0000
1000
0000
,  // measure 50
0100
0000
0000
0000
,  // measure 51
0010
0000
0010
0000
,  // measure 52
0001
0000
1000
0000
,  // measure 53
1001
0000
0000
0000
,  // measure 54
0000
0000
0000
0000
,  // measure 55
0001
0000
0000
0000
,  // measure 56
0001
0000
0000
0000
,  // measure 57
0001
0000
0000
0000
,  // measure 58
0000
0000
0000
0000
,  // measure 59
1000
0000
0000
0000
,  // measure 60
1000
0000
0000
0000
,  // measure 61
1000
0000
0000
0000
,  // measure 62
0010
0000
0000
0000
,  // measure 63
1001
0000
0000
0000
,  // measure 64
0020
0000
0030
0000
,  // measure 65
1000
1000
1000
0000
,  // measure 66
0001
0001
0001
0000
,  // measure 67
0010
0010
0010
0000
,  // measure 68
0100
0100
0100
0000
,  // measure 69
1000
0000
0010
0000
,  // measure 70
0100
0000
0001
0000
,  // measure 71
0010
0010
0010
0000
,  // measure 72
0001
0001
0001
0000
,  // measure 73
1000
1000
1000
0000
,  // measure 74
0100
0100
0000
0000
;
