#VERSION:0.83;
#TITLE:TWILIGHT MOON;
#SUBTITLE:;
#ARTIST:Yoshihiko Koezuka;
#TITLETRANSLIT:;
#SUBTITLETRANSLIT:;
#ARTISTTRANSLIT:;
#GENRE:;
#ORIGIN:;
#CREDIT:;
#BANNER:TWILIGHT MOON-bn.png;
#BACKGROUND:TWILIGHT MOON-bg.png;
#PREVIEWVID:;
#JACKET:TWILIGHT MOON-jacket.png;
#CDIMAGE:;
#DISCIMAGE:;
#LYRICSPATH:;
#CDTITLE:;
#MUSIC:TWILIGHT MOON.ogg;
#OFFSET:0.000000;
#SAMPLESTART:28.229000;
#SAMPLELENGTH:20.000000;
#SELECTABLE:YES;
#DISPLAYBPM:170.000000;
#BPMS:0.000=170.040;
#STOPS:;
#DELAYS:;
#WARPS:;
#TIMESIGNATURES:0.000=4=4;
#TICKCOUNTS:0.000=4;
#COMBOS:0.000=1;
#SPEEDS:0.000=1.000=0.000=0;
#SCROLLS:0.000=1.000;
#FAKES:;
#LABELS:0.000=Song Start;
#BGCHANGES:;
#KEYSOUNDS:;
#ATTACKS:
;

//---------------dance-single - ----------------
#NOTEDATA:;
#CHARTNAME:;
#STEPSTYPE:dance-single;
#DESCRIPTION:;
#CHARTSTYLE:;
#DIFFICULTY:Hard;
#METER:12;
#RADARVALUES:0.618205,0.631572,0.350873,0.222220,0.064327,370.000000,340.000000,30.000000,19.000000,0.000000,0.000000,0.000000,0.000000,0.000000,0.618205,0.631572,0.350873,0.222220,0.064327,370.000000,340.000000,30.000000,19.000000,0.000000,0.000000,0.000000,0.000000,0.000000;
#CREDIT:;
#DISPLAYBPM:170.000000;
#NOTES:
// measure 0
0000
0000
0000
0000
,  // measure 1
0000
0000
0000
0000
,  // measure 2
0000
0000
0000
0000
,  // measure 3
0000
0000
0000
0000
,  // measure 4
0010
0000
0001
1000
0000
0010
1000
0100
,  // measure 5
0000
1000
0001
0100
0000
0010
0100
0001
,  // measure 6
0010
0000
0010
0001
1000
0010
1000
0001
,  // measure 7
0000
0100
0000
0001
1000
0100
0010
0000
,  // measure 8
0001
0000
1000
0010
0000
1000
0100
0010
,  // measure 9
0000
0010
0001
0000
1000
0001
0100
0000
,  // measure 10
0010
0000
0010
1000
0000
0001
1000
0100
,  // measure 11
0000
1000
0010
0100
0001
1000
0100
0000
,  // measure 12
1000
0000
0001
0010
0000
0001
0100
0010
,  // measure 13
0000
0100
0001
1000
0000
1000
0100
0010
,  // measure 14
0001
0000
0001
0100
0010
1000
0100
0010
,  // measure 15
0000
0001
0000
1000
0001
0100
0010
0000
,  // measure 16
1000
0000
0010
0100
0001
1000
0000
0001
,  // measure 17
0000
1000
0100
0000
1000
0010
0100
0000
,  // measure 18
0001
0000
0001
1000
0100
1000
0000
1001
,  // measure 19
0000
0000
0000
0000
0000
0000
1000
0001
2000
0000
0100
0000
3100
0000
0000
0000
,  // measure 20
1000
0010
1000
0001
0010
0100
1000
0001
,  // measure 21
0000
0101
0000
1100
0000
0001
0100
1000
,  // measure 22
0001
0010
0100
1000
0000
0010
0000
0100
,  // measure 23
0000
0001
0000
1000
0010
0100
0001
0000
,  // measure 24
0110
0000
0010
1000
0100
1000
0001
0100
,  // measure 25
0000
1010
0000
0011
0000
0010
0001
1000
,  // measure 26
0020
0000
1030
0001
0100
0100
0010
0010
,  // measure 27
1000
1000
0001
0001
0010
0001
1000
0100
,  // measure 28
0010
0100
1000
0001
0010
0100
0010
0001
,  // measure 29
0000
0011
0000
1100
0000
1000
0010
0001
,  // measure 30
1000
0100
0010
0001
0000
1000
0000
0010
,  // measure 31
0000
0100
0000
0001
0010
0100
1000
0000
,  // measure 32
1001
0000
1000
0010
1000
0100
0010
0001
,  // measure 33
0000
0101
0000
1010
0000
0100
0001
0000
,  // measure 34
0110
0000
1000
0010
1000
0001
0000
0001
,  // measure 35
0001
0100
0010
0100
0010
1000
0010
1000
,  // measure 36
0002
0000
1003
1100
0000
0001
0101
0000
,  // measure 37
0010
0000
0110
0000
0000
0000
0100
0000
0001
0000
1000
0100
1000
0000
0001
0000
,  // measure 38
0200
0000
0301
0011
0000
1000
1010
0000
,  // measure 39
0001
0000
1001
0000
0000
0000
1000
0000
0010
0000
0100
0001
0100
0000
0010
0000
,  // measure 40
1000
0100
0010
0001
0000
0100
0100
0000
,  // measure 41
0001
2000
0100
0000
3020
0000
0130
0000
,  // measure 42
0001
0000
1000
0001
1000
0010
0100
0001
,  // measure 43
0000
1000
0010
0100
0010
1000
0001
0010
,  // measure 44
0002
0000
1003
0010
1000
0100
0010
0001
,  // measure 45
0000
0011
0000
1001
0000
1000
0010
0001
,  // measure 46
0200
0000
0310
1000
0001
0010
0100
1000
,  // measure 47
0000
0000
0010
1000
0010
0000
0100
0000
0001
0000
1000
0000
0001
0000
0100
0000
,  // measure 48
0002
0000
0023
0000
0230
0000
2300
0000
3020
0000
0230
0000
,  // measure 49
0302
0000
0000
0000
2003
0000
0000
0000
3020
0000
0000
0000
1030
0000
0000
0100
0000
0000
0010
0000
0000
0001
0000
0000
,  // measure 50
0101
0000
1000
0001
1000
0010
0100
0110
,  // measure 51
0000
0001
1000
0001
0010
0100
0010
0001
,  // measure 52
0100
0010
0100
0010
0000
1010
0000
1100
,  // measure 53
0000
0101
0000
0001
1000
0100
0010
0000
,  // measure 54
0001
1000
0010
0100
0000
1010
0000
1100
,  // measure 55
0000
0000
0110
0000
0000
0000
0001
0100
0001
0000
1000
0000
0010
0000
0100
0000
,  // measure 56
0001
1000
0001
0100
0000
0001
0000
1001
,  // measure 57
0000
1000
0010
0100
0001
0010
0100
1000
,  // measure 58
0001
0001
0001
0001
0022
0000
0000
0000
,  // measure 59
0000
0000
0000
0000
,  // measure 60
0033
0000
0000
0000
;

//---------------dance-single - ----------------
#NOTEDATA:;
#CHARTNAME:;
#STEPSTYPE:dance-single;
#DESCRIPTION:;
#CHARTSTYLE:;
#DIFFICULTY:Medium;
#METER:9;
#RADARVALUES:0.437756,0.561397,0.292394,0.210524,0.000000,262.000000,237.000000,25.000000,18.000000,0.000000,0.000000,0.000000,0.000000,0.000000,0.437756,0.561397,0.292394,0.210524,0.000000,262.000000,237.000000,25.000000,18.000000,0.000000,0.000000,0.000000,0.000000,0.000000;
#CREDIT:;
#DISPLAYBPM:170.000000;
#NOTES:
0000
0000
0000
0000
,
0000
0000
0000
0000
,
0000
0000
0000
0000
,
0000
0000
0000
0000
,
0010
0000
0001
1000
0000
0000
0010
0100
,
0000
0000
0001
0010
0000
0001
1000
0001
,
0100
0000
0100
0010
0000
0000
0000
0000
,
0000
0000
0000
0000
,
1000
0000
0010
0100
0000
0001
0000
0011
,
0000
1100
0000
0000
0001
0000
1000
0000
,
0010
0000
0010
1000
0000
0000
0000
0000
,
0000
0000
0000
0000
,
0100
0000
0001
0010
0000
0000
0100
1000
,
0000
0000
0010
0100
0000
0010
1000
0001
,
0100
0000
0100
0010
0000
0000
0000
0000
,
0000
0000
0000
0000
,
0010
0000
1000
0001
0000
0100
0000
0101
,
0000
1010
0000
0000
0010
0000
0100
0000
,
0010
0000
1000
0001
0000
0110
0000
1001
,
0000
0000
0000
0002
2000
0000
3003
0000
,
0010
1000
0010
1000
0010
0100
0000
0001
,
0000
1000
0000
0010
0000
1000
0100
0010
,
0001
0000
1000
0001
0000
0000
0000
0000
,
0000
0000
0000
1000
0001
0000
0100
0000
,
0110
0000
0010
1000
0000
0001
0000
0011
,
0000
1010
0000
0001
0000
1000
0001
0010
,
0100
0000
1000
0010
0200
0000
0320
0000
,
2030
3200
0320
0032
,
0013
0001
0010
0001
1000
0010
0000
0100
,
0000
0001
0000
1000
0000
0001
0010
0100
,
1000
0000
0010
0100
0000
0000
0000
0000
,
0000
0000
0000
0010
1000
0000
0001
0000
,
1001
0000
0010
1000
0000
0001
0000
0100
,
0000
0010
0000
0101
0000
1100
0000
0000
,
0002
0000
2003
0000
0000
0010
0000
3010
,
0200
0000
0320
0000
1030
0001
1000
0001
,
0010
0000
0000
0001
0000
1000
0001
0000
,
0000
1001
0000
0010
1000
0001
1000
0001
,
0100
0000
0000
0001
0000
1000
0010
0000
,
0000
0110
0000
0010
1000
0100
1000
0001
,
0100
0010
0000
1000
0000
0010
0100
0000
,
0000
0202
0300
0000
1000
0000
0103
0000
,
1000
0000
0001
0100
0000
0000
0000
0000
,
0000
0010
1000
0010
1000
0100
0010
0001
,
0100
0000
0001
1000
0000
0010
0000
1010
,
0000
1100
0000
0011
0000
0010
0001
0100
,
0001
0000
1000
0010
0000
2020
0000
3000
,
0000
1030
0010
1000
0001
0010
0100
1000
,
0001
0011
1000
1100
,
0010
0000
1001
0000
1000
0001
0010
0100
,
1000
0000
0001
0100
0000
0101
0000
0110
,
0000
0001
1000
0001
1000
0001
1000
0001
,
0100
0010
0100
0010
0000
1000
0000
0001
,
0000
0000
0000
0010
0001
0000
1000
0000
,
0001
0000
0001
0100
0000
0010
0000
1000
,
0000
0000
0000
0100
1000
0000
0001
0000
,
1000
0000
1000
0010
0000
0100
0000
0001
,
0000
1000
0100
1000
0010
0100
0001
1000
,
0001
0000
2002
0000
,
0000
0000
0000
0000
,
3003
0000
0000
0000
;

//---------------dance-single - ----------------
#NOTEDATA:;
#CHARTNAME:;
#STEPSTYPE:dance-single;
#DESCRIPTION:;
#CHARTSTYLE:;
#DIFFICULTY:Easy;
#METER:5;
#RADARVALUES:0.250624,0.350873,0.070175,0.140349,0.000000,150.000000,144.000000,6.000000,12.000000,0.000000,0.000000,0.000000,0.000000,0.000000,0.250624,0.350873,0.070175,0.140349,0.000000,150.000000,144.000000,6.000000,12.000000,0.000000,0.000000,0.000000,0.000000,0.000000;
#CREDIT:;
#DISPLAYBPM:170.000000;
#NOTES:
0000
0000
0000
0000
,
0000
0000
0000
0000
,
0000
0000
0000
0000
,
0000
0000
0000
0000
,
0010
0000
1000
0000
,
0001
0000
0100
0000
,
0001
1000
0000
0000
,
0000
0000
0000
0000
,
0010
0100
0010
0000
,
1000
0000
0001
0100
,
0001
1000
0000
0000
,
0000
0000
0000
0000
,
0100
0000
1000
0000
,
0001
0000
0010
0000
,
0001
0100
0000
0000
,
0000
0000
0000
0000
,
0010
1000
0010
0000
,
0100
0000
0001
1000
,
0010
0100
0000
0000
,
0110
0000
1001
0000
,
1000
0001
1000
0001
,
0010
0001
0100
0010
,
1000
0100
0000
0000
,
0000
0000
0010
0010
,
0001
0100
0010
1000
,
0100
0010
0001
1000
,
0100
0010
0001
0001
,
1000
1000
0001
1000
,
0010
0100
0010
0100
,
0001
0100
0010
1000
,
0001
1000
0000
0000
,
0000
0000
0100
0100
,
1000
0010
1000
0001
,
0010
0100
1000
0001
,
2002
0000
0000
3003
,
0220
0000
0000
0330
,
1000
0000
0001
0100
,
0000
0000
0010
1000
,
0100
0000
1000
0001
,
0000
0000
0010
0001
,
1000
0001
0010
0100
,
0000
1000
0010
1000
,
0100
0010
0001
0000
,
0000
0100
0100
0100
,
0010
0000
1000
0001
,
0100
0010
1000
0000
,
0100
0000
0010
0001
,
0100
0010
1000
0000
,
0002
0003
0020
0030
,
0200
0300
2000
3000
,
0010
0010
0100
0100
,
2002
0000
0000
3003
,
0001
0001
0000
1000
,
0010
0000
0100
0010
,
1000
1000
0000
0010
,
0100
0000
0001
0010
,
0100
0100
0000
1000
,
0001
0100
0010
1000
,
0000
0000
0220
0000
,
0000
0000
0000
0000
,
0330
0000
0000
0000
;

//---------------dance-single - ----------------
#NOTEDATA:;
#CHARTNAME:;
#STEPSTYPE:dance-single;
#DESCRIPTION:;
#CHARTSTYLE:;
#DIFFICULTY:Beginner;
#METER:1;
#RADARVALUES:0.086883,0.175437,0.000000,0.011696,0.000000,52.000000,52.000000,0.000000,1.000000,0.000000,0.000000,0.000000,0.000000,0.000000,0.086883,0.175437,0.000000,0.011696,0.000000,52.000000,52.000000,0.000000,1.000000,0.000000,0.000000,0.000000,0.000000,0.000000;
#CREDIT:;
#DISPLAYBPM:170.000000;
#NOTES:
0000
0000
0000
0000
,
0000
0000
0000
0000
,
0000
0000
0000
0000
,
0000
0000
0000
0000
,
0010
0000
0000
0000
,
1000
0000
0000
0000
,
0001
0000
0000
0000
,
0000
0000
0000
0000
,
0010
0000
0000
0000
,
0001
0000
0000
0000
,
1000
0000
0000
0000
,
0000
0000
0000
0000
,
0100
0000
0000
0000
,
1000
0000
0000
0000
,
0001
0000
0000
0000
,
0000
0000
0000
0000
,
0100
0000
0000
0000
,
0001
0000
0000
0000
,
1000
0000
0000
0000
,
0000
0000
0000
0000
,
0010
0000
0010
0000
,
0100
0000
0100
0000
,
0001
0000
0000
0000
,
0000
0000
0000
0000
,
1000
0000
1000
0000
,
0001
0000
0001
0000
,
0100
0000
0010
0000
,
0010
0000
0010
0000
,
1000
0000
1000
0000
,
0001
0000
0001
0000
,
0010
0000
0000
0000
,
0000
0000
0000
0000
,
0100
0000
0100
0000
,
1000
0000
1000
0000
,
0001
0000
0000
0000
,
0000
0000
0000
0000
,
1000
0000
0000
0000
,
0000
0000
0000
0000
,
0001
0000
0000
0000
,
0000
0000
0000
0000
,
0100
0000
0000
0000
,
0000
0000
0000
0000
,
0010
0000
0000
0000
,
0000
0000
0000
0000
,
1000
0000
0000
0000
,
0001
0000
0000
0000
,
0100
0000
0000
0000
,
0010
0000
0000
0000
,
1000
0000
0001
0000
,
1000
0000
0001
0000
,
0100
0000
0000
0000
,
0000
0000
0000
0000
,
0010
0000
0000
0000
,
0000
0000
0000
0000
,
0100
0000
0000
0000
,
0000
0000
0000
0000
,
0001
0000
0000
0000
,
0000
0000
0000
0000
,
0000
0000
0020
0000
,
0000
0000
0000
0000
,
0030
0000
0000
0000
;
