#VERSION:0.83;
#TITLE:TURN BACK T1M3;
#SUBTITLE:;
#ARTIST:TH3 B3AT C0ND/CTOR;
#TITLETRANSLIT:;
#SUBTITLETRANSLIT:;
#ARTISTTRANSLIT:;
#GENRE:Future Pop;
#ORIGIN:;
#CREDIT:;
#BANNER:TURN BACK T1M3-bn.png;
#BACKGROUND:TURN BACK T1M3-bg.png;
#PREVIEWVID:;
#JACKET:TURN BACK T1M3-jacket.png;
#CDIMAGE:;
#DISCIMAGE:;
#LYRICSPATH:;
#CDTITLE:;
#MUSIC:TURN BACK T1M3.ogg;
#OFFSET:-0.031000;
#SAMPLESTART:105.167000;
#SAMPLELENGTH:16.500000;
#SELECTABLE:YES;
#BPMS:0.000=110.000;
#STOPS:;
#DELAYS:;
#WARPS:;
#TIMESIGNATURES:0.000=4=4;
#TICKCOUNTS:0.000=4;
#COMBOS:0.000=1;
#SPEEDS:0.000=1.000=0.000=0;
#SCROLLS:0.000=1.000;
#FAKES:;
#LABELS:0.000=Song Start;
#BGCHANGES:;
#KEYSOUNDS:;
#ATTACKS:
;

//---------------dance-single - ----------------
#NOTEDATA:;
#CHARTNAME:;
#STEPSTYPE:dance-single;
#DESCRIPTION:;
#CHARTSTYLE:;
#DIFFICULTY:Beginner;
#METER:3;
#RADARVALUES:0.113522,0.158221,0.008109,0.000000,0.000000,98.000000,97.000000,1.000000,0.000000,0.000000,0.000000,0.000000,0.000000,0.000000,0.113522,0.158221,0.008109,0.000000,0.000000,98.000000,97.000000,1.000000,0.000000,0.000000,0.000000,0.000000,0.000000,0.000000;
#CREDIT:;
#NOTES:
// measure 0
0000
0000
0000
0000
,  // measure 1
0000
0000
0000
0000
,  // measure 2
0000
0000
0000
0000
,  // measure 3
0000
0000
0000
0000
,  // measure 4
0001
0000
0000
0000
,  // measure 5
0000
0000
0000
0000
,  // measure 6
1000
0000
0000
0000
,  // measure 7
0000
0000
0000
0000
,  // measure 8
1001
0000
0000
0000
,  // measure 9
1000
0000
0000
0000
,  // measure 10
0100
0000
0000
0000
,  // measure 11
0010
0000
0000
0000
,  // measure 12
0001
0000
0100
0000
,  // measure 13
0010
0000
1000
0000
,  // measure 14
0100
0000
0010
0000
,  // measure 15
0001
0000
0000
0000
,  // measure 16
0000
1000
0000
0100
,  // measure 17
0000
0010
0000
0001
,  // measure 18
0000
1000
0000
0001
,  // measure 19
0000
0100
0000
0010
,  // measure 20
0000
1000
0000
0001
,  // measure 21
0000
0010
0000
0100
,  // measure 22
0000
1000
0000
0001
,  // measure 23
0000
0010
0000
0100
,  // measure 24
0000
1000
0010
1000
,  // measure 25
0000
0001
0010
0001
,  // measure 26
0000
0100
0010
0100
,  // measure 27
0000
0001
0100
0001
,  // measure 28
0000
1000
0010
1000
,  // measure 29
0000
0001
0100
0001
,  // measure 30
0000
0010
0100
0010
,  // measure 31
0000
1000
0001
1000
,  // measure 32
0100
0000
0000
0000
,  // measure 33
0010
0000
0000
0000
,  // measure 34
0001
0000
0000
0000
,  // measure 35
0010
0000
0000
0000
,  // measure 36
0100
0000
0000
0000
,  // measure 37
1000
0000
0000
0000
,  // measure 38
0001
0000
0000
0000
,  // measure 39
1000
0000
0000
0000
,  // measure 40
0010
0000
1000
0000
,  // measure 41
0001
0000
1000
0000
,  // measure 42
0010
0000
0100
0000
,  // measure 43
0001
0000
0010
0000
,  // measure 44
0100
0000
1000
0000
,  // measure 45
0001
0000
1000
0000
,  // measure 46
0100
0000
1000
0000
,  // measure 47
0001
0000
0010
0000
,  // measure 48
0000
1000
0000
0010
,  // measure 49
0000
1000
0100
0010
,  // measure 50
0000
0100
0000
1000
,  // measure 51
0000
0001
0100
0001
,  // measure 52
0000
1000
0000
0100
,  // measure 53
0000
0010
0100
1000
,  // measure 54
0000
0001
0000
1000
,  // measure 55
0000
0100
0010
0001
;

//---------------dance-single - ----------------
#NOTEDATA:;
#CHARTNAME:;
#STEPSTYPE:dance-single;
#DESCRIPTION:;
#CHARTSTYLE:;
#DIFFICULTY:Easy;
#METER:8;
#RADARVALUES:0.291914,0.318571,0.032435,0.259479,0.000000,252.000000,248.000000,4.000000,32.000000,0.000000,0.000000,0.000000,0.000000,0.000000,0.291914,0.318571,0.032435,0.259479,0.000000,252.000000,248.000000,4.000000,32.000000,0.000000,0.000000,0.000000,0.000000,0.000000;
#CREDIT:;
#NOTES:
0000
0000
0000
0000
,
0000
0000
0000
0000
,
0000
0000
0000
0000
,
0000
0000
0000
0000
,
0001
0000
0000
1000
0000
0000
0001
0000
,
2000
3200
0320
0032
,
1003
0000
0000
0001
0000
0000
1000
0000
,
0002
0023
0230
2300
,
3001
0010
0001
1000
,
0001
0010
0100
1000
,
0010
1000
0100
0010
,
0001
0010
0100
1000
,
1001
0000
0010
0001
1000
0000
0001
1000
,
0010
0000
0100
0001
1000
0000
0010
0100
,
0001
0000
0010
0100
1000
0000
0001
1000
,
0001
0000
0000
0000
,
0010
0000
0011
0001
1000
0000
0010
0000
,
1000
0000
0010
1000
0001
0000
0010
0000
,
0100
0000
1000
0100
0010
0000
0100
0000
,
1000
0000
0001
0100
0010
0000
0100
0000
,
0001
0000
0010
0100
1000
0000
0100
0000
,
0010
0000
0001
1000
0010
0000
1000
0000
,
0100
0000
1000
0001
0100
0000
0010
0000
,
0100
0000
0001
0010
0100
0000
0010
0000
,
0001
0000
1001
0000
1000
0000
0010
1000
,
0001
0000
0100
0000
0010
0000
0100
0001
,
1000
0000
0100
0000
1000
0000
0001
1000
,
0010
0000
1000
0000
0100
0000
0010
0100
,
1000
0000
0001
0000
1000
0000
0001
0010
,
0100
0000
0010
0000
0001
0000
1000
0001
,
0010
0000
0100
0000
0010
0000
0001
0010
,
0100
0000
1000
0000
0001
0000
0100
0001
,
1000
0100
0010
0001
,
2000
3002
0023
0032
,
1003
0001
0100
0001
,
1000
0100
0020
0000
0130
0000
1000
0002
,
0100
0000
1003
0001
0010
0000
0001
0000
,
0020
0230
2300
3002
,
1003
0000
0010
1000
0001
0000
0100
0000
,
0001
0010
0200
0000
1300
0000
0100
0020
,
0001
0130
0010
0001
,
1000
0010
1000
0001
,
0010
0100
1000
0001
,
1000
0010
0100
0010
,
1000
0001
0010
0100
,
1000
0000
0100
1000
0001
0000
0010
0100
,
1000
0000
0001
1000
0100
0000
0010
0100
,
1000
0100
0010
0001
,
1000
0000
1001
1000
0100
0000
0010
0100
,
2000
3200
0320
0032
,
1003
0000
0001
0100
0010
0000
1000
0001
,
0010
0001
2000
0000
3020
0000
1030
0001
,
0010
0000
0001
1000
0010
0000
0100
0010
,
2000
3200
0320
0032
,
0013
0000
0001
1000
0010
0000
0100
0001
,
0010
0001
1000
0100
0020
0000
0130
2000
,
0000
3000
0000
0000
0000
0000
0000
0000
;

//---------------dance-single - ----------------
#NOTEDATA:;
#CHARTNAME:;
#STEPSTYPE:dance-single;
#DESCRIPTION:;
#CHARTSTYLE:;
#DIFFICULTY:Medium;
#METER:10;
#RADARVALUES:0.443663,0.457636,0.064870,0.291914,0.531121,383.000000,375.000000,8.000000,36.000000,0.000000,0.000000,0.000000,0.000000,0.000000,0.443663,0.457636,0.064870,0.291914,0.531121,383.000000,375.000000,8.000000,36.000000,0.000000,0.000000,0.000000,0.000000,0.000000;
#CREDIT:;
#NOTES:
0000
0000
0000
0000
,
0000
0000
0000
0000
,
0000
0000
0000
0000
,
0000
0000
0000
0000
,
1000
0000
0000
1000
0000
0000
0001
0000
0000
0001
0000
0000
0010
0000
0000
0000
,
0002
0203
2300
3020
,
0031
0000
0000
0001
0000
0000
1000
0000
0000
1000
0000
0000
0010
0000
0000
0000
,
0100
0010
0100
0001
0010
0000
0100
0010
,
0110
0000
1000
0100
1000
0000
0010
0100
,
0010
0000
1000
0010
1000
0000
0001
0010
,
0001
0000
1000
0100
1000
0000
0001
0100
,
0001
0000
1000
0100
1000
0000
0001
0100
,
0101
0000
0000
1000
0001
0000
0010
0000
0001
0000
0000
0100
0010
0000
0100
0000
,
0001
0000
0000
0010
0100
0000
1000
0000
0010
0000
0000
1000
0001
0000
1000
0000
,
0010
0000
0000
0100
0010
0100
0000
0001
0000
0010
0000
0100
0000
1000
0000
0002
,
0000
0000
0003
1000
0001
1000
0000
0100
0000
0010
0000
0001
0000
1000
0000
0200
,
0000
0000
0300
0000
1100
0000
0100
0000
1000
0000
0000
0100
1000
0000
0001
0000
,
0100
0000
0000
0010
0100
0000
0001
0000
0010
0000
0000
0100
1000
0000
0001
0000
,
1000
0000
0000
0100
0010
0000
0100
0000
1000
0000
0000
0001
1000
0000
0010
0000
,
0100
0000
0000
0001
0010
0000
0001
0000
1000
0000
0000
0100
1000
0001
1000
0000
,
1001
0000
0000
0100
1000
0000
0001
0000
0100
0000
0000
0010
0100
0000
0001
0000
,
0010
0000
0000
0100
1000
0000
0001
0000
1000
0000
0000
0100
1000
0000
0100
0000
,
0010
0000
0000
0001
0010
0000
0001
0000
1000
0000
0000
0100
0010
0000
0100
0000
,
1000
0000
0000
0001
0100
0000
0010
0000
0100
0000
0000
0001
0010
0001
1000
0000
,
1001
0000
0000
0001
0010
0001
0000
2000
0000
0000
3000
0100
0010
0100
0000
2000
,
0000
0000
3000
0010
1000
0001
0000
0100
0000
0010
0000
0100
0000
0001
0000
0020
,
0000
0000
0030
0100
0010
0001
0000
0010
0000
0100
0000
1000
0000
0001
0000
2000
,
0000
0000
3000
0100
1000
0100
0000
0010
0000
0100
0000
1000
0000
0001
0100
0000
,
0101
0000
0000
1000
0100
1000
0000
0002
0000
0000
0003
0100
0001
0100
0000
0020
,
0000
0000
0030
1000
0010
1000
0000
0200
0000
0000
0301
0100
0000
1000
0000
0200
,
0000
0000
0300
1000
0010
1000
0000
0001
0000
0010
0000
1000
0000
0010
0000
0002
,
0000
0000
0003
0100
0001
0100
0000
0010
0000
0100
0000
0001
0000
0010
0000
0002
,
1000
0003
0001
0010
0001
0000
1000
0000
,
0002
0203
2300
3200
,
0301
0000
0100
0001
1000
0000
0100
0000
,
0010
0100
1000
0000
0001
0000
0100
0020
,
0001
0000
1030
0010
1000
0000
0100
0000
,
2000
3020
0032
0023
,
1030
0000
0010
1000
0001
0000
1000
0000
,
0100
0010
0001
0010
0100
0000
1000
0100
,
1100
0000
0000
1000
0001
0000
0100
0000
0001
0000
0000
0010
0100
0000
0010
0000
,
0001
0000
0000
1000
0100
0000
1000
0000
0001
0000
0000
0010
0100
0000
0010
0000
,
0001
0000
0000
1000
0010
0000
1000
0000
0100
0000
0000
0010
0100
0000
1000
0000
,
0001
0000
0000
0100
0001
0000
1000
0000
0010
0000
0000
0100
0010
0000
1000
0100
,
1000
0000
0000
0001
1000
0000
0010
0000
1000
0000
0000
0100
0010
0000
0001
0000
,
0010
0000
0000
0001
1000
0000
0001
0000
0100
0000
0000
0010
1000
0000
0001
0000
,
0010
0000
0000
0100
0010
0001
0000
1000
0000
0001
0000
0100
0000
0010
0000
2000
,
0000
0000
3000
0010
1000
0001
0000
0010
0000
0001
0000
1000
0000
0100
0000
2000
,
0000
0000
3000
0000
1010
0000
0001
0000
1000
0000
0000
0100
1000
0000
0001
0000
,
2000
3200
0302
0023
,
1030
0000
0000
0010
1000
0000
0001
0000
0010
0000
0000
0100
0010
0000
0001
0000
,
1000
0000
0001
0000
0010
0000
0001
0000
1000
0000
0000
0010
0100
0001
0100
0010
,
0100
0000
0000
0001
0010
0000
0100
0000
1000
0000
0000
0010
0100
0000
0010
0000
,
2000
3200
0302
0023
,
1030
0000
0000
0010
1000
0000
0001
0000
0010
0000
0000
0100
0010
0000
0001
0000
,
1000
0000
0100
0000
0001
0000
0100
0000
1000
0000
0000
0100
1000
0000
0002
0000
,
0000
0000
0003
0000
0010
0001
0010
0001
0000
0000
0000
0000
0000
0000
0000
0000
;

//---------------dance-single - ----------------
#NOTEDATA:;
#CHARTNAME:;
#STEPSTYPE:dance-single;
#DESCRIPTION:;
#CHARTSTYLE:;
#DIFFICULTY:Hard;
#METER:13;
#RADARVALUES:0.508533,0.572045,0.040544,0.064870,0.636535,439.000000,434.000000,5.000000,8.000000,0.000000,0.000000,0.000000,0.000000,0.000000,0.508533,0.572045,0.040544,0.064870,0.636535,439.000000,434.000000,5.000000,8.000000,0.000000,0.000000,0.000000,0.000000,0.000000;
#CREDIT:;
#NOTES:
0000
0000
0000
0000
,
0000
0000
0000
0000
,
0000
0000
0000
0000
,
0000
0000
0000
0000
,
1000
0000
0000
0100
0000
0000
0001
0000
0000
0100
0000
0000
1000
0000
0000
0200
,
0000
0000
0001
0000
0010
0000
1000
1300
,
1000
0000
0000
0100
0000
0000
0010
0000
0000
0100
0000
0000
1000
0000
0000
0000
,
0100
0000
0010
0000
0001
0000
1000
0000
0001
0000
0010
0100
0010
0000
0010
0000
,
0101
0000
0000
0001
1000
0000
0100
0000
1000
0000
0000
0100
0010
0000
0100
0000
,
1000
0000
0000
1000
0001
0000
0100
0000
0010
0000
0000
0100
0001
0000
1000
0000
,
0001
0000
0000
0010
0100
0000
0010
0000
0001
0000
0000
1000
0001
0000
0010
0000
,
0100
0000
0000
1000
0100
1000
0000
0001
0000
0010
0000
0100
0000
1000
0000
0000
,
1001
0000
0000
0001
1000
0000
0100
0000
1000
0000
0000
0010
0100
0000
0010
0000
,
1000
0000
0000
0100
0010
0000
0001
0000
1000
0000
0000
0001
0010
0000
0001
0000
,
1000
0000
0000
0010
0100
0010
0000
1000
0000
0100
0000
0001
0000
0010
0000
2000
,
0000
0000
3000
0001
1000
0100
0000
1000
0000
0001
0000
0010
0000
0100
0000
2000
,
0010
0000
3000
1000
0100
0000
0100
0000
0010
0001
0000
0100
0010
0000
1000
0000
,
0100
0000
0000
1000
0001
0000
0010
0000
0001
0000
0000
1000
0010
0000
1000
0000
,
0001
0000
0000
0010
0100
0000
0010
0000
0001
1000
0000
0001
0100
0000
0010
0000
,
1000
0000
0000
0001
0100
0000
0010
0000
1000
0000
0000
0001
0010
1000
0010
0100
,
1000
0000
0000
0010
1000
0000
0001
0000
1000
0000
0000
0100
0010
0000
0100
1000
,
0000
0001
0010
0000
0001
1000
0000
0010
0100
0000
0000
0001
0010
0000
0001
0000
,
1000
0000
0000
0010
0100
0000
0010
0000
1000
0010
0000
0100
0001
0000
0010
0001
,
0000
1000
0010
0000
0100
0010
0000
0100
0001
0000
0000
1000
0001
0010
0001
1000
,
0100
0000
0000
0010
0100
0000
0010
0000
1000
0000
0000
0100
0010
0000
0100
0000
,
1000
0000
0000
0001
0010
0001
0000
1000
0000
0100
0000
0001
0000
0100
0000
1000
,
0000
0000
0000
0010
1000
0000
0001
0000
0100
0000
0000
0010
0100
0000
0001
0000
,
1000
0000
0000
0100
0010
0100
0000
1000
0000
0001
0000
0100
0010
1000
0001
0010
,
0001
0000
0000
0100
0001
0000
1000
0000
0100
0000
0000
0010
0100
0000
1000
0000
,
0001
0000
0000
0100
0001
1000
0000
0100
0000
0000
0100
1000
0000
0001
0100
0000
,
0001
0000
0000
0010
0001
0000
1000
0000
0010
0000
0000
0100
0010
0000
0100
0000
,
0001
0000
0000
1000
0100
1000
0000
0100
0000
0010
0000
0001
1000
0010
1000
0001
,
1000
0000
0010
1000
0001
0000
0010
0000
,
0200
0000
0320
0000
0032
0000
2003
0100
,
3100
0000
1000
0001
0100
0000
0010
0000
,
1000
0100
0001
0100
1000
0000
0001
0000
,
1001
0000
0000
0000
0100
0000
1000
0000
0001
0000
0000
0000
0010
0000
0000
0100
,
0010
0000
0000
0000
0001
0000
0000
1000
0010
0000
0000
0000
1000
0000
0001
0000
,
0100
0000
0000
0000
0010
0000
0100
0000
0001
0010
0000
0000
0001
0000
0000
0000
,
1000
0010
0001
0010
1000
0000
0100
0000
,
1001
0000
0000
1000
0100
0000
1000
0000
0001
0000
0000
0010
0100
0000
0010
0000
,
0001
0000
0000
1000
0100
1000
0000
0010
0000
0100
0000
0001
0000
0010
0000
0100
,
1000
0000
0000
0001
1000
0000
0100
0000
1000
0000
0000
0001
0010
0000
0001
0000
,
0100
0000
0000
0001
0100
0001
0000
0010
0000
0100
0000
0010
0000
0001
1000
0001
,
0010
0000
0000
0100
1000
0000
0001
0000
0100
0000
0000
0010
0100
0000
0001
0000
,
0010
0000
0000
0100
1000
0000
0001
0000
1000
0000
0000
0100
0010
0000
0001
0000
,
1000
0000
0000
0010
1000
0000
0001
0000
0100
0000
0000
0010
0100
0000
0010
0000
,
1000
0010
0100
0010
1000
0010
0100
0010
2000
0000
0000
0000
0010
0000
3001
0000
,
1001
0000
0000
1000
0100
0000
1000
0000
0001
0010
0000
0100
1000
0000
0001
0000
,
0100
0000
0010
0100
0001
0010
0100
0000
1000
0000
0100
1000
0100
0000
0010
0000
,
0001
0000
0000
1000
0001
0000
0010
0000
0100
0000
0000
1000
0010
0000
1000
0000
,
0001
0000
0100
0000
1000
0000
0100
0000
0001
0000
0000
0100
0010
1000
0001
0010
,
0100
0000
0000
1000
0100
0000
1000
0000
0001
0000
0000
0010
0001
0000
1000
0000
,
0001
0000
0100
0010
1000
0000
0100
0000
1000
0000
0000
0001
0100
0000
0001
0000
,
0010
0000
0000
0100
0010
0000
0001
0000
1000
0000
0000
0010
1000
0000
0001
0000
,
1000
0001
1000
0001
0100
0001
0100
0001
1000
0001
1000
0001
0010
0001
0010
0001
,
0100
0000
0000
0000
0010
0100
0010
0100
0000
0000
0000
0000
0000
0000
0000
0000
;
