#VERSION:0.83;
#TITLE:TSUGARU;
#SUBTITLE:;
#ARTIST:RevenG vs DE-SIRE;
#TITLETRANSLIT:;
#SUBTITLETRANSLIT:;
#ARTISTTRANSLIT:;
#GENRE:;
#ORIGIN:;
#CREDIT:;
#BANNER:TSUGARU-bn.png;
#BACKGROUND:TSUGARU-bg.png;
#PREVIEWVID:;
#JACKET:TSUGARU-jacket.png;
#CDIMAGE:;
#DISCIMAGE:TSUGARU.png;
#LYRICSPATH:;
#CDTITLE:;
#MUSIC:TSUGARU.ogg;
#OFFSET:0.000000;
#SAMPLESTART:72.369003;
#SAMPLELENGTH:15.000000;
#SELECTABLE:YES;
#DISPLAYBPM:94.000000:165.000000;
#BPMS:0.000=165.000,
233.000=156.500,
237.000=131.000,
241.000=123.000,
242.000=130.000,
243.000=108.500,
244.000=94.000;
#STOPS:20.000=1.091;
#DELAYS:;
#WARPS:;
#TIMESIGNATURES:0.000=4=4;
#TICKCOUNTS:0.000=4;
#COMBOS:0.000=1;
#SPEEDS:0.000=1.000=0.000=0;
#SCROLLS:0.000=1.000;
#FAKES:;
#LABELS:0.000=Song Start;
#BGCHANGES:;
#KEYSOUNDS:;
#ATTACKS:
;

//---------------dance-single - ----------------
#NOTEDATA:;
#CHARTNAME:;
#STEPSTYPE:dance-single;
#DESCRIPTION:;
#CHARTSTYLE:;
#DIFFICULTY:Beginner;
#METER:3;
#RADARVALUES:0.168981,0.293718,0.202472,0.000000,0.000000,111.000000,92.000000,19.000000,0.000000,0.000000,0.000000,0.000000,0.000000,0.000000,0.168981,0.293718,0.202472,0.000000,0.000000,111.000000,92.000000,19.000000,0.000000,0.000000,0.000000,0.000000,0.000000,0.000000;
#CREDIT:;
#DISPLAYBPM:165.000000;
#NOTES:
0000
0000
0000
0000
,
0000
0000
0000
0000
,
0000
0000
0000
0000
,
0000
0000
0000
0000
,
0000
0000
0000
0000
,
0000
0000
0010
0000
,
0010
0000
0100
0000
,
0100
0000
0010
0000
,
0000
0100
0000
0100
,
0000
0000
0001
0000
,
0001
0000
1000
0000
,
1000
0000
0001
0000
,
0000
1000
0000
1000
,
0000
0000
0010
0000
,
0100
0000
0010
0000
,
0100
0000
0010
0000
,
0100
0000
0000
0100
,
0000
0000
0010
0000
,
1000
0000
0001
0000
,
0100
0000
0010
0000
,
1000
0000
0100
0000
,
0010
0000
0000
0000
,
0000
0000
0000
0000
,
0000
0000
0000
0000
,
0000
1000
0000
1000
,
0000
0001
0000
0001
,
0000
1000
0000
1000
,
0000
0001
0000
0001
,
0000
0010
0000
0010
,
0000
0100
0000
0100
,
0000
0010
0000
0010
,
0000
0100
0000
0100
,
0000
1000
0000
0001
,
0000
0010
0000
0100
,
0000
1000
0000
0010
,
0000
0100
0000
0001
,
0000
0010
0000
1001
,
0000
0100
0000
1001
,
0000
0010
0000
1001
,
0000
0100
0000
1001
,
0000
0010
0000
0000
,
0000
1000
0000
0000
,
0000
0001
0000
0000
,
0000
0100
0000
0000
,
0000
0010
0000
0000
,
0000
0001
0000
0000
,
0000
0010
0000
0000
,
0000
1000
0000
0000
,
0000
1001
0000
0000
,
0000
0110
0000
1001
,
0000
0010
0000
1001
,
0000
1001
0000
0110
,
0000
1000
0000
0110
,
0000
0110
0000
1001
,
0000
0010
0000
1001
,
0000
0110
0000
1001
,
0000
0010
0000
1001
,
0000
0010
0000
0110
,
0000
1001
0000
0000
,
0000
0010
0000
0000
,
0000
0100
0000
0000
,
0000
0010
0000
0000
,
0000
0000
0000
0000
;

//---------------dance-single - ----------------
#NOTEDATA:;
#CHARTNAME:;
#STEPSTYPE:dance-single;
#DESCRIPTION:;
#CHARTSTYLE:;
#DIFFICULTY:Easy;
#METER:5;
#RADARVALUES:0.199428,0.327685,0.255754,0.223785,0.000000,131.000000,107.000000,24.000000,21.000000,0.000000,0.000000,0.000000,0.000000,0.000000,0.199428,0.327685,0.255754,0.223785,0.000000,131.000000,107.000000,24.000000,21.000000,0.000000,0.000000,0.000000,0.000000,0.000000;
#CREDIT:;
#DISPLAYBPM:165.000000;
#NOTES:
0000
0000
0000
0000
,
0000
0000
0000
0000
,
0000
0000
0000
0000
,
0000
0000
0000
0000
,
0000
0000
0000
0000
,
0000
0000
0010
0000
,
0010
0000
0100
0000
,
0100
0000
0010
0000
,
0010
0100
0000
0100
,
0000
0000
0001
0000
,
0001
0000
1000
0000
,
1000
0000
0001
0000
,
0001
1000
0000
1000
,
0000
0000
0010
0000
,
0100
0000
0010
0000
,
0100
0000
0010
0000
,
0100
0010
0000
0100
,
0000
0000
0010
0000
,
1000
0000
0001
0000
,
0100
0000
0010
0000
,
1000
0001
0000
0100
,
0000
0020
0000
0000
,
0000
0000
0000
0000
,
0000
0000
0000
0000
,
0030
1000
0000
1000
,
0000
0001
0000
0001
,
0000
1000
0000
1000
,
0000
0001
0000
0001
,
1001
0010
0000
0010
,
0000
0100
0000
0100
,
0000
0010
0000
0010
,
0000
0100
0000
0100
,
0110
1000
0000
0001
,
0000
0010
0000
0100
,
0000
1000
0000
0010
,
0000
0100
0000
0001
,
1001
0010
0000
1001
,
0000
0100
0000
1001
,
0000
0010
0000
1001
,
0000
0100
0000
1001
,
0000
0020
0000
0000
,
0030
2000
0000
0000
,
3000
0002
0000
0000
,
0003
0200
0000
0000
,
0300
0020
0030
2000
,
3000
0002
0003
0200
,
0300
0020
0030
2000
,
3000
0002
0003
0200
,
0300
2002
0000
0000
,
3003
0110
0000
1001
,
0000
0010
0100
1001
,
0000
1001
0000
0110
,
0000
1000
0001
0110
,
0000
0011
0000
1001
,
0000
0010
0001
1001
,
0000
1010
0000
1001
,
0000
0010
1000
1001
,
0000
1010
0000
0101
,
0000
2002
0000
0000
,
3003
0020
0000
0000
,
0030
0200
0000
0000
,
0300
2002
3003
0000
,
0000
0000
0000
0000
;

//---------------dance-single - ----------------
#NOTEDATA:;
#CHARTNAME:;
#STEPSTYPE:dance-single;
#DESCRIPTION:;
#CHARTSTYLE:;
#DIFFICULTY:Medium;
#METER:9;
#RADARVALUES:0.401900,0.458760,0.341006,0.117221,0.138534,264.000000,232.000000,32.000000,11.000000,0.000000,0.000000,0.000000,0.000000,0.000000,0.401900,0.458760,0.341006,0.117221,0.138534,264.000000,232.000000,32.000000,11.000000,0.000000,0.000000,0.000000,0.000000,0.000000;
#CREDIT:;
#DISPLAYBPM:165.000000;
#NOTES:
0000
0000
0000
0000
,
0000
0000
0000
0000
,
0000
0000
0000
0000
,
0000
0000
0000
0000
,
0000
0000
0000
0000
,
0000
0000
0000
0100
0000
0100
0000
0001
,
0001
0000
0000
1000
0000
1000
0000
0001
,
0001
0000
0000
0010
0000
0010
0000
0001
,
0001
0011
1001
1010
,
1001
0000
0000
0100
0000
0100
0000
1000
,
1000
0000
0000
0001
0000
0001
0000
1000
,
1000
0000
0000
0010
0000
0010
0000
1000
,
1000
1100
1001
0101
,
1001
0000
0000
0100
0000
1000
0000
0001
,
0001
0000
0000
1000
0000
0010
0000
0001
,
0001
0000
0000
0010
0000
0100
0000
0001
,
0001
0011
0101
0110
,
1010
0000
0000
0100
0000
0001
0000
1000
,
1000
0000
0000
0001
0000
0010
0000
1000
,
1000
0000
0000
0010
0000
0100
0000
1000
,
1000
1010
1100
0110
,
0011
2002
0000
0000
,
0000
0000
0000
0000
,
0000
0000
0000
0000
,
3003
0000
0000
0010
0000
0000
0010
0000
0000
0010
0000
0010
,
1000
0000
1000
0001
0000
0000
0001
0000
0000
0001
0000
0001
,
0100
0000
0100
0010
0000
0000
0010
0000
0000
0010
0000
0010
,
1000
0000
1000
0001
0000
0000
0001
0000
0000
0001
0000
0001
,
0100
0000
0100
0010
0000
0000
0010
0000
0000
0010
0000
0010
,
0100
0000
0100
0001
0000
0000
0001
0000
0000
0001
0000
0001
,
1000
0000
1000
0100
0000
0000
0100
0000
0000
0100
0000
0100
,
0010
0000
0010
0001
0000
0000
0001
0000
0000
0001
0000
0001
,
1000
0000
1000
0001
0000
0000
0001
0000
0000
1000
0000
0000
,
1000
0010
0010
0100
,
0100
0001
0001
1000
,
1000
0010
0010
0100
,
0100
0010
0010
1100
,
0000
0100
0100
0011
,
0000
0001
1001
1000
,
1001
0100
0100
1001
,
0000
0000
0010
0000
0000
1000
0000
0000
,
0100
0000
0001
0000
0001
0000
0000
1000
,
0000
1000
0010
0000
1000
0000
0100
0000
,
0100
0000
0001
0000
0001
0000
0000
1000
,
0000
1000
0100
0000
0100
0000
0010
0001
,
0010
0000
0001
0000
0001
0000
1000
0010
,
1000
0000
0010
0000
0100
0000
0010
1000
,
0100
0000
0100
0000
0010
0000
0100
1000
,
0010
0000
0101
0000
0000
1001
0000
0000
,
1100
0000
0000
0000
0010
0000
0000
0000
0010
0000
0000
0000
0010
0000
0000
0010
,
0001
0000
0000
0001
1000
0000
0000
0000
1000
0000
0000
0000
1000
0000
0000
0000
,
1000
0000
0000
0001
0100
0000
0000
0000
0100
0000
0000
0000
0100
0000
0000
0100
,
0001
0000
0000
0001
1000
0000
0000
0000
0001
0000
0000
0000
0001
0000
0000
0000
,
0001
0000
0000
0000
0100
0000
0000
0000
0100
0000
0000
0000
0100
0000
0000
0100
,
1000
0000
0000
1000
0001
0000
0000
0000
1000
0000
0000
0000
1000
0000
0000
0000
,
1000
0000
0000
0001
0010
0000
0000
0000
0010
0000
0000
0000
0010
0000
0000
0010
,
0001
0000
0000
0001
1000
0000
0000
0000
0001
0000
0000
0000
1001
0000
0000
0000
,
0000
1010
0000
0101
0000
0000
0011
0000
,
1100
2002
0000
0000
,
3003
0220
0000
0000
,
0330
2000
3200
0302
,
0203
2300
3000
0000
,
0000
0000
0000
0000
;

//---------------dance-single - ----------------
#NOTEDATA:;
#CHARTNAME:;
#STEPSTYPE:dance-single;
#DESCRIPTION:;
#CHARTSTYLE:;
#DIFFICULTY:Hard;
#METER:12;
#RADARVALUES:0.596760,0.655371,0.277067,0.117221,0.436914,392.000000,366.000000,26.000000,11.000000,0.000000,0.000000,0.000000,0.000000,0.000000,0.596760,0.655371,0.277067,0.117221,0.436914,392.000000,366.000000,26.000000,11.000000,0.000000,0.000000,0.000000,0.000000,0.000000;
#CREDIT:;
#DISPLAYBPM:165.000000;
#NOTES:
0000
0000
0000
0000
,
0000
0000
0000
0000
,
0000
0000
0000
0000
,
0000
0000
0000
0000
,
0000
0000
0000
0000
,
0000
0000
0000
0100
0001
0001
0100
0001
,
0001
0000
0000
1000
0001
0001
1000
0001
,
0001
0000
0000
0010
0001
0001
0010
0001
,
0100
0001
0010
0100
0100
1000
0001
0001
,
0100
0001
0000
0010
1000
1000
0010
1000
,
1000
0000
0000
0001
1000
1000
0001
1000
,
1000
0000
0000
0100
1000
1000
0100
1000
,
0010
1000
0100
0010
0010
0001
1000
1000
,
0010
1000
0000
0100
0010
0010
0100
0010
,
0010
0000
0000
1000
0010
0010
1000
0010
,
0010
0000
0000
0001
0010
0010
0001
0010
,
1000
0010
1000
0001
0001
0010
0100
0100
,
1000
0001
0000
0010
0100
0100
0010
0100
,
0100
0000
0000
0001
0100
0100
0001
0100
,
0100
0000
0000
1000
0100
0100
1000
0100
,
0001
0100
1000
0001
0001
0010
0100
0100
,
1000
0001
2002
0000
0000
0000
0000
0000
,
0000
0000
0000
0000
,
0000
0000
0000
0000
,
3003
0000
0000
0010
0000
0010
1000
0000
1000
0001
0000
0001
,
0100
0000
0100
0010
0000
0010
1000
0000
1000
0001
0000
0001
,
0100
0000
0100
0010
0000
0010
1000
0000
1000
0001
0000
0001
,
0100
0000
0100
0010
0000
0010
1000
0000
1000
0001
0000
0001
,
0100
0000
0100
0010
0000
0010
1000
0000
1000
0100
0000
0100
,
0010
0000
0010
0001
0000
0001
0100
0000
0100
0010
0000
0010
,
1000
0000
1000
0010
0000
0010
1000
0000
1000
0100
0000
0100
,
0010
0000
0010
0001
0000
0001
0100
0000
0100
0010
0000
0010
,
1000
0000
0000
0000
0000
0000
0000
0000
0000
0000
0000
0000
0000
0000
0000
0000
1000
0000
0000
0000
0000
0000
0000
0000
0010
0000
0000
0000
0000
0000
0000
0000
0000
0000
0000
0000
0000
0000
0000
0000
0000
0000
0000
0000
0000
0010
0000
0000
0100
0000
0000
0000
0000
0000
0000
0000
0000
0000
0000
0000
0000
0000
0000
0000
0100
0000
0000
0000
0000
0000
0000
0000
0001
0000
0000
0000
0000
0000
0000
0000
0000
0000
0000
0000
0000
0000
0000
0000
0000
0000
0000
0000
0000
0001
0000
0000
,
1000
0000
0000
0000
0000
0000
0000
0000
0000
0000
0000
0000
0000
0000
0000
0000
1000
0000
0000
0000
0000
0000
0000
0000
0010
0000
0000
0000
0000
0000
0000
0000
0000
0000
0000
0000
0000
0000
0000
0000
0000
0000
0000
0000
0000
0010
0000
0000
0100
0000
0000
0000
0000
0000
0000
0000
0000
0000
0000
0000
0000
0000
0000
0000
0100
0000
0000
0000
0000
0000
0000
0000
0001
0000
0000
0000
0000
0000
0000
0000
0000
0000
0000
0000
0000
0000
0000
0000
0000
0000
0000
0000
0000
0001
0000
0000
,
1000
0000
0000
0000
0000
0000
0000
0000
0000
0000
0000
0000
0000
0000
0000
0000
1000
0000
0000
0000
0000
0000
0000
0000
0010
0000
0000
0000
0000
0000
0000
0000
0000
0000
0000
0000
0000
0000
0000
0000
0000
0000
0000
0000
0000
0010
0000
0000
0100
0000
0000
0000
0000
0000
0000
0000
0000
0000
0000
0000
0000
0000
0000
0000
0100
0000
0000
0000
0000
0000
0000
0000
0001
0000
0000
0000
0000
0000
0000
0000
0000
0000
0000
0000
0000
0000
0000
0000
0000
0000
0000
0000
0000
0001
0000
0000
,
1000
0000
0000
0000
0000
0000
0000
0000
0000
0000
0000
0000
0000
0000
0000
0000
1000
0000
0000
0000
0000
0000
0000
0000
0010
0000
0000
0000
0000
0000
0000
0000
0000
0000
0000
0000
0000
0000
0000
0000
0000
0000
0000
0000
0000
0010
0000
0000
0100
0000
0000
0000
0000
0000
0000
0000
0000
0000
0000
0000
0000
0000
0000
0000
0100
0000
0000
0000
0000
0000
0000
0000
0001
0000
0000
0000
0000
0000
0000
0000
0000
0000
0000
0000
0000
0000
0000
0000
0000
0000
0000
0000
0000
0001
0000
0000
,
1000
0000
1000
0001
1000
0001
1000
0000
0000
1001
0000
0000
,
0001
0000
1000
0010
0100
0010
0100
0000
0000
0110
0000
0000
,
0010
0000
0100
0001
1000
0001
1000
0000
0000
0010
0100
0010
,
0100
0000
0000
0001
1000
0001
1000
0000
0000
2002
0000
0000
,
3003
0000
1100
0000
0001
0010
0000
0001
,
0100
0001
1010
0000
0101
0000
1000
0100
,
1000
0100
0011
0000
1010
0000
0100
0001
,
0010
0000
0100
0000
1000
0000
0001
0000
0110
0000
0000
0000
1001
0000
1000
0001
,
1000
1001
0010
1000
0100
0001
0100
1000
,
0010
0001
0010
1000
0100
0001
0100
1000
,
0010
0001
0010
1000
0100
0010
0100
1000
,
0010
0001
0010
1000
0100
0010
0100
1000
,
0010
0001
0010
1000
0001
0100
0010
1000
,
0001
0000
0000
0001
1000
0000
0000
1000
0001
0000
0000
0001
0100
0000
0000
0100
,
0010
1010
0101
1100
,
0011
0000
0000
0001
1000
0000
0000
1000
0001
0000
0000
0001
0010
0000
0000
0010
,
0100
0000
0000
0100
1000
0000
0010
0000
0100
0000
0001
0000
0010
0000
0100
0000
,
1000
0000
0001
0000
1000
0000
0000
1000
0001
0000
0000
0001
0100
0000
0000
0100
,
0010
0000
0000
0010
1000
0000
0000
0000
0101
0000
0000
0000
0010
0000
0000
0000
,
1100
0000
0000
0100
1000
0000
0000
1000
0010
0000
0000
0010
0100
0000
0000
0100
,
0001
0000
0000
0001
0010
0000
0000
0000
1100
0000
0000
0000
0101
0000
0000
0000
,
0000
1001
0000
0011
0000
1010
1001
0000
,
0110
2002
0000
0000
,
3003
0000
0000
0000
0000
1000
0000
0000
2000
0000
0000
0000
0000
0000
0000
0000
0000
0000
0000
0000
0000
0000
0000
0000
0000
0000
0000
0000
0000
0000
0000
0000
,
3000
0000
0000
0000
0000
0001
0000
0000
0002
0000
0000
0000
0000
0000
0000
0000
0023
0000
0000
0000
0000
0000
0000
0000
0230
0000
0000
0000
0000
0000
0000
0000
,
1300
0000
0010
0100
0002
0000
0000
0000
0003
0000
0000
0000
0000
0000
0000
0000
,
0000
0000
0000
0000
;

//---------------dance-double - ----------------
#NOTEDATA:;
#CHARTNAME:;
#STEPSTYPE:dance-double;
#DESCRIPTION:;
#CHARTSTYLE:;
#DIFFICULTY:Easy;
#METER:6;
#RADARVALUES:0.275545,0.360454,0.245098,0.063939,0.000000,181.000000,158.000000,23.000000,6.000000,0.000000,0.000000,0.000000,0.000000,0.000000,0.275545,0.360454,0.245098,0.063939,0.000000,181.000000,158.000000,23.000000,6.000000,0.000000,0.000000,0.000000,0.000000,0.000000;
#CREDIT:;
#DISPLAYBPM:165.000000;
#NOTES:
00000000
00000000
00000000
00000000
,
00000000
00000000
00000000
00000000
,
00000000
00000000
00000000
00000000
,
00000000
00000000
00000000
00000000
,
00000000
00000000
00000000
00000000
,
00000000
00000000
00000000
00000010
00000000
00000100
00000000
00000000
,
00000101
00000000
00000000
00001000
00000000
00010000
00000000
00000000
,
00101000
00000000
00000000
00010000
00000000
00100000
00000000
00000000
,
10100000
01000000
00010000
00001000
,
00001000
00000000
00000000
00000010
00000000
00000001
00000000
00000000
,
00000101
00000000
00000000
00001000
00000000
00010000
00000000
00000000
,
10100000
00000000
00000000
10000000
00000000
01000000
00000000
00000000
,
11000000
01000000
00010000
00001000
,
00010000
00000000
00000000
00100000
00000000
10000000
00000000
00000000
,
10010000
00000000
00000000
01000000
00000000
00010000
00000000
00000000
,
00011000
00000000
00000000
00000010
00000000
00000001
00000000
00000000
,
00000101
00000100
00001000
00010000
,
00001000
00000000
00000000
00100000
00000000
01000000
00000000
00000000
,
11000000
00000000
00000000
01000000
00000000
00010000
00000000
00000000
,
00011000
00000000
00000000
00001000
00000000
00000010
00000000
00000000
,
00000011
00000001
00000100
00001000
,
00010000
00022000
00000000
00000000
,
00000000
00000000
00000000
00000000
,
00000000
00000000
00000000
00000000
,
00033000
00100000
00000000
10000000
,
00000000
01000000
00000000
00010000
,
00000000
00001000
00000000
00000010
,
00000000
00000001
00000000
00000100
,
00000000
00001000
00000000
00010000
,
00000000
01000000
00000000
10000000
,
00000000
00100000
00000000
00010000
,
00000000
00001000
00000000
00000100
,
00000000
00000001
00000010
00001000
,
00000000
00001000
00010000
01000000
,
00000000
01000000
10000000
00100000
,
00000000
00100000
00010000
00001000
,
00010000
01000000
00100000
00011000
,
00000000
00000100
00000010
00011000
,
00000000
00000010
00000001
00000100
,
00001000
00010000
00100000
10100000
,
00000000
00000000
00100000
00000000
00000000
10000000
00000000
00000000
,
01000000
01100000
00000000
00101000
,
00000000
00010000
00000000
00001000
,
00000000
00000010
00000001
00000000
,
00000011
00000010
00000001
00000100
,
00000000
00000100
00001000
00010000
,
00000000
00010000
00100000
10000000
,
00000000
10000000
01000000
00010000
,
00000000
00000000
00011000
00000000
00000000
00001100
00000000
00000000
,
00000110
00000010
00000001
00000100
,
00000001
00000100
00001000
00010000
,
00000000
00100000
10000000
01000000
,
10000000
01000000
00010000
00001000
,
00010000
00001000
00000010
00000001
,
00000000
00000010
00000001
00000100
,
00000000
00000001
00000100
00001000
,
00010000
00100000
00100000
00100000
,
00000000
10000000
00000000
00000000
00000000
00000000
10000000
00000000
,
01000000
00022000
00000000
00033000
,
00000000
00000020
00000000
00000030
,
00000000
00000001
00000100
00001000
,
00010000
00200000
00300000
00000000
,
00000000
00000000
00000000
00000000
;

//---------------dance-double - ----------------
#NOTEDATA:;
#CHARTNAME:;
#STEPSTYPE:dance-double;
#DESCRIPTION:;
#CHARTSTYLE:;
#DIFFICULTY:Medium;
#METER:9;
#RADARVALUES:0.409512,0.524297,0.351662,0.074595,0.101236,269.000000,236.000000,33.000000,7.000000,0.000000,0.000000,0.000000,0.000000,0.000000,0.409512,0.524297,0.351662,0.074595,0.101236,269.000000,236.000000,33.000000,7.000000,0.000000,0.000000,0.000000,0.000000,0.000000;
#CREDIT:;
#DISPLAYBPM:165.000000;
#NOTES:
00000000
00000000
00000000
00000000
,
00000000
00000000
00000000
00000000
,
00000000
00000000
00000000
00000000
,
00000000
00000000
00000000
00000000
,
00000000
00000000
00000000
00000000
,
00000000
00000000
00000000
00100000
10000000
10000000
01000000
00000000
,
00110000
00000000
00000000
01000000
00001000
00001000
00010000
00000000
,
00001100
00000000
00000000
00000010
00000001
00000001
00000100
00000000
,
00001000
00000100
00011000
00100000
,
00011000
00000000
00000000
00010000
01000000
01000000
00010000
00000000
,
00011000
00000000
00000000
00001000
00000100
00000100
00001000
00000000
,
00011000
00000000
00000000
00100000
10000000
10000000
01000000
00000000
,
00110000
00010000
00001010
00001000
,
01010000
00000000
00100000
00000000
00010000
00010000
01000000
00000000
,
01100000
00000000
00000000
00001000
00010000
00010000
00001000
00000000
,
00011000
00000000
00000000
00000010
00001000
00001000
00000010
00000000
,
00000110
00001010
00011000
01010000
,
00011000
00000000
00000000
00100000
10000000
10000000
01000000
00000000
,
00110000
00000000
00000000
00010000
00001000
00001000
00000100
00000000
,
00000011
00000000
00000000
00000100
00001000
00001000
00010000
00000000
,
00011000
00001010
00011000
01010000
,
00011000
00022000
00000000
00000000
,
00000000
00000000
00000000
00000000
,
00000000
00000000
00000000
00000000
,
00033000
00000000
00000000
00100000
00000000
00100000
10000000
00000000
00000000
01000000
00000000
00000000
,
01000000
00000000
00000000
00010000
00000000
00010000
00001000
00000000
00000000
00000100
00000000
00000000
,
00000100
00000000
00000000
00000001
00000000
00000001
00000010
00000000
00000000
00001000
00000000
00000000
,
00001000
00000000
00000000
00010000
00000000
00010000
01000000
00000000
00000000
10000000
00000000
00000000
,
10000000
00000000
00000000
00100000
00000000
00100000
00010000
00000000
00000000
00001000
00000000
00000000
,
00001000
00000000
00000000
00000010
00000000
00000010
00000001
00000000
00000000
00000100
00000000
00000000
,
00000100
00000000
00000000
00001000
00000000
00001000
00010000
00000000
00000000
00100000
00000000
00000000
,
00100000
00000000
00000000
10000000
00000000
10000000
01000000
00000000
00000000
00010000
00000000
00000000
,
00010000
00000000
00000000
00001000
00000000
00000010
00000001
00000000
00000000
00000001
00000000
00000100
,
00001000
00000000
00000000
00001000
00000000
00010000
00100000
00000000
00000000
00100000
00000000
10000000
,
01000000
00000000
00000000
01000000
00000000
00010000
00001000
00000000
00000000
00001000
00000000
00000100
,
00000001
00000000
00000000
00000001
00000000
00000100
00001000
00000000
00000000
00001000
00000000
00010000
,
00100000
10000000
00100000
10100000
,
00000000
01000000
00010000
01010000
,
00000000
00100000
00010000
00001000
,
00000100
00000010
00001000
00001100
,
00000000
00000000
00100000
00000000
00000000
00010000
00000000
00000000
,
01000000
00100000
10000000
01000000
,
00000000
00001000
00000000
00000010
,
00000001
00000000
00000100
00000000
00001000
00000000
00000000
00010000
,
00000000
00001000
00010000
00000000
00100000
00000000
10000000
00000000
,
01000000
00100000
00010000
01000000
,
00100000
10000000
01000000
00100000
,
00010000
00001000
00000010
00000001
,
00000100
00000000
00000010
00000000
00000000
00001000
00000000
00000000
,
00000100
00000010
00000001
00000100
,
00001000
00010000
01000000
10000000
,
00100000
01000000
00010000
10000000
,
01000000
00000000
00010000
00001000
00000010
00000001
00000100
00001000
,
00010000
00100000
00010000
00000000
00001000
00000000
00000010
00000000
,
00001000
00010000
01000000
00010000
,
00001000
00010000
00100000
10000000
,
01000000
00110000
00011000
00001100
,
00000000
00011000
00000000
00000010
00000000
00000001
00000100
00000000
,
00001100
00022000
00000000
00033000
,
00000000
00000000
00100000
01000000
00000000
00000000
00000000
00000000
00000000
00000000
00000000
00000000
,
00000000
00000000
00010000
00000200
00000000
00000000
00002300
00000000
00000000
00013000
00000000
00000000
,
00000000
00000000
00100000
10000000
02000000
00000000
00000000
00000000
03000000
00000000
00000000
00000000
00000000
00000000
00000000
00000000
;

//---------------dance-double - ----------------
#NOTEDATA:;
#CHARTNAME:;
#STEPSTYPE:dance-double;
#DESCRIPTION:;
#CHARTSTYLE:;
#DIFFICULTY:Hard;
#METER:13;
#RADARVALUES:0.575448,0.557065,0.191816,0.053282,0.410273,378.000000,360.000000,18.000000,5.000000,0.000000,0.000000,0.000000,0.000000,0.000000,0.575448,0.557065,0.191816,0.053282,0.410273,378.000000,360.000000,18.000000,5.000000,0.000000,0.000000,0.000000,0.000000,0.000000;
#CREDIT:;
#DISPLAYBPM:165.000000;
#NOTES:
00000000
00000000
00000000
00000000
,
00000000
00000000
00000000
00000000
,
00000000
00000000
00000000
00000000
,
00000000
00000000
00000000
00000000
,
00000000
00000000
00000000
00000000
,
00000000
00000000
00000000
00010000
00001000
00001000
00010000
00000010
,
00000010
00000000
00000000
00001000
00000001
00000001
00001000
00000001
,
00000100
00000100
00000000
00000010
00000001
00000100
00001000
00010000
,
00100000
01000000
00010000
10000000
10000000
00100000
01000000
01000000
,
00001000
00010000
00000000
00001000
00010000
00010000
00001000
00100000
,
00100000
00000000
00000000
00010000
10000000
10000000
00010000
01000000
,
01000000
00000000
00000000
00100000
10000000
10000000
10000000
01000000
,
00010000
00001000
00000010
00000001
00000100
00000010
00001000
00000100
,
00000010
00000001
00000000
00000100
00000010
00000010
00000100
00000001
,
00000001
00000000
00000000
00000001
00000100
00000100
00000010
00010000
,
00010000
00000000
00000000
00001000
00010000
00010000
00001000
00010000
,
00100000
10000000
01000000
00100000
00010000
01000000
00100000
10000000
,
01000000
00010000
00000000
00001000
00000010
00000010
00000100
00000001
,
00000001
00000000
00000000
00000010
00000001
00000001
00000100
00001000
,
00001000
00000000
00000000
00000010
00000100
00000100
00000001
00000100
,
00001000
00010000
00100000
10000000
01000000
00100000
00010000
01000000
,
00001000
00010000
00022000
00000000
00000000
00000000
00000000
00000000
,
00000000
00000000
00000000
00000000
,
00000000
00000000
00000000
00000000
,
00033000
00000000
00000000
00000010
00000000
00000010
00000001
00000000
00000001
00000100
00000000
00000100
,
00001000
00000000
00001000
00010000
00000000
00010000
00100000
00000000
00100000
10000000
00000000
10000000
,
01000000
00000000
01000000
00010000
00000000
00010000
00001000
00000000
00001000
00000100
00000000
00000100
,
00000001
00000000
00000001
00000010
00000000
00000010
00001000
00000000
00001000
00010000
00000000
00010000
,
00001000
00000000
00001000
00010000
00000000
00010000
01000000
00000000
01000000
00010000
00000000
00010000
,
00001000
00000000
00001000
00000100
00000000
00000100
00001000
00000000
00001000
00010000
00000000
00010000
,
00100000
00000000
00100000
00010000
00000000
00010000
00001000
00000000
00001000
00000010
00000000
00000010
,
00001000
00000000
00001000
00010000
00000000
00010000
00100000
00000000
00100000
10000000
00000000
10000000
,
01000000
00000000
01000000
00010000
00000000
00010000
00001000
00000000
00001000
00000100
00000000
00000100
,
00000001
00000000
00000001
00000010
00000000
00000010
00000100
00000000
00000100
00001000
00000000
00001000
,
00000100
00000000
00000100
00001000
00000000
00000000
00000000
00000000
00010000
00001000
00000000
00000000
,
00000000
00000000
00001000
01000000
00000000
01000000
00100000
00000000
00100000
10000000
00000000
10000000
,
00010000
00000000
00000000
00100000
00000000
00010000
01000000
00000000
00100000
10000000
00000000
00000000
,
11000000
00000000
00000000
00010000
00000000
00001000
00000010
00000000
00000001
00000100
00000000
00000000
,
00000110
00000000
00000000
00000010
00000000
00001000
00000100
00000000
00000010
00000001
00000000
00000100
,
00001000
00000000
00010000
00100000
00000000
10000000
01000000
00000000
00010000
00001000
00000000
00000000
,
00000000
00000000
00000010
00000000
00000001
00000100
00000010
00001000
,
00000100
00000000
00000110
00000000
00001100
00000000
00000010
00000001
,
00000100
00001000
00010000
00000000
00100000
00000000
00100000
10000000
,
01000000
00100000
00010000
10000000
00100000
00000000
10000000
01000000
,
00010000
00001000
00000010
00001000
00000010
00001000
00010000
01000000
,
10000000
01000000
00100000
10000000
00100000
00010000
00001000
00000100
,
00000001
00000100
00000010
00000001
00000010
00001000
00010000
01000000
,
10000000
01000000
00100000
10000000
00100000
00010000
00001000
00000100
,
00000001
00000100
00000010
00000001
00000100
00001000
00010000
00100000
,
10000000
00000000
00000000
00010000
10000000
00000000
00000000
01000000
00100000
00000000
00000000
00010000
01000000
00000000
00000000
00100000
,
10000000
00000000
00000000
01000000
00100000
00000000
00000000
00000000
11000000
00000000
00000000
00000000
00110000
00000000
00000000
00000000
,
00001000
00000000
00000000
00000010
00000100
00000000
00000000
00001000
00000001
00000000
00000000
00000010
00001000
00000000
00000000
00000100
,
00000001
00000000
00000000
00001000
00000010
00000000
00000001
00000000
00000100
00000000
00001000
00000000
00010000
00000000
01000000
00000000
,
10000000
00000000
00100000
00000000
01000000
00000000
00000000
00010000
01000000
00000000
00000000
00001000
00010000
00000000
00000000
00000010
,
00001000
00000000
00000000
00000010
00000100
00000000
00000000
00000000
00011000
00000000
00000000
00000000
01100000
00000000
00000000
00000000
,
00010000
00000000
00000000
00001000
00000010
00000000
00000000
00000001
00000100
00000000
00000000
00001000
00010000
00000000
00000000
00100000
,
10000000
00000000
00000000
01000000
00100000
00000000
00000000
00000000
00011000
00000000
00000000
00000000
00000110
00000000
00000000
00000000
,
00000000
00011000
00000000
01100000
00000000
00010000
00001000
00000000
,
00000110
00022000
00000000
00033000
,
00000000
00000000
10000000
01000000
00000000
00000000
00000000
00000000
00000000
00000000
00000000
00000000
,
00000000
00000000
00000001
00000100
00000000
00000000
00000110
00000000
00000000
00011000
00000000
00000000
,
01100000
00000000
00001000
00010000
00002000
00000000
00000000
00000000
00003000
00000000
00000000
00000000
00000000
00000000
00000000
00000000
;

//---------------dance-single - ----------------
#NOTEDATA:;
#CHARTNAME:;
#STEPSTYPE:dance-single;
#DESCRIPTION:;
#CHARTSTYLE:;
#DIFFICULTY:Challenge;
#METER:14;
#RADARVALUES:0.678967,0.753677,0.223785,0.245098,0.490196,446.000000,425.000000,21.000000,23.000000,0.000000,0.000000,0.000000,0.000000,0.000000,0.678967,0.753677,0.223785,0.245098,0.490196,446.000000,425.000000,21.000000,23.000000,0.000000,0.000000,0.000000,0.000000,0.000000;
#CREDIT:;
#DISPLAYBPM:95.000000:165.000000;
#NOTES:
0000
0000
0000
0000
,
0000
0000
0000
0000
,
0000
0000
0000
0000
,
0000
0000
0000
0000
,
0000
0000
0000
0000
,
2002
0000
0000
3003
1000
0000
0100
0000
0100
0000
0010
0000
0001
0000
0001
0000
,
0001
0000
0010
0001
0001
0100
1000
1000
,
1000
0000
0001
1000
1000
0100
0010
0010
,
0010
0100
1000
1000
0001
0001
0100
0100
,
0010
0010
0100
0001
0001
1000
0010
0010
,
0010
0000
1000
0001
0001
0010
0100
0100
,
0100
0000
0010
0001
0001
0100
0010
0010
,
0010
1000
0001
0001
0100
0100
0010
0010
,
1000
1000
0010
0100
0100
0001
1000
1000
,
1000
0000
0100
1000
1000
0010
0001
0001
,
0001
0000
1000
0001
0001
1000
0100
0100
,
0100
0010
0001
0001
1000
1000
0010
0010
,
0100
0100
0001
1000
1000
0100
0010
0010
,
0010
0000
0100
0010
0010
0001
0100
0100
,
0100
0000
0001
0010
0010
0100
1000
1000
,
1000
0000
0001
0000
1000
0000
1000
0000
0001
0000
0001
0000
0100
0010
0100
0010
,
0100
0010
0100
0010
0200
0000
0000
0000
0000
0000
0000
0000
0020
0000
0000
0000
,
0030
2000
3000
0002
,
0003
0020
0030
0002
,
0303
0000
0000
1001
0000
1000
0100
0000
0100
0010
0000
0010
,
0001
0000
0001
1000
0000
1000
0010
0000
0010
0100
0000
0100
,
0001
0000
0001
0010
0000
0010
0001
0000
0001
1000
0000
1000
,
0100
0000
0100
1000
0000
1000
0001
0000
0001
0100
0000
0100
,
0010
0000
0010
1000
0000
0001
0100
0000
0001
0010
0000
0100
,
1000
0000
0010
0100
0000
0001
0010
0000
0100
1000
0000
0001
,
1000
0000
0010
0100
0000
0001
0010
0000
0100
1000
0000
0001
,
1000
0000
0010
1000
0000
0001
0100
0000
0010
1000
0000
0100
,
0010
0000
0001
0100
0010
0100
0010
0000
0000
1000
0001
1000
,
0001
0000
0000
1000
0100
1000
0100
0000
0000
0010
0001
0010
,
0001
0000
0000
0100
0001
0100
0001
0000
0000
1000
0010
1000
,
0010
0000
0000
1000
0100
0010
0001
0000
0000
0001
0010
0100
,
1000
0000
0000
0001
0100
0001
0100
0001
0100
0001
0000
0000
,
1010
0000
0000
1000
0100
1000
0100
1000
0100
1000
0000
0000
,
0011
0000
0000
1000
0100
1000
0001
0100
0001
1000
0010
1000
,
0001
0010
0001
1000
0100
0010
0001
0010
0100
2000
0000
0000
,
3000
0000
0000
0000
0010
0000
1000
0000
0001
0000
0010
0000
0001
0000
0100
1000
,
0100
0000
0000
0000
0001
0000
0010
0000
0100
0000
0010
0000
0001
0000
1000
0100
,
1000
0000
0000
0000
0001
0000
1000
0000
0100
0000
1000
0000
0001
0000
0010
0100
,
0010
0000
0000
0000
0001
0000
0100
0000
0010
0000
1000
0000
0100
0000
1000
0001
,
1000
0010
0100
0010
1000
0000
1000
0000
0100
0000
0100
0000
0010
0000
0010
0000
,
0001
0001
0100
0100
0010
0010
1000
1000
,
0001
0001
0010
0010
0100
0100
1000
1000
,
0001
0001
1000
1000
0010
0010
0100
0100
,
0001
0000
0001
0000
0011
0000
0001
0100
0001
0000
0101
0000
0100
0010
0100
0000
,
0110
0000
0010
1000
0001
0000
0010
0000
0100
0000
1000
0000
0001
0000
0100
0000
,
0010
0000
1000
0000
0100
0000
1000
0001
1000
0000
0001
0100
0001
0000
0100
0010
,
0100
0000
0010
1000
0010
0000
0100
0000
0001
0000
1000
0000
0001
0000
0100
0000
,
0010
1000
0002
0023
0230
0320
0032
2003
,
3200
2300
3010
1000
0100
0010
0001
0100
,
0001
0000
1000
0000
0100
0000
0010
0001
0010
0000
0001
0100
0001
0000
1000
0100
,
1000
0000
0010
0100
0010
0000
1000
0000
0100
0000
0010
0000
0001
0000
1000
0000
,
0001
0100
0110
0000
1010
0000
1100
0000
,
0010
1001
0000
0101
0000
0110
1001
0100
,
1100
2002
0000
0000
,
3003
0000
0001
0202
0000
0000
0000
0000
0000
0000
0000
0000
,
0303
0000
1000
1100
0000
0000
1010
0000
0000
1001
0000
0000
,
0001
0000
1000
0010
0220
0000
0000
0000
0330
0000
0000
0000
0000
0000
0000
0000
;

//---------------dance-double - ----------------
#NOTEDATA:;
#CHARTNAME:;
#STEPSTYPE:dance-double;
#DESCRIPTION:;
#CHARTSTYLE:;
#DIFFICULTY:Challenge;
#METER:14;
#RADARVALUES:0.710937,0.851982,0.319693,0.106564,0.532822,467.000000,437.000000,30.000000,10.000000,0.000000,0.000000,0.000000,0.000000,0.000000,0.710937,0.851982,0.319693,0.106564,0.532822,467.000000,437.000000,30.000000,10.000000,0.000000,0.000000,0.000000,0.000000,0.000000;
#CREDIT:;
#DISPLAYBPM:94.000000:165.000000;
#NOTES:
// measure 0
00000000
00000000
00000000
00000000
,  // measure 1
00000000
00000000
00000000
00000000
,  // measure 2
00000000
00000000
00000000
00000000
,  // measure 3
00000000
00000000
00000000
00000000
,  // measure 4
00000000
00000000
00000000
00000000
,  // measure 5
00022000
00000000
00000000
00000000
00033000
00000000
00001000
00000000
00000000
01000000
00000000
00000000
01000000
00000000
00000000
00100000
00000000
00000000
10000000
00000000
00000000
10000000
00000000
00000000
,  // measure 6
10000000
00000000
00010000
10000000
10000000
00100000
01000000
01000000
,  // measure 7
01000000
00000000
00001000
00010000
00010000
00000100
00000010
00000010
,  // measure 8
00000010
00000001
00001000
00001000
00000010
00000010
00000100
00000100
,  // measure 9
00000001
00000001
00010000
00001000
00001000
01000000
00010000
00010000
,  // measure 10
00010000
00000000
00100000
00010000
00010000
10000000
01000000
01000000
,  // measure 11
01000000
00000000
10000000
00100000
00100000
01000000
00001000
00001000
,  // measure 12
00010000
00000010
00000100
00000100
00000001
00000001
00001000
00001000
,  // measure 13
00000010
00000010
00010000
00001000
00001000
01000000
00100000
00100000
,  // measure 14
00100000
00000000
10000000
01000000
01000000
00100000
00001000
00001000
,  // measure 15
00001000
00000000
01000000
00010000
00010000
10000000
01000000
01000000
,  // measure 16
00100000
00010000
01000000
01000000
00001000
00001000
00100000
00100000
,  // measure 17
00000010
00000010
00010000
00000100
00000100
00000010
00000001
00000001
,  // measure 18
00000001
00000000
00001000
00000100
00000100
00010000
00001000
00001000
,  // measure 19
00001000
00000000
01000000
00010000
00010000
00100000
01000000
01000000
,  // measure 20
10000000
00000000
00010000
00000000
00100000
00000000
00100000
00000000
00001000
00000000
00001000
00000000
01000000
00100000
01000000
00100000
,  // measure 21
01000000
00100000
01000000
00100000
20000000
00000000
00000000
00000000
00001000
00000000
00000000
00000000
00100000
00000000
00000000
00000000
,  // measure 22
01000000
00010000
00001000
01000000
,  // measure 23
00001000
00010000
00100000
00001000
,  // measure 24
30100000
00000000
00000000
01100000
00000000
01000000
00001000
00000000
00001000
00010000
00000000
00010000
,  // measure 25
00000001
00000000
00000001
00000010
00000000
00000010
00001000
00000000
00001000
00100000
00000000
00100000
,  // measure 26
01000000
00000000
01000000
00001000
00000000
00001000
01000000
00000000
01000000
10000000
00000000
10000000
,  // measure 27
00001000
00000000
00001000
00010000
00000000
00010000
00000100
00000000
00000100
00000001
00000000
00000001
,  // measure 28
00000100
00000000
00000100
00000010
00000000
00000010
00000001
00000000
00000001
00000100
00000000
00000100
,  // measure 29
00000010
00000000
00000010
00100000
00000000
00100000
00001000
00000000
00001000
10000000
00000000
10000000
,  // measure 30
00010000
00000000
00010000
01000000
00000000
01000000
00100000
00000000
00100000
10000000
00000000
10000000
,  // measure 31
00010000
00000000
00010000
00100000
00000000
00100000
00001000
00000000
00001000
00010000
00000000
00010000
,  // measure 32
00000100
00000000
00000100
00001000
00000001
00001000
00000001
00000000
00000001
00000100
00000010
00000100
,  // measure 33
00000010
00000000
00000010
00100000
00010000
00100000
00010000
00000000
00010000
10000000
01000000
10000000
,  // measure 34
01000000
00000000
01000000
00100000
00001000
00100000
00001000
00000000
00001000
01000000
00010000
01000000
,  // measure 35
00010000
00000000
00010000
10000000
01000000
00100000
00010000
00000000
00010000
01000000
00001000
00010000
,  // measure 36
00000001
00000000
00000100
00000001
00000010
00000001
00000010
00000001
00000010
00000001
00000000
00000000
,  // measure 37
00001001
00000000
00000000
00100000
00010000
00100000
00010000
00100000
00010000
00100000
00000000
00000000
,  // measure 38
01100000
00000000
00000000
10000000
01000000
10000000
00010000
01000000
00010000
00001000
00000100
00001000
,  // measure 39
00000001
00000100
00000001
00001000
00000100
00001000
00010000
01000000
00010000
00200000
00000000
00000000
,  // measure 40
00300000
00000000
00000000
00000000
10000000
00000000
01000000
00000000
00100000
00000000
00001000
00010000
00000100
00000000
00000010
00000000
,  // measure 41
00000001
00000000
00000000
00000000
00000100
00000000
00000010
00000000
00001000
00000000
00000001
00000010
00001000
00000000
01000000
00000000
,  // measure 42
00010000
00000000
00000000
00000000
00100000
00000000
00001000
00000000
01000000
00000000
00100000
10000000
00001000
00000000
00010000
00000000
,  // measure 43
00000010
00000000
00000000
00000000
00000100
00000000
00000001
00000000
00000010
00000000
00000100
00000000
00001000
00000000
00000010
00000100
,  // measure 44
00000001
00000100
00000010
00010000
00001000
00000000
00001000
00000000
10000000
00000000
10000000
00000000
00010000
00000000
00010000
00000000
,  // measure 45
01000000
01000000
00100000
00100000
10000000
10000000
01000000
01000000
,  // measure 46
00100000
00100000
00001000
00001000
00010000
00010000
00000010
00000010
,  // measure 47
00001000
00001000
00000001
00000001
00010000
00010000
00000010
00000010
,  // measure 48
00001000
00000000
00001000
00000000
01000100
00000000
01000000
00010000
01000000
00000000
01100000
00000000
00100000
10000000
00100000
00000000
,  // measure 49
10100000
00000000
10000000
00001000
10000000
00000000
00100000
00000000
01000000
00000000
00010000
00000000
00100000
00000000
01000000
00000000
,  // measure 50
10000000
00000000
00010000
00000000
01000000
00000000
00001000
00010000
00001000
00000000
00010000
00000010
00010000
00000000
00000010
00001000
,  // measure 51
00000010
00000000
00001000
00000100
00001000
00000000
00000001
00000000
00000010
00000000
00100000
00000000
00000010
00000000
00000001
00000000
,  // measure 52
00000100
00000010
00001010
00001010
00001100
00001100
00000110
00000110
,  // measure 53
00000011
00000011
00001001
00000100
00010000
00001000
01000000
00100000
,  // measure 54
10000000
00000000
01000000
00000000
00100000
00000000
00010000
01000000
00010000
00000000
01000000
00001000
01000000
00000000
00001000
00010000
,  // measure 55
00001000
00000000
00010000
00000001
00010000
00000000
00001000
00000000
01000000
00000000
00100000
00000000
10000000
00000000
01000000
00000000
,  // measure 56
00100000
00001000
00011000
00000000
01100000
00000000
10010000
00000000
,  // measure 57
00000000
01001000
00000000
00011000
00000000
00000110
00001001
00000000
,  // measure 58
00000011
00022000
00000000
00000000
,  // measure 59
00033000
00000000
01000000
02002000
00000000
00000000
00000000
00000000
00000000
00000000
00000000
00000000
,  // measure 60
03003000
00000000
10000000
11000000
00000000
00000000
00110000
00000000
00000000
00001100
00000000
00000000
,  // measure 61
00000011
00000000
00000001
00002000
02000000
00000000
00000000
00000000
03003000
00000000
00000000
00000000
00000000
00000000
00000000
00000000
;
