#TITLE:TSUGARU (JACKHAMMER Special);
#SUBTITLE:;
#ARTIST:RevenG vs DE-SIRE;
#TITLETRANSLIT:;
#SUBTITLETRANSLIT:;
#ARTISTTRANSLIT:;
#GENRE:;
#CREDIT:;
#BANNER:TSUGARU (JACKHAMMER Special)-bn.png;
#BACKGROUND:TSUGARU (JACKHAMMER Special)-bg.png;
#LYRICSPATH:;
#CDTITLE:;
#MUSIC:TSUGARU (JACKHAMMER Special).ogg;
#OFFSET:0.000000;
#SAMPLESTART:72.369003;
#SAMPLELENGTH:15.000000;
#SELECTABLE:YES;
#DISPLAYBPM:94.000000:165.000000;
#BPMS:0.000000=165.000000
,233.000000=156.500000
,237.000000=131.000000
,241.000000=123.000000
,242.000000=130.000000
,243.000000=108.500000
,244.000000=94.000000
;
#STOPS:20.000000=1.091000
;
#BGCHANGES:;
#KEYSOUNDS:;
#ATTACKS:;

//---------------dance-single - ----------------
#NOTES:
     dance-single:
     :
     Challenge:
     15:
     0.675923,0.848519,0.255754,0.255754,0.596760,444.000000,420.000000,24.000000,24.000000,0.000000,0.000000,0.675923,0.848519,0.255754,0.255754,0.596760,444.000000,420.000000,24.000000,24.000000,0.000000,0.000000:
// measure 0
0000
0000
0000
0000
,  // measure 1
0000
0000
0000
0000
,  // measure 2
0000
0000
0000
0000
,  // measure 3
0000
0000
0000
0000
,  // measure 4
0000
0000
0000
0000
,  // measure 5
0000
0000
0000
0010
0010
0010
0010
0010
,  // measure 6
0010
0000
0000
0100
0100
0100
0100
0100
,  // measure 7
0100
0000
0000
0001
0001
0001
0010
0010
,  // measure 8
0100
0100
1000
1000
1000
1000
0001
0001
,  // measure 9
0001
0001
0000
1000
1000
1000
1000
1000
,  // measure 10
1000
0000
0000
0001
0001
0001
0001
0001
,  // measure 11
0001
0000
0000
0100
0100
0100
0010
0010
,  // measure 12
1000
1000
0010
0010
0010
0010
0100
0100
,  // measure 13
0100
0100
0000
0001
0001
0001
0001
0001
,  // measure 14
0001
0000
0000
0010
0010
0010
0010
0010
,  // measure 15
0010
0000
0000
0001
0001
0001
1000
1000
,  // measure 16
0100
0100
1000
1000
1000
1000
0010
0010
,  // measure 17
0010
0010
0000
1000
1000
1000
1000
1000
,  // measure 18
1000
0000
0000
0100
0100
0100
0100
0100
,  // measure 19
0100
0000
0000
1000
1000
1000
0010
0010
,  // measure 20
0100
0100
0001
0001
0001
0001
0100
0100
,  // measure 21
0100
0100
1002
0000
0023
0000
0230
0000
,  // measure 22
2300
3002
0203
0320
,  // measure 23
2030
3020
0230
0302
,  // measure 24
2003
0000
0000
3001
0000
1000
0100
0000
1000
0001
0000
0100
,  // measure 25
0010
0000
0100
0001
0000
0010
0100
0000
1000
0001
0000
0100
,  // measure 26
0100
0000
0010
0010
0000
1000
0001
0000
0010
0001
0000
0100
,  // measure 27
0010
0000
1000
0100
0000
0010
0001
0000
1000
0001
0000
1000
,  // measure 28
1000
0000
0001
0001
0000
0010
0010
0000
0001
0001
0000
0100
,  // measure 29
0100
0000
0010
0010
0000
1000
1000
0000
1000
1000
0000
0001
,  // measure 30
0100
0000
0001
0100
0000
0100
0100
0000
0001
0001
0000
1000
,  // measure 31
1000
0000
0010
0010
0000
1000
1000
0000
0001
0001
0000
1000
,  // measure 32
0100
0000
1000
0100
1000
1000
1000
0000
0010
0001
0100
0100
,  // measure 33
0100
0000
0010
1000
0001
0001
0001
0000
0010
0001
1000
1000
,  // measure 34
1000
0000
1000
0100
0100
0100
0100
0000
1000
0001
0001
0001
,  // measure 35
0001
0000
0100
0010
0010
0010
0100
0100
0100
0001
0001
0001
,  // measure 36
1000
1000
1000
0001
0001
0001
0001
0001
0001
0001
0000
0000
,  // measure 37
0001
0010
0100
1000
1000
1000
1000
1000
1000
1000
0000
0000
,  // measure 38
1000
0001
0100
0010
0010
0010
0010
0010
0010
0010
0010
0010
,  // measure 39
0010
0010
0010
0010
0010
0010
0010
0010
0010
0010
0000
0000
,  // measure 40
0000
2001
0010
3002
,  // measure 41
0010
0203
1000
0320
,  // measure 42
1000
0230
0010
0302
,  // measure 43
0010
0000
0000
0000
2003
0000
0001
0000
0001
0000
0001
0000
3001
0000
1000
0100
,  // measure 44
0010
0001
0100
0010
1000
0000
1000
0000
0100
0000
0100
0000
0010
0000
0010
0000
,  // measure 45
0001
0001
0010
0010
0001
0001
0100
0100
,  // measure 46
1000
1000
0001
0001
0010
0010
1000
1000
,  // measure 47
0100
0100
1000
1000
0001
0001
0100
0100
,  // measure 48
0010
0000
0010
0000
0110
0000
0010
1000
0100
0100
0100
0000
0000
1000
0100
1000
,  // measure 49
0001
0000
0010
0010
0100
0000
1000
1000
1000
0000
0001
0001
0001
0000
0010
0010
,  // measure 50
0010
0000
0100
0100
0100
0000
0000
0000
1100
0000
0000
0000
0101
0000
0000
0000
,  // measure 51
1001
0000
0010
0100
0001
0000
1000
1000
1000
0000
0100
0100
0100
0000
0010
0010
,  // measure 52
0010
0000
0001
0001
0001
0000
0100
0000
0100
0000
0100
0000
0010
0000
0010
0000
,  // measure 53
1000
0000
1000
0000
1010
0000
0100
0100
0100
0000
1000
1000
1000
0000
0001
0001
,  // measure 54
0001
0000
0010
0010
0010
0000
0000
0000
0011
0000
0000
0000
1010
0000
0000
0000
,  // measure 55
0110
0000
0010
1000
0001
0000
0010
0010
0010
0000
0001
0001
0001
0000
0100
0100
,  // measure 56
0010
1000
0100
0010
0002
0000
0000
0000
1000
0000
0000
0000
0103
0000
0000
0000
,  // measure 57
0000
1100
0000
0101
0000
0011
1010
0000
,  // measure 58
0110
2002
0000
0000
,  // measure 59
3003
0000
0110
0220
0000
0000
0000
0000
0000
0000
0000
0000
,  // measure 60
0330
0000
1001
1001
0000
0000
1100
0000
0000
1001
0000
0000
,  // measure 61
0101
0000
0010
0010
0110
0000
0000
0000
0000
0000
0000
0000
0000
0000
0000
0000
;
